  0
SECTION
  2
HEADER
  9
$ACADVER
  1
AC1009
  9
$DWGCODEPAGE
  3
ansi_1252
  9
$INSBASE
 10
0.0
 20
0.0
 30
0.0
  9
$EXTMIN
 10
0.0
 20
0.0
 30
0.0
  9
$EXTMAX
 10
202.212128
 20
285.0
 30
2.0
  9
$LIMMIN
 10
0.0
 20
0.0
  9
$LIMMAX
 10
420.0
 20
297.0
  9
$ORTHOMODE
 70
     0
  9
$REGENMODE
 70
     1
  9
$FILLMODE
 70
     1
  9
$QTEXTMODE
 70
     0
  9
$MIRRTEXT
 70
     1
  9
$DRAGMODE
 70
     2
  9
$LTSCALE
 40
1.0
  9
$OSMODE
 70
     0
  9
$ATTMODE
 70
     1
  9
$TEXTSIZE
 40
2.5
  9
$TRACEWID
 40
1.0
  9
$TEXTSTYLE
  7
STANDARD
  9
$CLAYER
  8
0
  9
$CELTYPE
  6
BYLAYER
  9
$CECOLOR
 62
   256
  9
$DIMSCALE
 40
1.0
  9
$DIMASZ
 40
2.5
  9
$DIMEXO
 40
0.625
  9
$DIMDLI
 40
3.75
  9
$DIMRND
 40
0.0
  9
$DIMDLE
 40
0.0
  9
$DIMEXE
 40
1.25
  9
$DIMTP
 40
0.0
  9
$DIMTM
 40
0.0
  9
$DIMTXT
 40
2.5
  9
$DIMCEN
 40
2.5
  9
$DIMTSZ
 40
0.0
  9
$DIMTOL
 70
     0
  9
$DIMLIM
 70
     0
  9
$DIMTIH
 70
     0
  9
$DIMTOH
 70
     0
  9
$DIMSE1
 70
     0
  9
$DIMSE2
 70
     0
  9
$DIMTAD
 70
     1
  9
$DIMZIN
 70
     8
  9
$DIMBLK
  1

  9
$DIMASO
 70
     1
  9
$DIMSHO
 70
     1
  9
$DIMPOST
  1

  9
$DIMAPOST
  1

  9
$DIMALT
 70
     0
  9
$DIMALTD
 70
     3
  9
$DIMALTF
 40
0.03937
  9
$DIMLFAC
 40
1.0
  9
$DIMTOFL
 70
     1
  9
$DIMTVP
 40
0.0
  9
$DIMTIX
 70
     0
  9
$DIMSOXD
 70
     0
  9
$DIMSAH
 70
     0
  9
$DIMBLK1
  1

  9
$DIMBLK2
  1

  9
$DIMSTYLE
  2
STANDARD
  9
$DIMCLRD
 70
     0
  9
$DIMCLRE
 70
     0
  9
$DIMCLRT
 70
     0
  9
$DIMTFAC
 40
1.0
  9
$DIMGAP
 40
0.625
  9
$LUNITS
 70
     2
  9
$LUPREC
 70
     4
  9
$AXISMODE
 70
     0
  9
$AXISUNIT
 10
0.0
 20
0.0
  9
$SKETCHINC
 40
1.0
  9
$FILLETRAD
 40
2.5
  9
$AUNITS
 70
     0
  9
$AUPREC
 70
     0
  9
$MENU
  1
.
  9
$ELEVATION
 40
0.0
  9
$PELEVATION
 40
0.0
  9
$THICKNESS
 40
0.0
  9
$LIMCHECK
 70
     0
  9
$BLIPMODE
 70
     1
  9
$CHAMFERA
 40
2.5
  9
$CHAMFERB
 40
2.5
  9
$SKPOLY
 70
     0
  9
$TDCREATE
 40
0.000000000
  9
$TDUPDATE
 40
0.000000000
  9
$TDINDWG
 40
0.0000000000
  9
$TDUSRTIMER
 40
0.0000000000
  9
$USRTIMER
 70
     1
  9
$ANGBASE
 50
0.0
  9
$ANGDIR
 70
     0
  9
$PDMODE
 70
     0
  9
$PDSIZE
 40
0.0
  9
$PLINEWID
 40
0.0
  9
$COORDS
 70
     0
  9
$SPLFRAME
 70
     0
  9
$SPLINETYPE
 70
     6
  9
$SPLINESEGS
 70
     8
  9
$ATTDIA
 70
     0
  9
$ATTREQ
 70
     1
  9
$HANDLING
 70
     0
  9
$HANDSEED
  5
3
  9
$SURFTAB1
 70
     6
  9
$SURFTAB2
 70
     6
  9
$SURFTYPE
 70
     6
  9
$SURFU
 70
     6
  9
$SURFV
 70
     6
  9
$UCSNAME
  2

  9
$UCSORG
 10
0.0
 20
0.0
 30
0.0
  9
$UCSXDIR
 10
1.0
 20
0.0
 30
0.0
  9
$UCSYDIR
 10
0.0
 20
1.0
 30
0.0
  9
$PUCSNAME
  2

  9
$PUCSORG
 10
0.0
 20
0.0
 30
0.0
  9
$PUCSXDIR
 10
1.0
 20
0.0
 30
0.0
  9
$PUCSYDIR
 10
0.0
 20
1.0
 30
0.0
  9
$USERI1
 70
     0
  9
$USERI2
 70
     0
  9
$USERI3
 70
     0
  9
$USERI4
 70
     0
  9
$USERI5
 70
     0
  9
$USERR1
 40
0.0
  9
$USERR2
 40
0.0
  9
$USERR3
 40
0.0
  9
$USERR4
 40
0.0
  9
$USERR5
 40
0.0
  9
$WORLDVIEW
 70
     1
  9
$SHADEDGE
 70
     3
  9
$SHADEDIF
 70
    70
  9
$TILEMODE
 70
     1
  9
$MAXACTVP
 70
    48
  9
$PINSBASE
 10
0.0
 20
0.0
 30
0.0
  9
$PLIMCHECK
 70
     0
  9
$PEXTMIN
 10
0.0
 20
0.0
 30
0.0
  9
$PEXTMAX
 10
202.212128
 20
285.0
 30
2.0
  9
$PLIMMIN
 10
0.0
 20
0.0
  9
$PLIMMAX
 10
420.0
 20
297.0
  9
$UNITMODE
 70
     0
  9
$VISRETAIN
 70
     0
  9
$PLINEGEN
 70
     0
  9
$PSLTSCALE
 70
     1
  9
$TREEDEPTH
 70
  3020
  0
ENDSEC
  0
SECTION
  2
TABLES
  0
TABLE
  2
VPORT
 70
     1
  0
VPORT
  2
*ACTIVE
 70
     0
 10
0.0
 20
0.0
 11
1.0
 21
1.0
 12
6.591288
 22
4.579184
 13
0.0
 23
0.0
 14
1.0
 24
1.0
 15
0.0
 25
0.0
 16
0.0
 26
0.0
 36
1.0
 17
0.0
 27
0.0
 37
0.0
 40
9.158369
 41
0.688564
 42
50.0
 43
0.0
 44
0.0
 50
0.0
 51
0.0
 71
     0
 72
   100
 73
     1
 74
     1
 75
     0
 76
     0
 77
     0
 78
     0
  0
ENDTAB
  0
TABLE
  2
LTYPE
 70
     2
  0
LTYPE
  2
CONTINUOUS
 70
    64
  3
Solid line
 72
    65
 73
     0
 40
0.0
  0
LTYPE
  2
DASHDOT
 70
     0
  3
 __ . __ . __ . __ . __ . __ . __ . 
 72
    65
 73
     4
 40
18.5
 49
12.0
 49
-3.0
 49
0.5
 49
-3.0
  0
ENDTAB
  0
TABLE
  2
LAYER
 70
     4
  0
LAYER
  2
0
 70
     0
 62
     7
  6
CONTINUOUS
  0
LAYER
  2
1
 70
     0
 62
     7
  6
CONTINUOUS
  0
LAYER
  2
2
 70
     0
 62
     7
  6
CONTINUOUS
  0
LAYER
  2
3
 70
     0
 62
     7
  6
CONTINUOUS
  0
ENDTAB
  0
TABLE
  2
STYLE
 70
     2
  0
STYLE
  2
STANDARD
 70
     0
 40
0.0
 41
1.0
 50
0.0
 71
     0
 42
0.0
  3
isocp.shx
  4

  0
STYLE
  2
GDT
 70
     0
 40
0.0
 41
1.0
 50
0.0
 71
     0
 42
0.0
  3
gdt.shx
  4

  0
ENDTAB
  0
TABLE
  2
VIEW
 70
     0
  0
ENDTAB
  0
TABLE
  2
UCS
 70
     0
  0
ENDTAB
  0
TABLE
  2
APPID
 70
     1
  0
APPID
  2
ACAD
 70
     0
  0
ENDTAB
  0
TABLE
  2
DIMSTYLE
 70
     1
  0
DIMSTYLE
  2
STANDARD
 70
     0
  3

  4

  5

  6

  7

 40
1.0
 41
2.5
 42
0.625
 43
3.75
 44
1.25
 45
0.0
 46
0.0
 47
0.0
 48
0.0
 71
     0
 72
     0
 73
     0
 74
     0
 75
     0
 76
     0
 77
     1
 78
     8
140
2.5
141
2.5
142
0.0
143
0.03937
144
1.0
145
0.0
146
1.0
147
0.625
170
     0
171
     3
172
     1
173
     0
174
     0
175
     0
176
     0
177
     0
178
     0
  0
ENDTAB
  0
ENDSEC
  0
SECTION
  2
BLOCKS
  0
BLOCK
  8
0
  2
BLOCK107
 70
     0
 10
0.0
 20
0.0
 30
0.0
  3
BLOCK107
  0
TEXT
  8
0
 62
     7
 10
121.3396
 20
1.062804
 30
0.0
 40
2.0
  1
2
 72
     5
 11
123.074471
 21
1.062804
 31
0.0
  0
ENDBLK
  8
0
  0
BLOCK
  8
0
  2
BLOCK108
 70
     0
 10
0.0
 20
0.0
 30
0.0
  3
BLOCK108
  0
TEXT
  8
0
 62
     7
 10
172.8396
 20
1.062804
 30
0.0
 40
2.0
  1
1
 72
     5
 11
174.574463
 21
1.062804
 31
0.0
  0
ENDBLK
  8
0
  0
BLOCK
  8
0
  2
BLOCK109
 70
     0
 10
0.0
 20
0.0
 30
0.0
  3
BLOCK109
  0
TEXT
  8
0
 62
     7
 10
73.839607
 20
1.062804
 30
0.0
 40
2.0
  1
3
 72
     5
 11
75.574478
 21
1.062804
 31
0.0
  0
ENDBLK
  8
0
  0
BLOCK
  8
0
  2
BLOCK110
 70
     0
 10
0.0
 20
0.0
 30
0.0
  3
BLOCK110
  0
TEXT
  8
0
 62
     7
 10
23.420399
 20
1.062804
 30
0.0
 40
2.0
  1
4
 72
     5
 11
25.15527
 21
1.062804
 31
0.0
  0
ENDBLK
  8
0
  0
BLOCK
  8
0
  2
BLOCK111
 70
     0
 10
0.0
 20
0.0
 30
0.0
  3
BLOCK111
  0
TEXT
  8
0
 62
     7
 10
23.420399
 20
281.862823
 30
0.0
 40
2.0
  1
4
 72
     5
 11
25.15527
 21
281.862823
 31
0.0
  0
ENDBLK
  8
0
  0
BLOCK
  8
0
  2
BLOCK112
 70
     0
 10
0.0
 20
0.0
 30
0.0
  3
BLOCK112
  0
TEXT
  8
0
 62
     7
 10
73.839607
 20
281.862823
 30
0.0
 40
2.0
  1
3
 72
     5
 11
75.574478
 21
281.862823
 31
0.0
  0
ENDBLK
  8
0
  0
BLOCK
  8
0
  2
BLOCK113
 70
     0
 10
0.0
 20
0.0
 30
0.0
  3
BLOCK113
  0
TEXT
  8
0
 62
     7
 10
121.3396
 20
281.862823
 30
0.0
 40
2.0
  1
2
 72
     5
 11
123.074471
 21
281.862823
 31
0.0
  0
ENDBLK
  8
0
  0
BLOCK
  8
0
  2
BLOCK114
 70
     0
 10
0.0
 20
0.0
 30
0.0
  3
BLOCK114
  0
TEXT
  8
0
 62
     7
 10
172.8396
 20
281.862823
 30
0.0
 40
2.0
  1
1
 72
     5
 11
174.574463
 21
281.862823
 31
0.0
  0
ENDBLK
  8
0
  0
BLOCK
  8
0
  2
BLOCK115
 70
     0
 10
0.0
 20
0.0
 30
0.0
  3
BLOCK115
  0
TEXT
  8
0
 62
     7
 10
195.395111
 20
73.707222
 30
0.0
 40
2.0
  1
B
 72
     5
 11
197.129974
 21
73.707222
 31
0.0
  0
ENDBLK
  8
0
  0
BLOCK
  8
0
  2
BLOCK116
 70
     0
 10
0.0
 20
0.0
 30
0.0
  3
BLOCK116
  0
TEXT
  8
0
 62
     7
 10
195.395111
 20
23.473885
 30
0.0
 40
2.0
  1
A
 72
     5
 11
197.129974
 21
23.473885
 31
0.0
  0
ENDBLK
  8
0
  0
BLOCK
  8
0
  2
BLOCK117
 70
     0
 10
0.0
 20
0.0
 30
0.0
  3
BLOCK117
  0
TEXT
  8
0
 62
     7
 10
195.395111
 20
119.840553
 30
0.0
 40
2.0
  1
C
 72
     5
 11
197.129974
 21
119.840553
 31
0.0
  0
ENDBLK
  8
0
  0
BLOCK
  8
0
  2
BLOCK118
 70
     0
 10
0.0
 20
0.0
 30
0.0
  3
BLOCK118
  0
TEXT
  8
0
 62
     7
 10
195.395111
 20
165.973877
 30
0.0
 40
2.0
  1
D
 72
     5
 11
197.129974
 21
165.973877
 31
0.0
  0
ENDBLK
  8
0
  0
BLOCK
  8
0
  2
BLOCK119
 70
     0
 10
0.0
 20
0.0
 30
0.0
  3
BLOCK119
  0
TEXT
  8
0
 62
     7
 10
195.395111
 20
212.107208
 30
0.0
 40
2.0
  1
E
 72
     5
 11
197.129974
 21
212.107208
 31
0.0
  0
ENDBLK
  8
0
  0
BLOCK
  8
0
  2
BLOCK120
 70
     0
 10
0.0
 20
0.0
 30
0.0
  3
BLOCK120
  0
TEXT
  8
0
 62
     7
 10
195.395111
 20
262.24057
 30
0.0
 40
2.0
  1
F
 72
     5
 11
197.129974
 21
262.24057
 31
0.0
  0
ENDBLK
  8
0
  0
BLOCK
  8
0
  2
BLOCK121
 70
     0
 10
0.0
 20
0.0
 30
0.0
  3
BLOCK121
  0
TEXT
  8
0
 62
     7
 10
1.395133
 20
23.473885
 30
0.0
 40
2.0
  1
A
 72
     5
 11
3.130003
 21
23.473885
 31
0.0
  0
ENDBLK
  8
0
  0
BLOCK
  8
0
  2
BLOCK122
 70
     0
 10
0.0
 20
0.0
 30
0.0
  3
BLOCK122
  0
TEXT
  8
0
 62
     7
 10
1.395133
 20
73.707222
 30
0.0
 40
2.0
  1
B
 72
     5
 11
3.130003
 21
73.707222
 31
0.0
  0
ENDBLK
  8
0
  0
BLOCK
  8
0
  2
BLOCK123
 70
     0
 10
0.0
 20
0.0
 30
0.0
  3
BLOCK123
  0
TEXT
  8
0
 62
     7
 10
1.395133
 20
119.840553
 30
0.0
 40
2.0
  1
C
 72
     5
 11
3.130003
 21
119.840553
 31
0.0
  0
ENDBLK
  8
0
  0
BLOCK
  8
0
  2
BLOCK124
 70
     0
 10
0.0
 20
0.0
 30
0.0
  3
BLOCK124
  0
TEXT
  8
0
 62
     7
 10
1.395133
 20
165.973877
 30
0.0
 40
2.0
  1
D
 72
     5
 11
3.130003
 21
165.973877
 31
0.0
  0
ENDBLK
  8
0
  0
BLOCK
  8
0
  2
BLOCK125
 70
     0
 10
0.0
 20
0.0
 30
0.0
  3
BLOCK125
  0
TEXT
  8
0
 62
     7
 10
1.395133
 20
212.107208
 30
0.0
 40
2.0
  1
E
 72
     5
 11
3.130003
 21
212.107208
 31
0.0
  0
ENDBLK
  8
0
  0
BLOCK
  8
0
  2
BLOCK126
 70
     0
 10
0.0
 20
0.0
 30
0.0
  3
BLOCK126
  0
TEXT
  8
0
 62
     7
 10
1.395133
 20
262.24057
 30
0.0
 40
2.0
  1
F
 72
     5
 11
3.130003
 21
262.24057
 31
0.0
  0
ENDBLK
  8
0
  0
BLOCK
  8
0
  2
BLOCK127
 70
     0
 10
0.0
 20
0.0
 30
0.0
  3
BLOCK127
  0
TEXT
  8
2
 62
     7
 10
187.852493
 20
1.881483
 30
0.0
 40
1.0
  1
07_A4q
 41
0.87
 72
     5
 11
192.660385
 21
1.881483
 31
0.0
  0
ENDBLK
  8
0
  0
BLOCK
  8
0
  2
BLOCK128
 70
     0
 10
0.0
 20
0.0
 30
0.0
  3
BLOCK128
  0
TEXT
  8
0
 62
     7
 10
130.156357
 20
31.699965
 30
0.0
 40
1.8
  1
Verwendung
 72
     5
 11
145.770187
 21
31.699965
 31
0.0
  0
ENDBLK
  8
0
  0
BLOCK
  8
0
  2
BLOCK129
 70
     0
 10
0.0
 20
0.0
 30
0.0
  3
BLOCK129
  0
TEXT
  8
0
 62
     7
 10
130.156357
 20
17.904634
 30
0.0
 40
1.8
  1
Zeichnungs Nr.
 72
     5
 11
152.015717
 21
17.904634
 31
0.0
  0
ENDBLK
  8
0
  0
BLOCK
  8
0
  2
BLOCK130
 70
     0
 10
0.0
 20
0.0
 30
0.0
  3
BLOCK130
  0
TEXT
  8
0
 62
     7
 10
185.619156
 20
17.904634
 30
0.0
 40
1.8
  1
Blatt
 72
     5
 11
193.426071
 21
17.904634
 31
0.0
  0
ENDBLK
  8
0
  0
BLOCK
  8
0
  2
BLOCK131
 70
     0
 10
0.0
 20
0.0
 30
0.0
  3
BLOCK131
  0
TEXT
  8
3
 62
     7
 10
130.189682
 20
27.342766
 30
0.0
 40
2.0
  1
Kunden/Katalogzeichnung
 41
0.93
 72
     5
 11
167.298569
 21
27.342766
 31
0.0
  0
ENDBLK
  8
0
  0
BLOCK
  8
0
  2
BLOCK132
 70
     0
 10
0.0
 20
0.0
 30
0.0
  3
BLOCK132
  0
TEXT
  8
2
 62
     7
 10
17.681549
 20
12.564114
 30
0.0
 40
4.0
  1
Direktanschlussklemme mit Lasche
 41
0.875
 72
     5
 11
114.834305
 21
12.564114
 31
0.0
  0
TEXT
  8
2
 62
     7
 10
48.04179
 20
5.653451
 30
0.0
 40
4.0
  1
RM300/A30-40
 41
0.875
 72
     5
 11
84.47406
 21
5.653451
 31
0.0
  0
ENDBLK
  8
0
  0
BLOCK
  8
0
  2
BLOCK133
 70
     0
 10
0.0
 20
0.0
 30
0.0
  3
BLOCK133
  0
TEXT
  8
2
 62
     7
 10
134.746796
 20
9.226709
 30
0.0
 40
5.0
  1
K2971030_L
 41
0.87
 72
     5
 11
172.480225
 21
9.226709
 31
0.0
  0
ENDBLK
  8
0
  0
BLOCK
  8
0
  2
BLOCK134
 70
     0
 10
0.0
 20
0.0
 30
0.0
  3
BLOCK134
  0
TEXT
  8
3
 62
     7
 10
79.876251
 20
49.407627
 30
0.0
 40
2.298
  1
DIN ISO 2768
 41
0.982
 72
     5
 11
103.366074
 21
49.407627
 31
0.0
  0
TEXT
  8
3
 62
     7
 10
85.748703
 20
45.43745
 30
0.0
 40
2.298
  1
mittel
 41
0.982
 72
     5
 11
97.493614
 21
45.43745
 31
0.0
  0
ENDBLK
  8
0
  0
BLOCK
  8
0
  2
BLOCK135
 70
     0
 10
0.0
 20
0.0
 30
0.0
  3
BLOCK135
  0
TEXT
  8
3
 62
     7
 10
70.12468
 20
44.171684
 30
0.0
 40
2.5
  1
0cm2
 41
0.95
 72
     5
 11
78.365311
 21
44.171684
 31
0.0
  0
ENDBLK
  8
0
  0
BLOCK
  8
0
  2
BLOCK136
 70
     0
 10
0.0
 20
0.0
 30
0.0
  3
BLOCK136
  0
TEXT
  8
3
 62
     7
 10
74.335571
 20
49.171684
 30
0.0
 40
2.5
  1
0g
 41
0.95
 72
     5
 11
78.455887
 21
49.171684
 31
0.0
  0
ENDBLK
  8
0
  0
BLOCK
  8
0
  2
BLOCK137
 70
     0
 10
0.0
 20
0.0
 30
0.0
  3
BLOCK137
  0
TEXT
  8
3
 62
     7
 10
112.923561
 20
47.039223
 30
0.0
 40
3.2
  1
1:1
 41
0.822
 72
     5
 11
119.768669
 21
47.039223
 31
0.0
  0
ENDBLK
  8
0
  0
BLOCK
  8
0
  2
BLOCK138
 70
     0
 10
0.0
 20
0.0
 30
0.0
  3
BLOCK138
  0
TEXT
  8
0
 62
     7
 10
4.882957
 20
54.200584
 30
0.0
 40
1.8
  1
Werkstoff BN
 72
     5
 11
23.619556
 21
54.200584
 31
0.0
  0
ENDBLK
  8
0
  0
BLOCK
  8
0
  2
BLOCK139
 70
     0
 10
0.0
 20
0.0
 30
0.0
  3
BLOCK139
  0
TEXT
  8
0
 62
     7
 10
25.882952
 20
54.200584
 30
0.0
 40
1.8
  1
Oberfl\U+00E4che BN
 72
     5
 11
46.180931
 21
54.200584
 31
0.0
  0
ENDBLK
  8
0
  0
BLOCK
  8
0
  2
BLOCK140
 70
     0
 10
0.0
 20
0.0
 30
0.0
  3
BLOCK140
  0
TEXT
  8
0
 62
     7
 10
47.882946
 20
54.200584
 30
0.0
 40
1.8
  1
Gewicht/Oberfl.
 72
     5
 11
71.303696
 21
54.200584
 31
0.0
  0
ENDBLK
  8
0
  0
BLOCK
  8
0
  2
BLOCK141
 70
     0
 10
0.0
 20
0.0
 30
0.0
  3
BLOCK141
  0
TEXT
  8
0
 62
     7
 10
79.882942
 20
54.200584
 30
0.0
 40
1.8
  1
zul. Abweichung
 72
     5
 11
103.303688
 21
54.200584
 31
0.0
  0
ENDBLK
  8
0
  0
BLOCK
  8
0
  2
BLOCK142
 70
     0
 10
0.0
 20
0.0
 30
0.0
  3
BLOCK142
  0
TEXT
  8
0
 62
     7
 10
104.882935
 20
54.200584
 30
0.0
 40
1.8
  1
Konstr.-Ma\U+00DFstab
 72
     5
 11
128.30368
 21
54.200584
 31
0.0
  0
ENDBLK
  8
0
  0
BLOCK
  8
0
  2
BLOCK143
 70
     0
 10
0.0
 20
0.0
 30
0.0
  3
BLOCK143
  0
TEXT
  8
0
 62
     7
 10
145.88295
 20
59.131641
 30
0.0
 40
1.8
  1
Ind
 72
     5
 11
150.567093
 21
59.131641
 31
0.0
  0
ENDBLK
  8
0
  0
BLOCK
  8
0
  2
BLOCK144
 70
     0
 10
0.0
 20
0.0
 30
0.0
  3
BLOCK144
  0
TEXT
  8
0
 62
     7
 10
151.88295
 20
59.131641
 30
0.0
 40
1.8
  1
G Nr.
 72
     5
 11
159.689865
 21
59.131641
 31
0.0
  0
ENDBLK
  8
0
  0
BLOCK
  8
0
  2
BLOCK145
 70
     0
 10
0.0
 20
0.0
 30
0.0
  3
BLOCK145
  0
TEXT
  8
0
 62
     7
 10
166.382935
 20
59.131641
 30
0.0
 40
1.8
  1
Datum
 72
     5
 11
174.18985
 21
59.131641
 31
0.0
  0
ENDBLK
  8
0
  0
BLOCK
  8
0
  2
BLOCK146
 70
     0
 10
0.0
 20
0.0
 30
0.0
  3
BLOCK146
  0
TEXT
  8
0
 62
     7
 10
180.382935
 20
59.131641
 30
0.0
 40
1.8
  1
Name
 72
     5
 11
186.628464
 21
59.131641
 31
0.0
  0
ENDBLK
  8
0
  0
BLOCK
  8
0
  2
BLOCK147
 70
     0
 10
0.0
 20
0.0
 30
0.0
  3
BLOCK147
  0
TEXT
  8
0
 62
     7
 10
89.006721
 20
61.380135
 30
0.0
 40
2.0
  1
= Kontrollma\U+00DFe => Anz.:
 72
     5
 11
128.908752
 21
61.380135
 31
0.0
  0
ENDBLK
  8
0
  0
BLOCK
  8
0
  2
BLOCK148
 70
     0
 10
0.0
 20
0.0
 30
0.0
  3
BLOCK148
  0
TEXT
  8
0
 62
     7
 10
5.191892
 20
18.221584
 30
0.0
 40
1.8
  1
Bezeichnung
 72
     5
 11
22.367107
 21
18.221584
 31
0.0
  0
ENDBLK
  8
0
  0
BLOCK
  8
0
  2
BLOCK149
 70
     0
 10
0.0
 20
0.0
 30
0.0
  3
BLOCK149
  0
TEXT
  8
0
 62
     7
 10
85.474915
 20
37.651432
 30
0.0
 40
1.8
  1
gezeichnet
 72
     5
 11
101.088745
 21
37.651432
 31
0.0
  0
ENDBLK
  8
0
  0
BLOCK
  8
0
  2
BLOCK150
 70
     0
 10
0.0
 20
0.0
 30
0.0
  3
BLOCK150
  0
TEXT
  8
0
 62
     7
 10
110.782845
 20
37.651432
 30
0.0
 40
1.8
  1
Freigabe
 72
     5
 11
123.273911
 21
37.651432
 31
0.0
  0
ENDBLK
  8
0
  0
BLOCK
  8
0
  2
BLOCK151
 70
     0
 10
0.0
 20
0.0
 30
0.0
  3
BLOCK151
  0
TEXT
  8
0
 62
     7
 10
74.474915
 20
30.651434
 30
0.0
 40
1.8
  1
Datum
 72
     5
 11
82.28183
 21
30.651434
 31
0.0
  0
ENDBLK
  8
0
  0
BLOCK
  8
0
  2
BLOCK152
 70
     0
 10
0.0
 20
0.0
 30
0.0
  3
BLOCK152
  0
TEXT
  8
0
 62
     7
 10
74.474915
 20
23.651434
 30
0.0
 40
1.8
  1
Name
 72
     5
 11
80.720444
 21
23.651434
 31
0.0
  0
ENDBLK
  8
0
  0
BLOCK
  8
0
  2
BLOCK153
 70
     0
 10
0.0
 20
0.0
 30
0.0
  3
BLOCK153
  0
TEXT
  8
3
 62
     7
 10
86.306908
 20
30.580114
 30
0.0
 40
2.0
  1
16.09.2019
 41
0.985
 72
     5
 11
103.395378
 21
30.580114
 31
0.0
  0
ENDBLK
  8
0
  0
BLOCK
  8
0
  2
BLOCK154
 70
     0
 10
0.0
 20
0.0
 30
0.0
  3
BLOCK154
  0
TEXT
  8
3
 62
     7
 10
89.337799
 20
23.180115
 30
0.0
 40
2.0
  1
To.Kunz
 41
0.985
 72
     5
 11
101.299728
 21
23.180115
 31
0.0
  0
ENDBLK
  8
0
  0
BLOCK
  8
0
  2
BLOCK155
 70
     0
 10
0.0
 20
0.0
 30
0.0
  3
BLOCK155
  0
TEXT
  8
3
 62
     7
 10
117.05571
 20
23.180115
 30
0.0
 40
2.0
  1
-
 41
0.985
 72
     5
 11
118.764557
 21
23.180115
 31
0.0
  0
ENDBLK
  8
0
  0
BLOCK
  8
0
  2
BLOCK156
 70
     0
 10
0.0
 20
0.0
 30
0.0
  3
BLOCK156
  0
TEXT
  8
3
 62
     7
 10
117.242767
 20
30.580114
 30
0.0
 40
2.0
  1
-
 41
0.985
 72
     5
 11
118.951614
 21
30.580114
 31
0.0
  0
ENDBLK
  8
0
  0
BLOCK
  8
0
  2
BLOCK157
 70
     0
 10
0.0
 20
0.0
 30
0.0
  3
BLOCK157
  0
TEXT
  8
0
 62
     7
 10
5.191892
 20
28.724829
 30
0.0
 40
1.8
  1
Ersatz f\U+00FCr
 72
     5
 11
20.805725
 21
28.724829
 31
0.0
  0
ENDBLK
  8
0
  0
BLOCK
  8
0
  2
BLOCK158
 70
     0
 10
0.0
 20
0.0
 30
0.0
  3
BLOCK158
  0
TEXT
  8
0
 62
     7
 10
5.191892
 20
39.221581
 30
0.0
 40
1.8
  1
Werkstoff
 72
     5
 11
19.244341
 21
39.221581
 31
0.0
  0
ENDBLK
  8
0
  0
BLOCK
  8
0
  2
BLOCK159
 70
     0
 10
0.0
 20
0.0
 30
0.0
  3
BLOCK159
  0
TEXT
  8
0
 62
     7
 10
174.08548
 20
17.904634
 30
0.0
 40
1.8
  1
Index
 72
     5
 11
181.892395
 21
17.904634
 31
0.0
  0
ENDBLK
  8
0
  0
BLOCK
  8
0
  2
BLOCK160
 70
     0
 10
0.0
 20
0.0
 30
0.0
  3
BLOCK160
  0
TEXT
  8
0
 62
     7
 10
129.599976
 20
39.252304
 30
0.0
 40
1.8
  1
Part/Produkt
 72
     5
 11
148.336578
 21
39.252304
 31
0.0
  0
ENDBLK
  8
0
  0
BLOCK
  8
0
  2
BLOCK161
 70
     0
 10
0.0
 20
0.0
 30
0.0
  3
BLOCK161
  0
TEXT
  8
0
 62
     7
 10
129.599976
 20
36.002304
 30
0.0
 40
1.8
  1
Drawing
 72
     5
 11
140.529663
 21
36.002304
 31
0.0
  0
ENDBLK
  8
0
  0
BLOCK
  8
0
  2
BLOCK162
 70
     0
 10
0.0
 20
0.0
 30
0.0
  3
BLOCK162
  0
TEXT
  8
0
 62
     7
 10
163.257904
 20
36.002304
 30
0.0
 40
1.8
  1
New
 72
     5
 11
167.942047
 21
36.002304
 31
0.0
  0
ENDBLK
  8
0
  0
BLOCK
  8
0
  2
BLOCK163
 70
     0
 10
0.0
 20
0.0
 30
0.0
  3
BLOCK163
  0
TEXT
  8
0
 62
     7
 10
180.135132
 20
36.002304
 30
0.0
 40
1.8
  1
000.000
 72
     5
 11
191.064819
 21
36.002304
 31
0.0
  0
ENDBLK
  8
0
  0
BLOCK
  8
0
  2
BLOCK164
 70
     0
 10
0.0
 20
0.0
 30
0.0
  3
BLOCK164
  0
TEXT
  8
0
 62
     7
 10
157.79306
 20
39.252304
 30
0.0
 40
1.8
  1
Checked In
 72
     5
 11
173.406891
 21
39.252304
 31
0.0
  0
ENDBLK
  8
0
  0
BLOCK
  8
0
  2
BLOCK165
 70
     0
 10
0.0
 20
0.0
 30
0.0
  3
BLOCK165
  0
TEXT
  8
0
 62
     7
 10
180.135132
 20
39.252304
 30
0.0
 40
1.8
  1
000.001
 72
     5
 11
191.064819
 21
39.252304
 31
0.0
  0
ENDBLK
  8
0
  0
BLOCK
  8
0
  2
BLOCK166
 70
     0
 10
0.0
 20
0.0
 30
0.0
  3
BLOCK166
  0
TEXT
  8
3
 62
     7
 10
177.02977
 20
1.118602
 30
0.0
 40
1.8
  1
HF
 72
     5
 11
180.152542
 21
1.118602
 31
0.0
  0
ENDBLK
  8
0
  0
BLOCK
  8
0
  2
BLOCK167
 70
     0
 10
0.0
 20
0.0
 30
0.0
  3
BLOCK167
  0
TEXT
  8
3
 62
     7
 10
174.190948
 20
1.118602
 30
0.0
 40
1.8
  1
9
 72
     5
 11
175.752335
 21
1.118602
 31
0.0
  0
ENDBLK
  8
0
  0
BLOCK
  8
0
  2
BLOCK168
 70
     0
 10
0.0
 20
0.0
 30
0.0
  3
BLOCK168
  0
TEXT
  8
3
 62
     7
 10
169.916702
 20
1.118602
 30
0.0
 40
1.8
  1
SP
 72
     5
 11
173.039474
 21
1.118602
 31
0.0
  0
ENDBLK
  8
0
  0
BLOCK
  8
0
  2
BLOCK169
 70
     0
 10
0.0
 20
0.0
 30
0.0
  3
BLOCK169
  0
TEXT
  8
3
 62
     7
 10
166.4254
 20
1.118602
 30
0.0
 40
1.8
  1
19
 72
     5
 11
169.548172
 21
1.118602
 31
0.0
  0
ENDBLK
  8
0
  0
BLOCK
  8
0
  2
BLOCK170
 70
     0
 10
0.0
 20
0.0
 30
0.0
  3
BLOCK170
  0
TEXT
  8
3
 62
     7
 10
164.417709
 20
1.118602
 30
0.0
 40
1.8
  1
R
 72
     5
 11
165.979095
 21
1.118602
 31
0.0
  0
ENDBLK
  8
0
  0
BLOCK
  8
0
  2
BLOCK171
 70
     0
 10
0.0
 20
0.0
 30
0.0
  3
BLOCK171
  0
TEXT
  8
3
 62
     7
 10
150.403244
 20
1.118602
 30
0.0
 40
1.8
  1
CATIA V5
 72
     5
 11
162.894318
 21
1.118602
 31
0.0
  0
ENDBLK
  8
0
  0
BLOCK
  8
0
  2
BLOCK172
 70
     0
 10
0.0
 20
0.0
 30
0.0
  3
BLOCK172
  0
TEXT
  8
3
 62
     7
 10
180.334732
 20
1.118602
 30
0.0
 40
1.8
  1
132
 72
     5
 11
185.018875
 21
1.118602
 31
0.0
  0
ENDBLK
  8
0
  0
BLOCK
  8
0
  2
BLOCK173
 70
     0
 10
0.0
 20
0.0
 30
0.0
  3
BLOCK173
  0
TEXT
  8
3
 62
     7
 10
5.544956
 20
34.169224
 30
0.0
 40
2.5
  1
*
 41
0.9
 72
     5
 11
7.496685
 21
34.169224
 31
0.0
  0
ENDBLK
  8
0
  0
BLOCK
  8
0
  2
BLOCK174
 70
     0
 10
0.0
 20
0.0
 30
0.0
  3
BLOCK174
  0
TEXT
  8
2
 62
     7
 10
195.413101
 20
6.324418
 30
0.0
 40
1.0
  1
13
 41
0.87
 72
     5
 11
196.92244
 21
6.324418
 31
0.0
  0
ENDBLK
  8
0
  0
BLOCK
  8
0
  2
BLOCK175
 70
     0
 10
0.0
 20
0.0
 30
0.0
  3
BLOCK175
  0
SOLID
  8
0
 62
     7
 10
159.580475
 20
52.299118
 30
0.0
 11
159.580475
 21
51.769112
 31
0.0
 12
158.758057
 22
52.299118
 32
0.0
 13
158.758057
 23
51.769112
 33
0.0
  0
ENDBLK
  8
0
  0
BLOCK
  8
0
  2
BLOCK176
 70
     0
 10
0.0
 20
0.0
 30
0.0
  3
BLOCK176
  0
SOLID
  8
0
 62
     7
 10
186.87262
 20
46.288574
 30
0.0
 11
187.781906
 21
46.404324
 31
0.0
 12
187.810425
 22
45.750214
 32
0.0
 13
188.630371
 23
46.751179
 33
0.0
  0
SOLID
  8
0
 62
     7
 10
187.810425
 20
45.750214
 30
0.0
 11
188.630371
 21
46.751179
 31
0.0
 12
188.749115
 22
46.086632
 32
0.0
 13
189.360336
 23
47.305565
 33
0.0
  0
SOLID
  8
0
 62
     7
 10
188.749115
 20
46.086632
 30
0.0
 11
189.360336
 21
47.305565
 31
0.0
 12
189.580719
 22
46.636868
 32
0.0
 13
189.922211
 23
48.0298
 33
0.0
  0
SOLID
  8
0
 62
     7
 10
189.580719
 20
46.636868
 30
0.0
 11
189.922211
 21
48.0298
 31
0.0
 12
190.257401
 22
47.36927
 32
0.0
 13
190.277771
 23
48.874653
 33
0.0
  0
SOLID
  8
0
 62
     7
 10
190.257401
 20
47.36927
 30
0.0
 11
190.277771
 21
48.874653
 31
0.0
 12
190.740265
 22
48.241722
 32
0.0
 13
190.402863
 23
49.782703
 33
0.0
  0
SOLID
  8
0
 62
     7
 10
190.740265
 20
48.241722
 30
0.0
 11
190.402863
 21
49.782703
 31
0.0
 12
190.812698
 22
51.17495
 32
0.0
 13
190.373505
 23
52.070171
 33
0.0
  0
SOLID
  8
0
 62
     7
 10
183.488846
 20
48.902576
 30
0.0
 11
183.837448
 21
48.054825
 31
0.0
 12
184.090622
 22
46.727249
 32
0.0
 13
184.393341
 23
47.325993
 33
0.0
  0
SOLID
  8
0
 62
     7
 10
184.090622
 20
46.727249
 30
0.0
 11
184.393341
 21
47.325993
 31
0.0
 12
184.903656
 22
46.14994
 32
0.0
 13
185.118729
 23
46.765621
 33
0.0
  0
SOLID
  8
0
 62
     7
 10
184.903656
 20
46.14994
 30
0.0
 11
185.118729
 21
46.765621
 31
0.0
 12
185.830765
 22
45.782806
 32
0.0
 13
185.96431
 23
46.411797
 33
0.0
  0
SOLID
  8
0
 62
     7
 10
185.830765
 20
45.782806
 30
0.0
 11
185.96431
 21
46.411797
 31
0.0
 12
186.818634
 22
45.646957
 32
0.0
 13
186.87262
 23
46.288574
 33
0.0
  0
SOLID
  8
0
 62
     7
 10
186.818634
 20
45.646957
 30
0.0
 11
186.87262
 21
46.288574
 31
0.0
 12
187.810425
 22
45.750214
 32
0.0
 13
187.810425
 23
45.750214
 33
0.0
  0
SOLID
  8
0
 62
     7
 10
183.438416
 20
47.481533
 30
0.0
 11
182.984543
 21
48.369408
 31
0.0
 12
183.371231
 22
49.811623
 32
0.0
 13
183.008698
 23
51.303429
 33
0.0
  0
SOLID
  8
0
 62
     7
 10
183.438416
 20
47.481533
 30
0.0
 11
183.371231
 21
49.811623
 31
0.0
 12
184.090622
 22
46.727249
 32
0.0
 13
183.488846
 23
48.902576
 33
0.0
  0
SOLID
  8
0
 62
     7
 10
182.984543
 20
48.369408
 30
0.0
 11
182.755112
 21
49.339809
 31
0.0
 12
183.008698
 22
51.303429
 32
0.0
 13
182.763321
 23
50.336933
 33
0.0
  0
SOLID
  8
0
 62
     7
 10
191.001511
 20
49.204048
 30
0.0
 11
190.740265
 21
48.241722
 31
0.0
 12
191.026123
 22
50.200901
 32
0.0
 13
190.812698
 23
51.17495
 33
0.0
  0
SOLID
  8
0
 62
     7
 10
190.402863
 20
49.782703
 30
0.0
 11
190.288986
 21
50.69223
 31
0.0
 12
190.373505
 22
52.070171
 32
0.0
 13
189.943863
 23
51.541409
 33
0.0
  0
SOLID
  8
0
 62
     7
 10
190.373505
 20
52.070171
 30
0.0
 11
189.943863
 21
51.541409
 31
0.0
 12
189.733795
 22
52.835091
 32
0.0
 13
189.390991
 23
52.272518
 33
0.0
  0
SOLID
  8
0
 62
     7
 10
189.733795
 20
52.835091
 30
0.0
 11
189.390991
 21
52.272518
 31
0.0
 12
188.930374
 22
53.425705
 32
0.0
 13
188.667908
 23
52.835869
 33
0.0
  0
SOLID
  8
0
 62
     7
 10
188.930374
 20
53.425705
 30
0.0
 11
188.667908
 21
52.835869
 31
0.0
 12
188.00943
 22
53.808052
 32
0.0
 13
187.823792
 23
53.193169
 33
0.0
  0
SOLID
  8
0
 62
     7
 10
188.00943
 20
53.808052
 30
0.0
 11
187.823792
 21
53.193169
 31
0.0
 12
186.88707
 22
53.320244
 32
0.0
 13
186.88707
 23
53.320244
 33
0.0
  0
SOLID
  8
0
 62
     7
 10
188.00943
 20
53.808052
 30
0.0
 11
186.88707
 21
53.320244
 31
0.0
 12
186.88707
 22
53.962395
 32
0.0
 13
185.978271
 23
53.200756
 33
0.0
  0
SOLID
  8
0
 62
     7
 10
186.88707
 20
53.962395
 30
0.0
 11
185.978271
 21
53.200756
 31
0.0
 12
185.89711
 22
53.842827
 32
0.0
 13
185.131241
 23
52.850414
 33
0.0
  0
SOLID
  8
0
 62
     7
 10
185.89711
 20
53.842827
 30
0.0
 11
185.131241
 21
52.850414
 31
0.0
 12
184.964081
 22
53.491001
 32
0.0
 13
184.403549
 23
52.29303
 33
0.0
  0
SOLID
  8
0
 62
     7
 10
184.964081
 20
53.491001
 30
0.0
 11
184.403549
 21
52.29303
 31
0.0
 12
184.141647
 22
52.927155
 32
0.0
 13
183.844666
 23
51.566494
 33
0.0
  0
SOLID
  8
0
 62
     7
 10
184.141647
 20
52.927155
 30
0.0
 11
183.844666
 21
51.566494
 31
0.0
 12
183.492584
 22
50.720181
 32
0.0
 13
183.492584
 23
50.720181
 33
0.0
  0
SOLID
  8
0
 62
     7
 10
183.477112
 20
52.183708
 30
0.0
 11
184.141647
 21
52.927155
 31
0.0
 12
183.371231
 22
49.811623
 32
0.0
 13
183.492584
 23
50.720181
 33
0.0
  0
SOLID
  8
0
 62
     7
 10
183.477112
 20
52.183708
 30
0.0
 11
183.371231
 21
49.811623
 31
0.0
 12
183.008698
 22
51.303429
 32
0.0
 13
183.008698
 23
51.303429
 33
0.0
  0
ENDBLK
  8
0
  0
BLOCK
  8
0
  2
BLOCK177
 70
     0
 10
0.0
 20
0.0
 30
0.0
  3
BLOCK177
  0
SOLID
  8
0
 62
     7
 10
161.441849
 20
48.215103
 30
0.0
 11
161.634842
 21
48.377472
 31
0.0
 12
161.636307
 22
47.500832
 32
0.0
 13
161.764648
 23
48.565147
 33
0.0
  0
SOLID
  8
0
 62
     7
 10
161.636307
 20
47.500832
 30
0.0
 11
161.764648
 21
48.565147
 31
0.0
 12
161.946854
 22
47.670063
 32
0.0
 13
161.837479
 23
48.868874
 33
0.0
  0
SOLID
  8
0
 62
     7
 10
161.946854
 20
47.670063
 30
0.0
 11
161.837479
 21
48.868874
 31
0.0
 12
162.648209
 22
51.0439
 32
0.0
 13
161.837479
 23
51.0439
 33
0.0
  0
SOLID
  8
0
 62
     7
 10
160.607574
 20
48.010445
 30
0.0
 11
160.908493
 21
48.021618
 31
0.0
 12
160.90892
 22
47.31842
 32
0.0
 13
161.194229
 23
48.0923
 33
0.0
  0
SOLID
  8
0
 62
     7
 10
160.90892
 20
47.31842
 30
0.0
 11
161.194229
 21
48.0923
 31
0.0
 12
161.283875
 22
47.380787
 32
0.0
 13
161.441849
 23
48.215103
 33
0.0
  0
SOLID
  8
0
 62
     7
 10
161.283875
 20
47.380787
 30
0.0
 11
161.441849
 21
48.215103
 31
0.0
 12
161.636307
 22
47.500832
 32
0.0
 13
161.636307
 23
47.500832
 33
0.0
  0
SOLID
  8
0
 62
     7
 10
159.846863
 20
48.303825
 30
0.0
 11
160.057632
 21
48.160465
 31
0.0
 12
160.154327
 22
47.37302
 32
0.0
 13
160.316528
 23
48.05896
 33
0.0
  0
SOLID
  8
0
 62
     7
 10
160.154327
 20
47.37302
 30
0.0
 11
160.316528
 21
48.05896
 31
0.0
 12
160.90892
 22
47.31842
 32
0.0
 13
160.607574
 23
48.010445
 33
0.0
  0
SOLID
  8
0
 62
     7
 10
159.568787
 20
51.0439
 30
0.0
 11
159.568787
 21
48.868874
 31
0.0
 12
159.499664
 22
47.643955
 32
0.0
 13
159.600037
 23
48.668015
 33
0.0
  0
SOLID
  8
0
 62
     7
 10
159.499664
 20
47.643955
 30
0.0
 11
159.600037
 21
48.668015
 31
0.0
 12
160.154327
 22
47.37302
 32
0.0
 13
159.693146
 23
48.476692
 33
0.0
  0
SOLID
  8
0
 62
     7
 10
160.154327
 20
47.37302
 30
0.0
 11
159.693146
 21
48.476692
 31
0.0
 12
159.846863
 22
48.303825
 32
0.0
 13
159.846863
 23
48.303825
 33
0.0
  0
SOLID
  8
0
 62
     7
 10
159.568787
 20
51.0439
 30
0.0
 11
159.499664
 21
47.643955
 31
0.0
 12
158.880173
 22
48.325123
 32
0.0
 13
159.03154
 23
48.07164
 33
0.0
  0
SOLID
  8
0
 62
     7
 10
159.568787
 20
51.0439
 30
0.0
 11
158.880173
 21
48.325123
 31
0.0
 12
158.758057
 22
48.868874
 32
0.0
 13
158.788712
 23
48.593174
 33
0.0
  0
SOLID
  8
0
 62
     7
 10
159.568787
 20
51.0439
 30
0.0
 11
158.758057
 21
48.868874
 31
0.0
 12
158.758057
 22
51.0439
 32
0.0
 13
158.758057
 23
51.0439
 33
0.0
  0
SOLID
  8
0
 62
     7
 10
162.648209
 20
51.0439
 30
0.0
 11
162.648209
 21
48.868874
 31
0.0
 12
162.412521
 22
48.12492
 32
0.0
 13
162.552734
 23
48.386368
 33
0.0
  0
SOLID
  8
0
 62
     7
 10
162.648209
 20
51.0439
 30
0.0
 11
162.412521
 21
48.12492
 31
0.0
 12
161.946854
 22
47.670063
 32
0.0
 13
162.211029
 23
47.883976
 33
0.0
  0
ENDBLK
  8
0
  0
BLOCK
  8
0
  2
BLOCK178
 70
     0
 10
0.0
 20
0.0
 30
0.0
  3
BLOCK178
  0
SOLID
  8
0
 62
     7
 10
134.920532
 20
47.488213
 30
0.0
 11
134.609146
 21
47.37331
 31
0.0
 12
134.802917
 22
48.307957
 32
0.0
 13
134.68483
 23
48.146839
 33
0.0
  0
SOLID
  8
0
 62
     7
 10
134.920532
 20
47.488213
 30
0.0
 11
134.802917
 21
48.307957
 31
0.0
 12
135.673996
 22
52.299118
 32
0.0
 13
134.863266
 23
48.557034
 33
0.0
  0
SOLID
  8
0
 62
     7
 10
134.920532
 20
47.488213
 30
0.0
 11
135.673996
 21
52.299118
 31
0.0
 12
135.187363
 22
47.650753
 32
0.0
 13
135.187363
 23
47.650753
 33
0.0
  0
SOLID
  8
0
 62
     7
 10
133.842087
 20
47.970703
 30
0.0
 11
134.066727
 21
47.927036
 31
0.0
 12
134.273941
 22
47.315899
 32
0.0
 13
134.298264
 23
47.944134
 33
0.0
  0
SOLID
  8
0
 62
     7
 10
134.273941
 20
47.315899
 30
0.0
 11
134.298264
 21
47.944134
 31
0.0
 12
134.609146
 22
47.37331
 32
0.0
 13
134.511642
 23
48.020603
 33
0.0
  0
SOLID
  8
0
 62
     7
 10
134.609146
 20
47.37331
 30
0.0
 11
134.511642
 21
48.020603
 31
0.0
 12
134.68483
 22
48.146839
 32
0.0
 13
134.68483
 23
48.146839
 33
0.0
  0
SOLID
  8
0
 62
     7
 10
133.40567
 20
48.375275
 30
0.0
 11
133.498306
 21
48.20787
 31
0.0
 12
133.603149
 22
47.380199
 32
0.0
 13
133.647079
 23
48.068363
 33
0.0
  0
SOLID
  8
0
 62
     7
 10
133.603149
 20
47.380199
 30
0.0
 11
133.647079
 21
48.068363
 31
0.0
 12
134.273941
 22
47.315899
 32
0.0
 13
133.842087
 23
47.970703
 33
0.0
  0
SOLID
  8
0
 62
     7
 10
133.046234
 20
47.653679
 30
0.0
 11
132.837585
 21
47.8498
 31
0.0
 12
133.374161
 22
48.557034
 32
0.0
 13
133.374161
 23
49.336632
 33
0.0
  0
SOLID
  8
0
 62
     7
 10
133.046234
 20
47.653679
 30
0.0
 11
133.374161
 21
48.557034
 31
0.0
 12
133.603149
 22
47.380199
 32
0.0
 13
133.40567
 23
48.375275
 33
0.0
  0
SOLID
  8
0
 62
     7
 10
133.374161
 20
49.336632
 30
0.0
 11
132.837585
 21
47.8498
 31
0.0
 12
132.594254
 22
48.309978
 32
0.0
 13
132.686066
 23
48.071583
 33
0.0
  0
SOLID
  8
0
 62
     7
 10
133.374161
 20
49.336632
 30
0.0
 11
132.594254
 21
48.309978
 31
0.0
 12
132.563446
 22
49.336632
 32
0.0
 13
132.563446
 23
48.557034
 33
0.0
  0
SOLID
  8
0
 62
     7
 10
135.673996
 20
52.299118
 30
0.0
 11
135.673996
 21
48.557034
 31
0.0
 12
135.400833
 22
47.850956
 32
0.0
 13
135.554413
 23
48.0774
 33
0.0
  0
SOLID
  8
0
 62
     7
 10
135.673996
 20
52.299118
 30
0.0
 11
135.400833
 21
47.850956
 31
0.0
 12
135.187363
 22
47.650753
 32
0.0
 13
135.187363
 23
47.650753
 33
0.0
  0
SOLID
  8
0
 62
     7
 10
135.673996
 20
52.299118
 30
0.0
 11
134.863266
 21
48.557034
 31
0.0
 12
134.863266
 22
52.299118
 32
0.0
 13
134.863266
 23
52.299118
 33
0.0
  0
ENDBLK
  8
0
  0
BLOCK
  8
0
  2
BLOCK179
 70
     0
 10
0.0
 20
0.0
 30
0.0
  3
BLOCK179
  0
SOLID
  8
0
 62
     7
 10
184.514709
 20
48.346119
 30
0.0
 11
185.086868
 21
47.711555
 31
0.0
 12
185.524506
 22
52.114704
 32
0.0
 13
185.895599
 23
50.729774
 33
0.0
  0
SOLID
  8
0
 62
     7
 10
185.524506
 20
52.114704
 30
0.0
 11
185.895599
 21
50.729774
 31
0.0
 12
186.528625
 22
51.11058
 32
0.0
 13
186.528625
 23
50.096745
 33
0.0
  0
SOLID
  8
0
 62
     7
 10
186.528625
 20
51.11058
 30
0.0
 11
186.528625
 21
50.096745
 31
0.0
 12
187.245514
 22
47.049114
 32
0.0
 13
186.528625
 23
47.049114
 33
0.0
  0
SOLID
  8
0
 62
     7
 10
186.528625
 20
52.559673
 30
0.0
 11
187.245514
 21
47.049114
 31
0.0
 12
187.245514
 22
52.559673
 32
0.0
 13
187.245514
 23
50.096745
 33
0.0
  0
SOLID
  8
0
 62
     7
 10
187.245514
 20
52.559673
 30
0.0
 11
187.245514
 21
50.096745
 31
0.0
 12
187.245514
 22
51.11058
 32
0.0
 13
187.878555
 23
50.729774
 33
0.0
  0
SOLID
  8
0
 62
     7
 10
187.245514
 20
51.11058
 30
0.0
 11
187.878555
 21
50.729774
 31
0.0
 12
188.249649
 22
52.114704
 32
0.0
 13
188.687286
 23
47.711555
 33
0.0
  0
SOLID
  8
0
 62
     7
 10
188.249649
 20
52.114704
 30
0.0
 11
188.687286
 21
47.711555
 31
0.0
 12
189.25943
 22
48.346119
 32
0.0
 13
189.25943
 23
48.346119
 33
0.0
  0
SOLID
  8
0
 62
     7
 10
186.528625
 20
51.11058
 30
0.0
 11
187.245514
 21
47.049114
 31
0.0
 12
186.528625
 22
52.559673
 32
0.0
 13
186.528625
 23
52.559673
 33
0.0
  0
ENDBLK
  8
0
  0
BLOCK
  8
0
  2
BLOCK180
 70
     0
 10
0.0
 20
0.0
 30
0.0
  3
BLOCK180
  0
SOLID
  8
0
 62
     7
 10
162.648209
 20
52.299118
 30
0.0
 11
162.648209
 21
51.769112
 31
0.0
 12
161.843674
 22
52.299118
 32
0.0
 13
161.843674
 23
51.769112
 33
0.0
  0
ENDBLK
  8
0
  0
BLOCK
  8
0
  2
BLOCK181
 70
     0
 10
0.0
 20
0.0
 30
0.0
  3
BLOCK181
  0
SOLID
  8
0
 62
     7
 10
145.972595
 20
47.309669
 30
0.0
 11
146.78331
 21
47.309669
 31
0.0
 12
145.972595
 22
52.299118
 32
0.0
 13
146.78331
 23
51.338192
 33
0.0
  0
SOLID
  8
0
 62
     7
 10
145.972595
 20
52.299118
 30
0.0
 11
146.78331
 21
51.338192
 31
0.0
 12
146.947037
 22
52.299118
 32
0.0
 13
149.04422
 23
47.309669
 33
0.0
  0
SOLID
  8
0
 62
     7
 10
146.947037
 20
52.299118
 30
0.0
 11
149.04422
 21
47.309669
 31
0.0
 12
149.207932
 22
48.270599
 32
0.0
 13
150.018661
 23
47.309669
 33
0.0
  0
SOLID
  8
0
 62
     7
 10
149.207932
 20
48.270599
 30
0.0
 11
150.018661
 21
47.309669
 31
0.0
 12
149.207932
 22
52.299118
 32
0.0
 13
150.018661
 23
52.299118
 33
0.0
  0
ENDBLK
  8
0
  0
BLOCK
  8
0
  2
BLOCK182
 70
     0
 10
0.0
 20
0.0
 30
0.0
  3
BLOCK182
  0
SOLID
  8
0
 62
     7
 10
141.945435
 20
48.401112
 30
0.0
 11
142.200348
 21
49.14267
 31
0.0
 12
142.542343
 22
52.299118
 32
0.0
 13
143.00618
 23
51.486889
 33
0.0
  0
SOLID
  8
0
 62
     7
 10
142.542343
 20
52.299118
 30
0.0
 11
143.00618
 21
51.486889
 31
0.0
 12
143.470001
 22
52.299118
 32
0.0
 13
143.811996
 23
49.14267
 33
0.0
  0
SOLID
  8
0
 62
     7
 10
143.470001
 20
52.299118
 30
0.0
 11
143.811996
 21
49.14267
 31
0.0
 12
145.185135
 22
47.309669
 32
0.0
 13
144.06691
 23
48.401112
 33
0.0
  0
SOLID
  8
0
 62
     7
 10
145.185135
 20
47.309669
 30
0.0
 11
144.06691
 21
48.401112
 31
0.0
 12
144.442093
 22
47.309669
 32
0.0
 13
144.442093
 23
47.309669
 33
0.0
  0
SOLID
  8
0
 62
     7
 10
142.542343
 20
52.299118
 30
0.0
 11
140.827225
 21
47.309669
 31
0.0
 12
141.945435
 22
48.401112
 32
0.0
 13
141.570251
 23
47.309669
 33
0.0
  0
SOLID
  8
0
 62
     7
 10
142.200348
 20
49.14267
 30
0.0
 11
141.945435
 21
48.401112
 31
0.0
 12
143.811996
 22
49.14267
 32
0.0
 13
144.06691
 23
48.401112
 33
0.0
  0
ENDBLK
  8
0
  0
BLOCK
  8
0
  2
BLOCK183
 70
     0
 10
0.0
 20
0.0
 30
0.0
  3
BLOCK183
  0
SOLID
  8
0
 62
     7
 10
137.272171
 20
48.089272
 30
0.0
 11
137.272171
 21
49.492554
 31
0.0
 12
136.461456
 22
52.299118
 32
0.0
 13
137.272171
 23
51.51952
 33
0.0
  0
SOLID
  8
0
 62
     7
 10
137.272171
 20
48.089272
 30
0.0
 11
136.461456
 21
52.299118
 31
0.0
 12
140.039764
 22
47.309669
 32
0.0
 13
136.461456
 23
47.309669
 33
0.0
  0
SOLID
  8
0
 62
     7
 10
137.272171
 20
48.089272
 30
0.0
 11
140.039764
 21
47.309669
 31
0.0
 12
140.039764
 22
48.089272
 32
0.0
 13
140.039764
 23
48.089272
 33
0.0
  0
SOLID
  8
0
 62
     7
 10
140.039764
 20
52.299118
 30
0.0
 11
136.461456
 21
52.299118
 31
0.0
 12
140.039764
 22
51.51952
 32
0.0
 13
137.272171
 23
51.51952
 33
0.0
  0
SOLID
  8
0
 62
     7
 10
137.272171
 20
50.272156
 30
0.0
 11
137.272171
 21
51.51952
 31
0.0
 12
139.727921
 22
49.492554
 32
0.0
 13
137.272171
 23
49.492554
 33
0.0
  0
SOLID
  8
0
 62
     7
 10
137.272171
 20
50.272156
 30
0.0
 11
139.727921
 21
49.492554
 31
0.0
 12
139.727921
 22
50.272156
 32
0.0
 13
139.727921
 23
50.272156
 33
0.0
  0
ENDBLK
  8
0
  0
BLOCK
  8
0
  2
BLOCK184
 70
     0
 10
0.0
 20
0.0
 30
0.0
  3
BLOCK184
  0
SOLID
  8
0
 62
     7
 10
153.08255
 20
47.309669
 30
0.0
 11
153.975174
 21
47.309669
 31
0.0
 12
153.08255
 22
52.299118
 32
0.0
 13
153.975174
 23
50.930851
 33
0.0
  0
SOLID
  8
0
 62
     7
 10
153.08255
 20
52.299118
 30
0.0
 11
153.975174
 21
50.930851
 31
0.0
 12
154.322067
 22
52.299118
 32
0.0
 13
155.121216
 23
47.309669
 33
0.0
  0
SOLID
  8
0
 62
     7
 10
154.322067
 20
52.299118
 30
0.0
 11
155.121216
 21
47.309669
 31
0.0
 12
155.526581
 22
48.493187
 32
0.0
 13
155.931946
 23
47.309669
 33
0.0
  0
SOLID
  8
0
 62
     7
 10
155.526581
 20
48.493187
 30
0.0
 11
155.931946
 21
47.309669
 31
0.0
 12
156.731094
 22
52.299118
 32
0.0
 13
157.077988
 23
50.930851
 33
0.0
  0
SOLID
  8
0
 62
     7
 10
156.731094
 20
52.299118
 30
0.0
 11
157.077988
 21
50.930851
 31
0.0
 12
157.970596
 22
52.299118
 32
0.0
 13
157.970596
 23
47.309669
 33
0.0
  0
SOLID
  8
0
 62
     7
 10
157.970596
 20
47.309669
 30
0.0
 11
157.077988
 21
50.930851
 31
0.0
 12
157.077988
 22
47.309669
 32
0.0
 13
157.077988
 23
47.309669
 33
0.0
  0
ENDBLK
  8
0
  0
BLOCK
  8
0
  2
BLOCK185
 70
     0
 10
0.0
 20
0.0
 30
0.0
  3
BLOCK185
  0
SOLID
  8
0
 62
     7
 10
164.246384
 20
48.089272
 30
0.0
 11
164.246384
 21
52.299118
 31
0.0
 12
163.435669
 22
47.309669
 32
0.0
 13
163.435669
 23
52.299118
 33
0.0
  0
SOLID
  8
0
 62
     7
 10
164.246384
 20
48.089272
 30
0.0
 11
163.435669
 21
47.309669
 31
0.0
 12
166.78009
 22
48.089272
 32
0.0
 13
166.78009
 23
47.309669
 33
0.0
  0
ENDBLK
  8
0
  0
BLOCK
  8
0
  2
BLOCK186
 70
     0
 10
0.0
 20
0.0
 30
0.0
  3
BLOCK186
  0
SOLID
  8
0
 62
     7
 10
167.567551
 20
52.299118
 30
0.0
 11
168.378281
 21
52.299118
 31
0.0
 12
167.567551
 22
47.309669
 32
0.0
 13
168.378281
 23
48.089272
 33
0.0
  0
SOLID
  8
0
 62
     7
 10
167.567551
 20
47.309669
 30
0.0
 11
168.378281
 21
48.089272
 31
0.0
 12
170.911987
 22
47.309669
 32
0.0
 13
170.911987
 23
48.089272
 33
0.0
  0
ENDBLK
  8
0
  0
BLOCK
  8
0
  2
BLOCK187
 70
     0
 10
0.0
 20
0.0
 30
0.0
  3
BLOCK187
  0
SOLID
  8
0
 62
     7
 10
172.510162
 20
48.089272
 30
0.0
 11
175.277756
 21
48.089272
 31
0.0
 12
171.699448
 22
47.309669
 32
0.0
 13
175.277756
 23
47.309669
 33
0.0
  0
SOLID
  8
0
 62
     7
 10
172.510162
 20
48.089272
 30
0.0
 11
171.699448
 21
47.309669
 31
0.0
 12
172.510162
 22
50.272156
 32
0.0
 13
172.510162
 23
51.51952
 33
0.0
  0
SOLID
  8
0
 62
     7
 10
172.510162
 20
48.089272
 30
0.0
 11
172.510162
 21
50.272156
 31
0.0
 12
172.510162
 22
49.492554
 32
0.0
 13
172.510162
 23
49.492554
 33
0.0
  0
SOLID
  8
0
 62
     7
 10
172.510162
 20
49.492554
 30
0.0
 11
172.510162
 21
50.272156
 31
0.0
 12
174.965912
 22
49.492554
 32
0.0
 13
174.965912
 23
50.272156
 33
0.0
  0
SOLID
  8
0
 62
     7
 10
172.510162
 20
51.51952
 30
0.0
 11
171.699448
 21
47.309669
 31
0.0
 12
175.277756
 22
52.299118
 32
0.0
 13
171.699448
 23
52.299118
 33
0.0
  0
SOLID
  8
0
 62
     7
 10
172.510162
 20
51.51952
 30
0.0
 11
175.277756
 21
52.299118
 31
0.0
 12
175.277756
 22
51.51952
 32
0.0
 13
175.277756
 23
51.51952
 33
0.0
  0
ENDBLK
  8
0
  0
BLOCK
  8
0
  2
BLOCK188
 70
     0
 10
0.0
 20
0.0
 30
0.0
  3
BLOCK188
  0
SOLID
  8
0
 62
     7
 10
179.825089
 20
50.920532
 30
0.0
 11
179.815521
 21
51.156509
 31
0.0
 12
179.792252
 22
50.686653
 32
0.0
 13
179.76384
 23
51.386959
 33
0.0
  0
SOLID
  8
0
 62
     7
 10
179.792252
 20
50.686653
 30
0.0
 11
179.76384
 21
51.386959
 31
0.0
 12
179.718079
 22
50.462433
 32
0.0
 13
179.671738
 23
51.604435
 33
0.0
  0
SOLID
  8
0
 62
     7
 10
179.718079
 20
50.462433
 30
0.0
 11
179.671738
 21
51.604435
 31
0.0
 12
179.604935
 22
50.255119
 32
0.0
 13
179.542191
 23
51.801903
 33
0.0
  0
SOLID
  8
0
 62
     7
 10
179.604935
 20
50.255119
 30
0.0
 11
179.542191
 21
51.801903
 31
0.0
 12
179.456512
 22
50.071415
 32
0.0
 13
179.379379
 23
51.97298
 33
0.0
  0
SOLID
  8
0
 62
     7
 10
179.456512
 20
50.071415
 30
0.0
 11
179.379379
 21
51.97298
 31
0.0
 12
179.277588
 22
49.917255
 32
0.0
 13
179.188553
 23
52.112141
 33
0.0
  0
SOLID
  8
0
 62
     7
 10
179.277588
 20
49.917255
 30
0.0
 11
179.188553
 21
52.112141
 31
0.0
 12
179.073959
 22
49.797626
 32
0.0
 13
179.015976
 23
50.778896
 33
0.0
  0
SOLID
  8
0
 62
     7
 10
179.073959
 20
49.797626
 30
0.0
 11
179.015976
 21
50.778896
 31
0.0
 12
179.00174
 22
50.634407
 32
0.0
 13
179.00174
 23
50.634407
 33
0.0
  0
SOLID
  8
0
 62
     7
 10
178.891159
 20
51.190365
 30
0.0
 11
178.959595
 21
51.062321
 31
0.0
 12
178.975906
 22
52.214886
 32
0.0
 13
179.00174
 23
50.923386
 33
0.0
  0
SOLID
  8
0
 62
     7
 10
178.975906
 20
52.214886
 30
0.0
 11
179.00174
 21
50.923386
 31
0.0
 12
179.188553
 22
52.112141
 32
0.0
 13
179.015976
 23
50.778896
 33
0.0
  0
SOLID
  8
0
 62
     7
 10
178.558777
 20
51.463142
 30
0.0
 11
178.686813
 21
51.394699
 31
0.0
 12
178.748291
 22
52.277889
 32
0.0
 13
178.799057
 23
51.302593
 33
0.0
  0
SOLID
  8
0
 62
     7
 10
178.748291
 20
52.277889
 30
0.0
 11
178.799057
 21
51.302593
 31
0.0
 12
178.975906
 22
52.214886
 32
0.0
 13
178.891159
 23
51.190365
 33
0.0
  0
SOLID
  8
0
 62
     7
 10
178.513077
 20
52.299118
 30
0.0
 11
176.065216
 21
52.299118
 31
0.0
 12
178.275345
 22
51.51952
 32
0.0
 13
176.875931
 23
51.51952
 33
0.0
  0
SOLID
  8
0
 62
     7
 10
178.513077
 20
52.299118
 30
0.0
 11
178.275345
 21
51.51952
 31
0.0
 12
178.558777
 22
51.463142
 32
0.0
 13
178.419846
 23
51.505287
 33
0.0
  0
SOLID
  8
0
 62
     7
 10
178.513077
 20
52.299118
 30
0.0
 11
178.558777
 21
51.463142
 31
0.0
 12
178.748291
 22
52.277889
 32
0.0
 13
178.748291
 23
52.277889
 33
0.0
  0
SOLID
  8
0
 62
     7
 10
176.065216
 20
52.299118
 30
0.0
 11
176.875931
 21
47.309669
 31
0.0
 12
176.875931
 22
51.51952
 32
0.0
 13
176.875931
 23
49.30545
 33
0.0
  0
SOLID
  8
0
 62
     7
 10
176.875931
 20
51.51952
 30
0.0
 11
176.875931
 21
49.30545
 31
0.0
 12
176.875931
 22
50.038277
 32
0.0
 13
178.242661
 23
49.30545
 33
0.0
  0
SOLID
  8
0
 62
     7
 10
176.875931
 20
50.038277
 30
0.0
 11
178.242661
 21
49.30545
 31
0.0
 12
178.275345
 22
50.038277
 32
0.0
 13
178.300415
 23
49.302769
 33
0.0
  0
SOLID
  8
0
 62
     7
 10
178.275345
 20
50.038277
 30
0.0
 11
178.300415
 21
49.302769
 31
0.0
 12
178.419846
 22
50.052505
 32
0.0
 13
178.357666
 23
49.294758
 33
0.0
  0
SOLID
  8
0
 62
     7
 10
178.419846
 20
50.052505
 30
0.0
 11
178.357666
 21
49.294758
 31
0.0
 12
178.413925
 22
49.281475
 32
0.0
 13
178.413925
 23
49.281475
 33
0.0
  0
SOLID
  8
0
 62
     7
 10
179.00174
 20
50.634407
 30
0.0
 11
178.959595
 21
50.495472
 31
0.0
 12
179.073959
 22
49.797626
 32
0.0
 13
178.891159
 23
50.367428
 33
0.0
  0
SOLID
  8
0
 62
     7
 10
179.073959
 20
49.797626
 30
0.0
 11
178.891159
 21
50.367428
 31
0.0
 12
178.852203
 22
49.716393
 32
0.0
 13
178.802032
 23
48.957615
 33
0.0
  0
SOLID
  8
0
 62
     7
 10
178.852203
 20
49.716393
 30
0.0
 11
178.802032
 21
48.957615
 31
0.0
 12
178.825165
 22
48.90464
 32
0.0
 13
178.825165
 23
48.90464
 33
0.0
  0
SOLID
  8
0
 62
     7
 10
178.825165
 20
48.90464
 30
0.0
 11
178.843292
 21
48.849751
 31
0.0
 12
178.852203
 22
49.716393
 32
0.0
 13
178.856277
 23
48.793419
 33
0.0
  0
SOLID
  8
0
 62
     7
 10
178.852203
 20
49.716393
 30
0.0
 11
178.856277
 21
48.793419
 31
0.0
 12
178.926102
 22
49.699356
 32
0.0
 13
178.863968
 23
48.736126
 33
0.0
  0
SOLID
  8
0
 62
     7
 10
178.926102
 20
49.699356
 30
0.0
 11
178.863968
 21
48.736126
 31
0.0
 12
178.966827
 22
47.560455
 32
0.0
 13
178.966827
 23
47.560455
 33
0.0
  0
SOLID
  8
0
 62
     7
 10
178.799057
 20
50.255199
 30
0.0
 11
178.686813
 21
50.163094
 31
0.0
 12
178.741577
 22
49.056023
 32
0.0
 13
178.704788
 23
49.100609
 33
0.0
  0
SOLID
  8
0
 62
     7
 10
178.799057
 20
50.255199
 30
0.0
 11
178.741577
 21
49.056023
 31
0.0
 12
178.802032
 22
48.957615
 32
0.0
 13
178.774094
 23
49.008221
 33
0.0
  0
SOLID
  8
0
 62
     7
 10
178.799057
 20
50.255199
 30
0.0
 11
178.802032
 21
48.957615
 31
0.0
 12
178.891159
 22
50.367428
 32
0.0
 13
178.891159
 23
50.367428
 33
0.0
  0
SOLID
  8
0
 62
     7
 10
178.686813
 20
50.163094
 30
0.0
 11
178.558777
 21
50.09465
 31
0.0
 12
178.619629
 22
49.178631
 32
0.0
 13
178.572006
 23
49.211399
 33
0.0
  0
SOLID
  8
0
 62
     7
 10
178.686813
 20
50.163094
 30
0.0
 11
178.619629
 21
49.178631
 31
0.0
 12
178.704788
 22
49.100609
 32
0.0
 13
178.664017
 23
49.141594
 33
0.0
  0
SOLID
  8
0
 62
     7
 10
178.558777
 20
50.09465
 30
0.0
 11
178.419846
 21
50.052505
 31
0.0
 12
178.521561
 22
49.239616
 32
0.0
 13
178.468719
 23
49.263042
 33
0.0
  0
SOLID
  8
0
 62
     7
 10
178.558777
 20
50.09465
 30
0.0
 11
178.521561
 21
49.239616
 31
0.0
 12
178.572006
 22
49.211399
 32
0.0
 13
178.572006
 23
49.211399
 33
0.0
  0
SOLID
  8
0
 62
     7
 10
179.726501
 20
47.560455
 30
0.0
 11
179.611176
 21
48.878536
 31
0.0
 12
179.585785
 22
49.027966
 32
0.0
 13
179.601517
 23
48.953766
 33
0.0
  0
SOLID
  8
0
 62
     7
 10
179.726501
 20
47.560455
 30
0.0
 11
179.585785
 21
49.027966
 31
0.0
 12
179.536591
 22
49.171329
 32
0.0
 13
179.564087
 23
49.100643
 33
0.0
  0
SOLID
  8
0
 62
     7
 10
179.726501
 20
47.560455
 30
0.0
 11
179.536591
 21
49.171329
 31
0.0
 12
179.728302
 22
47.54343
 32
0.0
 13
179.728302
 23
47.54343
 33
0.0
  0
SOLID
  8
0
 62
     7
 10
179.536591
 20
49.171329
 30
0.0
 11
179.503448
 21
49.239552
 31
0.0
 12
179.728302
 22
47.54343
 32
0.0
 13
179.46489
 23
49.304867
 33
0.0
  0
SOLID
  8
0
 62
     7
 10
179.728302
 20
47.54343
 30
0.0
 11
179.46489
 21
49.304867
 31
0.0
 12
179.730728
 22
47.526482
 32
0.0
 13
179.421158
 23
49.366844
 33
0.0
  0
SOLID
  8
0
 62
     7
 10
179.730728
 20
47.526482
 30
0.0
 11
179.421158
 21
49.366844
 31
0.0
 12
179.372559
 22
49.425076
 32
0.0
 13
179.372559
 23
49.425076
 33
0.0
  0
SOLID
  8
0
 62
     7
 10
179.73378
 20
47.509632
 30
0.0
 11
179.730728
 21
47.526482
 31
0.0
 12
179.319397
 22
49.479179
 32
0.0
 13
179.372559
 23
49.425076
 33
0.0
  0
SOLID
  8
0
 62
     7
 10
179.73378
 20
47.509632
 30
0.0
 11
179.319397
 21
49.479179
 31
0.0
 12
179.737427
 22
47.492905
 32
0.0
 13
179.262039
 23
49.528797
 33
0.0
  0
SOLID
  8
0
 62
     7
 10
179.200836
 20
49.573605
 30
0.0
 11
179.136215
 21
49.613308
 31
0.0
 12
179.737427
 22
47.492905
 32
0.0
 13
179.741699
 23
47.476326
 33
0.0
  0
SOLID
  8
0
 62
     7
 10
179.200836
 20
49.573605
 30
0.0
 11
179.737427
 21
47.492905
 31
0.0
 12
179.262039
 22
49.528797
 32
0.0
 13
179.262039
 23
49.528797
 33
0.0
  0
SOLID
  8
0
 62
     7
 10
179.068588
 20
49.647644
 30
0.0
 11
178.998398
 21
49.676392
 31
0.0
 12
179.005081
 22
47.411892
 32
0.0
 13
178.998444
 23
47.427673
 33
0.0
  0
SOLID
  8
0
 62
     7
 10
179.068588
 20
49.647644
 30
0.0
 11
179.005081
 21
47.411892
 31
0.0
 12
179.020081
 22
47.381115
 32
0.0
 13
179.012299
 23
47.396366
 33
0.0
  0
SOLID
  8
0
 62
     7
 10
179.068588
 20
49.647644
 30
0.0
 11
179.020081
 21
47.381115
 31
0.0
 12
179.037277
 22
47.351513
 32
0.0
 13
179.028412
 23
47.366158
 33
0.0
  0
SOLID
  8
0
 62
     7
 10
179.068588
 20
49.647644
 30
0.0
 11
179.037277
 21
47.351513
 31
0.0
 12
179.05661
 22
47.32325
 32
0.0
 13
179.046692
 23
47.337204
 33
0.0
  0
SOLID
  8
0
 62
     7
 10
179.068588
 20
49.647644
 30
0.0
 11
179.05661
 21
47.32325
 31
0.0
 12
179.746582
 22
47.459911
 32
0.0
 13
179.067032
 23
47.309669
 33
0.0
  0
SOLID
  8
0
 62
     7
 10
179.068588
 20
49.647644
 30
0.0
 11
179.746582
 21
47.459911
 31
0.0
 12
179.136215
 22
49.613308
 32
0.0
 13
179.741699
 23
47.476326
 33
0.0
  0
SOLID
  8
0
 62
     7
 10
179.067032
 20
47.309669
 30
0.0
 11
179.826691
 21
47.309669
 31
0.0
 12
179.806351
 22
47.337204
 32
0.0
 13
179.816269
 23
47.32325
 33
0.0
  0
SOLID
  8
0
 62
     7
 10
179.067032
 20
47.309669
 30
0.0
 11
179.806351
 21
47.337204
 31
0.0
 12
179.788071
 22
47.366158
 32
0.0
 13
179.796951
 23
47.351513
 33
0.0
  0
SOLID
  8
0
 62
     7
 10
179.067032
 20
47.309669
 30
0.0
 11
179.788071
 21
47.366158
 31
0.0
 12
179.771957
 22
47.396366
 32
0.0
 13
179.779739
 23
47.381115
 33
0.0
  0
SOLID
  8
0
 62
     7
 10
179.067032
 20
47.309669
 30
0.0
 11
179.771957
 21
47.396366
 31
0.0
 12
179.758102
 22
47.427673
 32
0.0
 13
179.764755
 23
47.411892
 33
0.0
  0
SOLID
  8
0
 62
     7
 10
179.067032
 20
47.309669
 30
0.0
 11
179.758102
 21
47.427673
 31
0.0
 12
179.746582
 22
47.459911
 32
0.0
 13
179.752045
 23
47.443687
 33
0.0
  0
SOLID
  8
0
 62
     7
 10
178.998398
 20
49.676392
 30
0.0
 11
178.926102
 21
49.699356
 31
0.0
 12
178.968643
 22
47.54343
 32
0.0
 13
178.966827
 23
47.560455
 33
0.0
  0
SOLID
  8
0
 62
     7
 10
178.998398
 20
49.676392
 30
0.0
 11
178.968643
 21
47.54343
 31
0.0
 12
178.974106
 22
47.509632
 32
0.0
 13
178.971069
 23
47.526482
 33
0.0
  0
SOLID
  8
0
 62
     7
 10
178.998398
 20
49.676392
 30
0.0
 11
178.974106
 21
47.509632
 31
0.0
 12
178.98204
 22
47.476326
 32
0.0
 13
178.977768
 23
47.492905
 33
0.0
  0
SOLID
  8
0
 62
     7
 10
178.998398
 20
49.676392
 30
0.0
 11
178.98204
 21
47.476326
 31
0.0
 12
178.992386
 22
47.443687
 32
0.0
 13
178.986908
 23
47.459911
 33
0.0
  0
SOLID
  8
0
 62
     7
 10
178.998398
 20
49.676392
 30
0.0
 11
178.992386
 21
47.443687
 31
0.0
 12
178.998444
 22
47.427673
 32
0.0
 13
178.998444
 23
47.427673
 33
0.0
  0
SOLID
  8
0
 62
     7
 10
178.419846
 20
50.052505
 30
0.0
 11
178.413925
 21
49.281475
 31
0.0
 12
178.468719
 22
49.263042
 32
0.0
 13
178.468719
 23
49.263042
 33
0.0
  0
SOLID
  8
0
 62
     7
 10
176.875931
 20
47.309669
 30
0.0
 11
176.065216
 21
52.299118
 31
0.0
 12
176.065216
 22
47.309669
 32
0.0
 13
176.065216
 23
47.309669
 33
0.0
  0
ENDBLK
  8
0
  0
BLOCK
  8
0
  2
BLOCK189
 70
     0
 10
0.0
 20
0.0
 30
0.0
  3
BLOCK189
  0
LINE
  8
0
 62
     7
 10
14.0
 20
66.261215
 30
0.0
 11
14.0
 21
61.261215
 31
0.0
210
0.0
220
0.0
230
1.0
  0
LINE
  8
0
 62
     7
 10
14.0
 20
-21.438528
 30
0.0
 11
14.0
 21
-16.438528
 31
0.0
210
0.0
220
0.0
230
1.0
  0
LINE
  8
0
  6
DASHDOT
 62
     7
 10
14.0
 20
61.261215
 30
0.0
 11
14.0
 21
-16.438528
 31
0.0
210
0.0
220
0.0
230
1.0
  0
LINE
  8
0
 62
     7
 10
14.0
 20
63.761215
 30
0.0
 11
2.0
 21
63.761215
 31
0.0
210
0.0
220
0.0
230
1.0
  0
SOLID
  8
0
 62
     7
 10
6.0
 20
62.350601
 30
0.0
 11
14.0
 21
63.761215
 31
0.0
 12
6.0
 22
65.171829
 32
0.0
 13
6.0
 23
65.171829
 33
0.0
  0
TEXT
  8
0
 62
     7
 10
-4.044434
 20
62.335678
 30
0.0
 40
3.5
  1
A
 72
     5
 11
-1.00841
 21
62.335678
 31
0.0
  0
LINE
  8
0
 62
     7
 10
14.0
 20
-18.938528
 30
0.0
 11
2.0
 21
-18.938528
 31
0.0
210
0.0
220
0.0
230
1.0
  0
SOLID
  8
0
 62
     7
 10
6.0
 20
-20.349144
 30
0.0
 11
14.0
 21
-18.938528
 31
0.0
 12
6.0
 22
-17.527912
 32
0.0
 13
6.0
 23
-17.527912
 33
0.0
  0
TEXT
  8
0
 62
     7
 10
-3.675901
 20
-20.440298
 30
0.0
 40
3.5
  1
A
 72
     5
 11
-0.639878
 21
-20.440298
 31
0.0
  0
ENDBLK
  8
0
  0
BLOCK
  8
0
  2
*D83
 70
    65
 10
0.0
 20
0.0
 30
0.0
  3
*D83
  0
SOLID
  8
0
 62
     7
 10
99.397859
 20
188.11132
 30
0.0
 11
102.372193
 21
188.502899
 31
0.0
 12
99.397859
 22
188.11132
 32
0.0
 13
99.397859
 23
188.894478
 33
0.0
  0
SOLID
  8
0
 62
     7
 10
109.346528
 20
188.894478
 30
0.0
 11
106.372193
 21
188.502899
 31
0.0
 12
109.346528
 22
188.894478
 32
0.0
 13
109.346528
 23
188.11132
 33
0.0
  0
TEXT
  8
0
 62
     7
 10
95.203599
 20
189.502899
 30
0.0
 40
2.5
  1
4
 72
     5
 11
97.372193
 21
189.502899
 31
0.0
  0
LINE
  8
0
 62
     7
 10
102.372193
 20
196.243803
 30
0.0
 11
102.372193
 21
186.502899
 31
0.0
210
0.0
220
0.0
230
1.0
  0
LINE
  8
0
 62
     7
 10
106.372193
 20
196.243803
 30
0.0
 11
106.372193
 21
186.502899
 31
0.0
210
0.0
220
0.0
230
1.0
  0
LINE
  8
0
 62
     7
 10
95.203607
 20
188.502899
 30
0.0
 11
99.397859
 21
188.502899
 31
0.0
210
0.0
220
0.0
230
1.0
  0
LINE
  8
0
 62
     7
 10
102.372193
 20
188.502899
 30
0.0
 11
106.372193
 21
188.502899
 31
0.0
210
0.0
220
0.0
230
1.0
  0
LINE
  8
0
 62
     7
 10
109.346528
 20
188.502899
 30
0.0
 11
111.372193
 21
188.502899
 31
0.0
210
0.0
220
0.0
230
1.0
  0
POLYLINE
  8
0
 62
     7
 66
     1
 10
0.0
 20
0.0
 30
0.0
 70
     1
 71
     3
  0
VERTEX
  8
0
 10
99.397859
 20
188.11132
 30
0.0
  0
VERTEX
  8
0
 10
102.372193
 20
188.502899
 30
0.0
  0
VERTEX
  8
0
 10
99.397859
 20
188.894478
 30
0.0
  0
SEQEND
  8
0
  0
POLYLINE
  8
0
 62
     7
 66
     1
 10
0.0
 20
0.0
 30
0.0
 70
     1
 71
     3
  0
VERTEX
  8
0
 10
109.346528
 20
188.894478
 30
0.0
  0
VERTEX
  8
0
 10
106.372193
 20
188.502899
 30
0.0
  0
VERTEX
  8
0
 10
109.346528
 20
188.11132
 30
0.0
  0
SEQEND
  8
0
  0
ENDBLK
  8
0
  0
BLOCK
  8
0
  2
*D84
 70
    65
 10
0.0
 20
0.0
 30
0.0
  3
*D84
  0
SOLID
  8
0
 62
     7
 10
27.846528
 20
270.438787
 30
0.0
 11
24.872193
 21
270.047209
 31
0.0
 12
27.846528
 22
270.438787
 32
0.0
 13
27.846528
 23
269.65563
 33
0.0
  0
SOLID
  8
0
 62
     7
 10
49.897859
 20
269.65563
 30
0.0
 11
52.872193
 21
270.047209
 31
0.0
 12
49.897859
 22
269.65563
 32
0.0
 13
49.897859
 23
270.438787
 33
0.0
  0
TEXT
  8
0
 62
     7
 10
36.453606
 20
271.047209
 30
0.0
 40
2.5
  1
28
 72
     5
 11
41.290782
 21
271.047209
 31
0.0
  0
LINE
  8
0
 62
     7
 10
24.872193
 20
235.016989
 30
0.0
 11
24.872193
 21
272.047209
 31
0.0
210
0.0
220
0.0
230
1.0
  0
LINE
  8
0
 62
     7
 10
52.872193
 20
235.016989
 30
0.0
 11
52.872193
 21
272.047209
 31
0.0
210
0.0
220
0.0
230
1.0
  0
LINE
  8
0
 62
     7
 10
27.846528
 20
270.047209
 30
0.0
 11
49.897859
 21
270.047209
 31
0.0
210
0.0
220
0.0
230
1.0
  0
POLYLINE
  8
0
 62
     7
 66
     1
 10
0.0
 20
0.0
 30
0.0
 70
     1
 71
     3
  0
VERTEX
  8
0
 10
27.846528
 20
270.438787
 30
0.0
  0
VERTEX
  8
0
 10
24.872193
 20
270.047209
 30
0.0
  0
VERTEX
  8
0
 10
27.846528
 20
269.65563
 30
0.0
  0
SEQEND
  8
0
  0
POLYLINE
  8
0
 62
     7
 66
     1
 10
0.0
 20
0.0
 30
0.0
 70
     1
 71
     3
  0
VERTEX
  8
0
 10
49.897859
 20
269.65563
 30
0.0
  0
VERTEX
  8
0
 10
52.872193
 20
270.047209
 30
0.0
  0
VERTEX
  8
0
 10
49.897859
 20
270.438787
 30
0.0
  0
SEQEND
  8
0
  0
ENDBLK
  8
0
  0
BLOCK
  8
0
  2
*D85
 70
    65
 10
0.0
 20
0.0
 30
0.0
  3
*D85
  0
SOLID
  8
0
 62
    34
 10
11.712528
 20
248.08436
 30
0.0
 11
11.32095
 21
251.058695
 31
0.0
 12
11.712528
 22
248.08436
 32
0.0
 13
10.929371
 23
248.08436
 33
0.0
  0
SOLID
  8
0
 62
    34
 10
10.929371
 20
194.991323
 30
0.0
 11
11.32095
 21
192.016988
 31
0.0
 12
10.929371
 22
194.991323
 32
0.0
 13
11.712528
 23
194.991323
 33
0.0
  0
TEXT
  8
0
 62
    34
 10
10.32095
 20
212.447784
 30
0.0
 40
2.5
  1
max. 65
 50
90.000003
 72
     5
 11
10.32095
 21
230.627897
 31
0.0
  0
LINE
  8
0
 62
    34
 10
24.872193
 20
192.016988
 30
0.0
 11
9.32095
 21
192.016988
 31
0.0
210
0.0
220
0.0
230
1.0
  0
LINE
  8
0
 62
    34
 10
31.372193
 20
251.058695
 30
0.0
 11
9.32095
 21
251.058695
 31
0.0
210
0.0
220
0.0
230
1.0
  0
LINE
  8
0
 62
    34
 10
11.32095
 20
194.991323
 30
0.0
 11
11.32095
 21
248.08436
 31
0.0
210
0.0
220
0.0
230
1.0
  0
POLYLINE
  8
0
 62
    34
 66
     1
 10
0.0
 20
0.0
 30
0.0
 70
     1
 71
     3
  0
VERTEX
  8
0
 10
11.712528
 20
248.08436
 30
0.0
  0
VERTEX
  8
0
 10
11.32095
 20
251.058695
 30
0.0
  0
VERTEX
  8
0
 10
10.929371
 20
248.08436
 30
0.0
  0
SEQEND
  8
0
  0
POLYLINE
  8
0
 62
    34
 66
     1
 10
0.0
 20
0.0
 30
0.0
 70
     1
 71
     3
  0
VERTEX
  8
0
 10
10.929371
 20
194.991323
 30
0.0
  0
VERTEX
  8
0
 10
11.32095
 20
192.016988
 30
0.0
  0
VERTEX
  8
0
 10
11.712528
 20
194.991323
 30
0.0
  0
SEQEND
  8
0
  0
ENDBLK
  8
0
  0
BLOCK
  8
0
  2
*D86
 70
    65
 10
0.0
 20
0.0
 30
0.0
  3
*D86
  0
SOLID
  8
0
 62
     7
 10
19.641998
 20
243.042654
 30
0.0
 11
19.25042
 21
246.016989
 31
0.0
 12
19.641998
 22
243.042654
 32
0.0
 13
18.858841
 23
243.042654
 33
0.0
  0
SOLID
  8
0
 62
     7
 10
18.858841
 20
194.991323
 30
0.0
 11
19.25042
 21
192.016988
 31
0.0
 12
18.858841
 22
194.991323
 32
0.0
 13
19.641998
 23
194.991323
 33
0.0
  0
TEXT
  8
0
 62
     7
 10
18.25042
 20
216.5984
 30
0.0
 40
2.5
  1
54
 50
90.000003
 72
     5
 11
18.25042
 21
221.435577
 31
0.0
  0
LINE
  8
0
 62
     7
 10
24.872193
 20
192.016988
 30
0.0
 11
17.25042
 21
192.016988
 31
0.0
210
0.0
220
0.0
230
1.0
  0
LINE
  8
0
 62
     7
 10
24.872193
 20
246.016989
 30
0.0
 11
17.25042
 21
246.016989
 31
0.0
210
0.0
220
0.0
230
1.0
  0
LINE
  8
0
 62
     7
 10
19.25042
 20
194.991323
 30
0.0
 11
19.25042
 21
243.042654
 31
0.0
210
0.0
220
0.0
230
1.0
  0
POLYLINE
  8
0
 62
     7
 66
     1
 10
0.0
 20
0.0
 30
0.0
 70
     1
 71
     3
  0
VERTEX
  8
0
 10
19.641998
 20
243.042654
 30
0.0
  0
VERTEX
  8
0
 10
19.25042
 20
246.016989
 30
0.0
  0
VERTEX
  8
0
 10
18.858841
 20
243.042654
 30
0.0
  0
SEQEND
  8
0
  0
POLYLINE
  8
0
 62
     7
 66
     1
 10
0.0
 20
0.0
 30
0.0
 70
     1
 71
     3
  0
VERTEX
  8
0
 10
18.858841
 20
194.991323
 30
0.0
  0
VERTEX
  8
0
 10
19.25042
 20
192.016988
 30
0.0
  0
VERTEX
  8
0
 10
19.641998
 20
194.991323
 30
0.0
  0
SEQEND
  8
0
  0
ENDBLK
  8
0
  0
BLOCK
  8
0
  2
*D87
 70
    65
 10
0.0
 20
0.0
 30
0.0
  3
*D87
  0
SOLID
  8
0
 62
     7
 10
27.846528
 20
171.099052
 30
0.0
 11
24.872193
 21
170.707474
 31
0.0
 12
27.846528
 22
171.099052
 32
0.0
 13
27.846528
 23
170.315895
 33
0.0
  0
SOLID
  8
0
 62
     7
 10
103.397859
 20
170.315895
 30
0.0
 11
106.372193
 21
170.707474
 31
0.0
 12
103.397859
 22
170.315895
 32
0.0
 13
103.397859
 23
171.099052
 33
0.0
  0
TEXT
  8
0
 62
     7
 10
60.535016
 20
171.707474
 30
0.0
 40
2.5
  1
81.5
 72
     5
 11
70.709371
 21
171.707474
 31
0.0
  0
LINE
  8
0
 62
     7
 10
24.872193
 20
198.820836
 30
0.0
 11
24.872193
 21
168.707474
 31
0.0
210
0.0
220
0.0
230
1.0
  0
LINE
  8
0
 62
     7
 10
106.372193
 20
196.243803
 30
0.0
 11
106.372193
 21
168.707474
 31
0.0
210
0.0
220
0.0
230
1.0
  0
LINE
  8
0
 62
     7
 10
27.846528
 20
170.707474
 30
0.0
 11
103.397859
 21
170.707474
 31
0.0
210
0.0
220
0.0
230
1.0
  0
POLYLINE
  8
0
 62
     7
 66
     1
 10
0.0
 20
0.0
 30
0.0
 70
     1
 71
     3
  0
VERTEX
  8
0
 10
27.846528
 20
171.099052
 30
0.0
  0
VERTEX
  8
0
 10
24.872193
 20
170.707474
 30
0.0
  0
VERTEX
  8
0
 10
27.846528
 20
170.315895
 30
0.0
  0
SEQEND
  8
0
  0
POLYLINE
  8
0
 62
     7
 66
     1
 10
0.0
 20
0.0
 30
0.0
 70
     1
 71
     3
  0
VERTEX
  8
0
 10
103.397859
 20
170.315895
 30
0.0
  0
VERTEX
  8
0
 10
106.372193
 20
170.707474
 30
0.0
  0
VERTEX
  8
0
 10
103.397859
 20
171.099052
 30
0.0
  0
SEQEND
  8
0
  0
ENDBLK
  8
0
  0
BLOCK
  8
0
  2
BLOCK190
 70
     0
 10
0.0
 20
0.0
 30
0.0
  3
BLOCK190
  0
LINE
  8
0
 62
     7
 10
38.85
 20
9.0
 30
0.0
 11
35.15
 21
9.0
 31
0.0
210
0.0
220
0.0
230
1.0
  0
LINE
  8
0
 62
     7
 10
33.0
 20
9.0
 30
0.0
 11
77.0
 21
9.0
 31
0.0
210
0.0
220
0.0
230
1.0
  0
ARC
  8
0
 62
     7
 10
77.0
 20
4.5
 30
0.0
 40
4.5
 50
0.0
 51
90.0
210
0.0
220
0.0
230
1.0
  0
ARC
  8
0
 62
     7
 10
77.0
 20
4.5
 30
0.0
 40
0.5
 50
0.0
 51
90.0
210
0.0
220
0.0
230
1.0
  0
POLYLINE
  8
0
 62
     7
 66
     1
 10
0.0
 20
0.0
 30
0.0
 71
    23
  0
VERTEX
  8
0
 10
28.000359
 20
10.278756
 30
0.0
  0
VERTEX
  8
0
 10
28.34576
 20
10.132302
 30
0.0
  0
VERTEX
  8
0
 10
28.691191
 20
9.98675
 30
0.0
  0
VERTEX
  8
0
 10
28.96488
 20
9.874027
 30
0.0
  0
VERTEX
  8
0
 10
29.240099
 20
9.764475
 30
0.0
  0
VERTEX
  8
0
 10
29.554691
 20
9.645454
 30
0.0
  0
VERTEX
  8
0
 10
29.713375
 20
9.58839
 30
0.0
  0
VERTEX
  8
0
 10
29.873135
 20
9.533172
 30
0.0
  0
VERTEX
  8
0
 10
30.087997
 20
9.462682
 30
0.0
  0
VERTEX
  8
0
 10
30.305159
 20
9.396089
 30
0.0
  0
VERTEX
  8
0
 10
30.524773
 20
9.333714
 30
0.0
  0
VERTEX
  8
0
 10
30.791677
 20
9.264862
 30
0.0
  0
VERTEX
  8
0
 10
30.926523
 20
9.233034
 30
0.0
  0
VERTEX
  8
0
 10
31.062286
 20
9.203016
 30
0.0
  0
VERTEX
  8
0
 10
31.267597
 20
9.161506
 30
0.0
  0
VERTEX
  8
0
 10
31.474792
 20
9.124374
 30
0.0
  0
VERTEX
  8
0
 10
31.68368
 20
9.091795
 30
0.0
  0
VERTEX
  8
0
 10
31.893997
 20
9.06393
 30
0.0
  0
VERTEX
  8
0
 10
32.113968
 20
9.040105
 30
0.0
  0
VERTEX
  8
0
 10
32.334923
 20
9.021674
 30
0.0
  0
VERTEX
  8
0
 10
32.55653
 20
9.008763
 30
0.0
  0
VERTEX
  8
0
 10
32.778366
 20
9.001497
 30
0.0
  0
VERTEX
  8
0
 10
33.0
 20
9.0
 30
0.0
  0
SEQEND
  8
0
  0
POLYLINE
  8
0
 62
     7
 66
     1
 10
0.0
 20
0.0
 30
0.0
 71
    23
  0
VERTEX
  8
0
 10
28.00036
 20
10.278755
 30
0.0
  0
VERTEX
  8
0
 10
28.345764
 20
10.1323
 30
0.0
  0
VERTEX
  8
0
 10
28.691196
 20
9.986747
 30
0.0
  0
VERTEX
  8
0
 10
28.964884
 20
9.874025
 30
0.0
  0
VERTEX
  8
0
 10
29.240101
 20
9.764474
 30
0.0
  0
VERTEX
  8
0
 10
29.554693
 20
9.645453
 30
0.0
  0
VERTEX
  8
0
 10
29.713377
 20
9.588389
 30
0.0
  0
VERTEX
  8
0
 10
29.873137
 20
9.533172
 30
0.0
  0
VERTEX
  8
0
 10
30.087999
 20
9.462682
 30
0.0
  0
VERTEX
  8
0
 10
30.305161
 20
9.396088
 30
0.0
  0
VERTEX
  8
0
 10
30.524775
 20
9.333714
 30
0.0
  0
VERTEX
  8
0
 10
30.791679
 20
9.264862
 30
0.0
  0
VERTEX
  8
0
 10
30.926525
 20
9.233034
 30
0.0
  0
VERTEX
  8
0
 10
31.062286
 20
9.203016
 30
0.0
  0
VERTEX
  8
0
 10
31.267597
 20
9.161506
 30
0.0
  0
VERTEX
  8
0
 10
31.474792
 20
9.124374
 30
0.0
  0
VERTEX
  8
0
 10
31.683681
 20
9.091795
 30
0.0
  0
VERTEX
  8
0
 10
31.893997
 20
9.06393
 30
0.0
  0
VERTEX
  8
0
 10
32.113968
 20
9.040105
 30
0.0
  0
VERTEX
  8
0
 10
32.334923
 20
9.021674
 30
0.0
  0
VERTEX
  8
0
 10
32.55653
 20
9.008763
 30
0.0
  0
VERTEX
  8
0
 10
32.778366
 20
9.001497
 30
0.0
  0
VERTEX
  8
0
 10
33.0
 20
9.0
 30
0.0
  0
SEQEND
  8
0
  0
POLYLINE
  8
0
 62
     7
 66
     1
 10
0.0
 20
0.0
 30
0.0
 71
    25
  0
VERTEX
  8
0
 10
27.99975
 20
6.565289
 30
0.0
  0
VERTEX
  8
0
 10
28.348814
 20
6.390806
 30
0.0
  0
VERTEX
  8
0
 10
28.698095
 20
6.21706
 30
0.0
  0
VERTEX
  8
0
 10
28.958725
 20
6.089767
 30
0.0
  0
VERTEX
  8
0
 10
29.220533
 20
5.965267
 30
0.0
  0
VERTEX
  8
0
 10
29.529476
 20
5.824211
 30
0.0
  0
VERTEX
  8
0
 10
29.684977
 20
5.756105
 30
0.0
  0
VERTEX
  8
0
 10
29.841259
 20
5.689865
 30
0.0
  0
VERTEX
  8
0
 10
30.050964
 20
5.604758
 30
0.0
  0
VERTEX
  8
0
 10
30.262306
 20
5.52371
 30
0.0
  0
VERTEX
  8
0
 10
30.475391
 20
5.447129
 30
0.0
  0
VERTEX
  8
0
 10
30.717287
 20
5.366802
 30
0.0
  0
VERTEX
  8
0
 10
30.961529
 20
5.293162
 30
0.0
  0
VERTEX
  8
0
 10
31.08453
 20
5.25901
 30
0.0
  0
VERTEX
  8
0
 10
31.208109
 20
5.226719
 30
0.0
  0
VERTEX
  8
0
 10
31.332251
 20
5.196349
 30
0.0
  0
VERTEX
  8
0
 10
31.45694
 20
5.167957
 30
0.0
  0
VERTEX
  8
0
 10
31.657524
 20
5.126784
 30
0.0
  0
VERTEX
  8
0
 10
31.859329
 20
5.091037
 30
0.0
  0
VERTEX
  8
0
 10
32.062199
 20
5.060923
 30
0.0
  0
VERTEX
  8
0
 10
32.265934
 20
5.036632
 30
0.0
  0
VERTEX
  8
0
 10
32.470303
 20
5.018345
 30
0.0
  0
VERTEX
  8
0
 10
32.646828
 20
5.007521
 30
0.0
  0
VERTEX
  8
0
 10
32.823471
 20
5.001376
 30
0.0
  0
VERTEX
  8
0
 10
33.0
 20
5.0
 30
0.0
  0
SEQEND
  8
0
  0
LINE
  8
0
 62
     7
 10
33.0
 20
5.0
 30
0.0
 11
33.0
 21
9.0
 31
0.0
210
0.0
220
0.0
230
1.0
  0
LINE
  8
0
 62
     7
 10
81.5
 20
-2.0
 30
0.0
 11
77.5
 21
-2.0
 31
0.0
210
0.0
220
0.0
230
1.0
  0
LINE
  8
0
 62
     7
 10
77.5
 20
4.5
 30
0.0
 11
77.5
 21
-2.0
 31
0.0
210
0.0
220
0.0
230
1.0
  0
LINE
  8
0
 62
     7
 10
33.0
 20
5.0
 30
0.0
 11
77.0
 21
5.0
 31
0.0
210
0.0
220
0.0
230
1.0
  0
LINE
  8
0
 62
     7
 10
81.5
 20
-2.0
 30
0.0
 11
81.5
 21
4.5
 31
0.0
210
0.0
220
0.0
230
1.0
  0
LINE
  8
0
 62
     7
 10
39.0
 20
9.0
 30
0.0
 11
35.0
 21
9.0
 31
0.0
210
0.0
220
0.0
230
1.0
  0
POLYLINE
  8
0
 62
     7
 66
     1
 10
0.0
 20
0.0
 30
0.0
 71
    28
  0
VERTEX
  8
0
 10
33.0
 20
5.0
 30
0.0
  0
VERTEX
  8
0
 10
32.910011
 20
4.995936
 30
0.0
  0
VERTEX
  8
0
 10
32.820183
 20
4.989904
 30
0.0
  0
VERTEX
  8
0
 10
32.64109
 20
4.972157
 30
0.0
  0
VERTEX
  8
0
 10
32.462902
 20
4.947196
 30
0.0
  0
VERTEX
  8
0
 10
32.285801
 20
4.91546
 30
0.0
  0
VERTEX
  8
0
 10
32.109974
 20
4.877386
 30
0.0
  0
VERTEX
  8
0
 10
31.92914
 20
4.831644
 30
0.0
  0
VERTEX
  8
0
 10
31.749958
 20
4.779867
 30
0.0
  0
VERTEX
  8
0
 10
31.572514
 20
4.722365
 30
0.0
  0
VERTEX
  8
0
 10
31.396889
 20
4.659451
 30
0.0
  0
VERTEX
  8
0
 10
31.223173
 20
4.591432
 30
0.0
  0
VERTEX
  8
0
 10
31.049356
 20
4.517659
 30
0.0
  0
VERTEX
  8
0
 10
30.877693
 20
4.439066
 30
0.0
  0
VERTEX
  8
0
 10
30.708294
 20
4.355745
 30
0.0
  0
VERTEX
  8
0
 10
30.541269
 20
4.267787
 30
0.0
  0
VERTEX
  8
0
 10
30.37673
 20
4.175284
 30
0.0
  0
VERTEX
  8
0
 10
30.17771
 20
4.055348
 30
0.0
  0
VERTEX
  8
0
 10
29.982609
 20
3.929119
 30
0.0
  0
VERTEX
  8
0
 10
29.791407
 20
3.797055
 30
0.0
  0
VERTEX
  8
0
 10
29.604088
 20
3.659612
 30
0.0
  0
VERTEX
  8
0
 10
29.42042
 20
3.517235
 30
0.0
  0
VERTEX
  8
0
 10
29.239962
 20
3.370821
 30
0.0
  0
VERTEX
  8
0
 10
29.003902
 20
3.17147
 30
0.0
  0
VERTEX
  8
0
 10
28.817249
 20
3.009392
 30
0.0
  0
VERTEX
  8
0
 10
28.543661
 20
2.767881
 30
0.0
  0
VERTEX
  8
0
 10
28.362101
 20
2.605999
 30
0.0
  0
VERTEX
  8
0
 10
27.999662
 20
2.281523
 30
0.0
  0
SEQEND
  8
0
  0
LINE
  8
0
 62
     7
 10
0.0
 20
47.773185
 30
0.0
 11
28.0
 21
47.773185
 31
0.0
210
0.0
220
0.0
230
1.0
  0
LINE
  8
0
 62
     7
 10
0.0
 20
46.648609
 30
0.0
 11
28.0
 21
46.648609
 31
0.0
210
0.0
220
0.0
230
1.0
  0
LINE
  8
0
 62
     7
 10
28.0
 20
46.648609
 30
0.0
 11
28.0
 21
47.773185
 31
0.0
210
0.0
220
0.0
230
1.0
  0
LINE
  8
0
 62
     7
 10
0.0
 20
47.773185
 30
0.0
 11
0.0
 21
46.648609
 31
0.0
210
0.0
220
0.0
230
1.0
  0
LINE
  8
0
 62
     7
 10
0.0
 20
45.305177
 30
0.0
 11
28.0
 21
45.305177
 31
0.0
210
0.0
220
0.0
230
1.0
  0
LINE
  8
0
 62
     7
 10
28.0
 20
46.648609
 30
0.0
 11
28.0
 21
45.305177
 31
0.0
210
0.0
220
0.0
230
1.0
  0
LINE
  8
0
 62
     7
 10
0.0
 20
46.648609
 30
0.0
 11
0.0
 21
45.305177
 31
0.0
210
0.0
220
0.0
230
1.0
  0
LINE
  8
0
 62
     7
 10
0.0
 20
36.773185
 30
0.0
 11
28.0
 21
36.773185
 31
0.0
210
0.0
220
0.0
230
1.0
  0
LINE
  8
0
 62
     7
 10
28.0
 20
36.773185
 30
0.0
 11
28.0
 21
45.305177
 31
0.0
210
0.0
220
0.0
230
1.0
  0
LINE
  8
0
 62
     7
 10
0.0
 20
45.305177
 30
0.0
 11
0.0
 21
36.773185
 31
0.0
210
0.0
220
0.0
230
1.0
  0
LINE
  8
0
 62
     7
 10
0.0
 20
7.505236
 30
0.0
 11
28.0
 21
7.505236
 31
0.0
210
0.0
220
0.0
230
1.0
  0
LINE
  8
0
 62
     7
 10
28.0
 20
36.773185
 30
0.0
 11
28.0
 21
7.505236
 31
0.0
210
0.0
220
0.0
230
1.0
  0
LINE
  8
0
 62
     7
 10
0.0
 20
36.773185
 30
0.0
 11
0.0
 21
7.505236
 31
0.0
210
0.0
220
0.0
230
1.0
  0
LINE
  8
0
 62
     7
 10
0.0
 20
0.577033
 30
0.0
 11
28.0
 21
0.577033
 31
0.0
210
0.0
220
0.0
230
1.0
  0
LINE
  8
0
 62
     7
 10
28.0
 20
0.577033
 30
0.0
 11
28.0
 21
7.505236
 31
0.0
210
0.0
220
0.0
230
1.0
  0
LINE
  8
0
 62
     7
 10
0.0
 20
7.505236
 30
0.0
 11
0.0
 21
0.577033
 31
0.0
210
0.0
220
0.0
230
1.0
  0
LINE
  8
0
 62
     7
 10
0.0
 20
-4.619119
 30
0.0
 11
28.0
 21
-4.619119
 31
0.0
210
0.0
220
0.0
230
1.0
  0
LINE
  8
0
 62
     7
 10
28.0
 20
0.577033
 30
0.0
 11
28.0
 21
-4.619119
 31
0.0
210
0.0
220
0.0
230
1.0
  0
LINE
  8
0
 62
     7
 10
0.0
 20
0.577033
 30
0.0
 11
0.0
 21
-4.619119
 31
0.0
210
0.0
220
0.0
230
1.0
  0
LINE
  8
0
 62
     7
 10
28.0
 20
-6.226815
 30
0.0
 11
28.0
 21
-4.619119
 31
0.0
210
0.0
220
0.0
230
1.0
  0
LINE
  8
0
 62
     7
 10
0.0
 20
-4.619119
 30
0.0
 11
0.0
 21
-6.226815
 31
0.0
210
0.0
220
0.0
230
1.0
  0
LINE
  8
0
 62
     7
 10
0.0
 20
-6.226815
 30
0.0
 11
28.0
 21
-6.226815
 31
0.0
210
0.0
220
0.0
230
1.0
  0
LINE
  8
0
 62
     7
 10
14.0
 20
52.814891
 30
0.0
 11
21.5
 21
52.814891
 31
0.0
210
0.0
220
0.0
230
1.0
  0
LINE
  8
0
 62
     7
 10
6.5
 20
52.814891
 30
0.0
 11
14.0
 21
52.814891
 31
0.0
210
0.0
220
0.0
230
1.0
  0
LINE
  8
0
 62
     7
 10
21.5
 20
52.814891
 30
0.0
 11
22.0
 21
52.314891
 31
0.0
210
0.0
220
0.0
230
1.0
  0
LINE
  8
0
 62
     7
 10
14.0
 20
52.314891
 30
0.0
 11
22.0
 21
52.314891
 31
0.0
210
0.0
220
0.0
230
1.0
  0
LINE
  8
0
 62
     7
 10
6.0
 20
52.314891
 30
0.0
 11
6.5
 21
52.814891
 31
0.0
210
0.0
220
0.0
230
1.0
  0
LINE
  8
0
 62
     7
 10
6.0
 20
52.314891
 30
0.0
 11
14.0
 21
52.314891
 31
0.0
210
0.0
220
0.0
230
1.0
  0
LINE
  8
0
 62
     7
 10
22.0
 20
47.773179
 30
0.0
 11
22.0
 21
52.314891
 31
0.0
210
0.0
220
0.0
230
1.0
  0
LINE
  8
0
 62
     7
 10
6.0
 20
52.314891
 30
0.0
 11
6.0
 21
47.773179
 31
0.0
210
0.0
220
0.0
230
1.0
  0
ENDBLK
  8
0
  0
BLOCK
  8
0
  2
*D89
 70
    65
 10
0.0
 20
0.0
 30
0.0
  3
*D89
  0
SOLID
  8
0
 62
     7
 10
146.701147
 20
185.678932
 30
0.0
 11
143.726812
 21
185.287353
 31
0.0
 12
146.701147
 22
185.678932
 32
0.0
 13
146.701147
 23
184.895775
 33
0.0
  0
SOLID
  8
0
 62
     7
 10
168.952478
 20
184.895775
 30
0.0
 11
171.926813
 21
185.287353
 31
0.0
 12
168.952478
 22
184.895775
 32
0.0
 13
168.952478
 23
185.678932
 33
0.0
  0
TEXT
  8
0
 62
     7
 10
152.739637
 20
186.287353
 30
0.0
 40
2.5
  1
28.2
 72
     5
 11
162.913989
 21
186.287353
 31
0.0
  0
LINE
  8
0
 62
     7
 10
143.726812
 20
208.590952
 30
0.0
 11
143.726812
 21
183.287353
 31
0.0
210
0.0
220
0.0
230
1.0
  0
LINE
  8
0
 62
     7
 10
171.926813
 20
208.590952
 30
0.0
 11
171.926813
 21
183.287353
 31
0.0
210
0.0
220
0.0
230
1.0
  0
LINE
  8
0
 62
     7
 10
146.701147
 20
185.287353
 30
0.0
 11
168.952478
 21
185.287353
 31
0.0
210
0.0
220
0.0
230
1.0
  0
POLYLINE
  8
0
 62
     7
 66
     1
 10
0.0
 20
0.0
 30
0.0
 70
     1
 71
     3
  0
VERTEX
  8
0
 10
146.701147
 20
185.678932
 30
0.0
  0
VERTEX
  8
0
 10
143.726812
 20
185.287353
 30
0.0
  0
VERTEX
  8
0
 10
146.701147
 20
184.895775
 30
0.0
  0
SEQEND
  8
0
  0
POLYLINE
  8
0
 62
     7
 66
     1
 10
0.0
 20
0.0
 30
0.0
 70
     1
 71
     3
  0
VERTEX
  8
0
 10
168.952478
 20
184.895775
 30
0.0
  0
VERTEX
  8
0
 10
171.926813
 20
185.287353
 30
0.0
  0
VERTEX
  8
0
 10
168.952478
 20
185.678932
 30
0.0
  0
SEQEND
  8
0
  0
ENDBLK
  8
0
  0
BLOCK
  8
0
  2
*D90
 70
    65
 10
0.0
 20
0.0
 30
0.0
  3
*D90
  0
SOLID
  8
0
 62
     7
 10
141.801147
 20
177.426315
 30
0.0
 11
138.826813
 21
177.034736
 31
0.0
 12
141.801147
 22
177.426315
 32
0.0
 13
141.801147
 23
176.643158
 33
0.0
  0
SOLID
  8
0
 62
     7
 10
173.852478
 20
176.643158
 30
0.0
 11
176.826813
 21
177.034736
 31
0.0
 12
173.852478
 22
176.643158
 32
0.0
 13
173.852478
 23
177.426315
 33
0.0
  0
TEXT
  8
0
 62
     7
 10
155.408225
 20
178.034736
 30
0.0
 40
2.5
  1
38
 72
     5
 11
160.245401
 21
178.034736
 31
0.0
  0
LINE
  8
0
 62
     7
 10
138.826813
 20
205.749039
 30
0.0
 11
138.826813
 21
175.034736
 31
0.0
210
0.0
220
0.0
230
1.0
  0
LINE
  8
0
 62
     7
 10
176.826813
 20
205.749039
 30
0.0
 11
176.826813
 21
175.034736
 31
0.0
210
0.0
220
0.0
230
1.0
  0
LINE
  8
0
 62
     7
 10
141.801147
 20
177.034736
 30
0.0
 11
173.852478
 21
177.034736
 31
0.0
210
0.0
220
0.0
230
1.0
  0
POLYLINE
  8
0
 62
     7
 66
     1
 10
0.0
 20
0.0
 30
0.0
 70
     1
 71
     3
  0
VERTEX
  8
0
 10
141.801147
 20
177.426315
 30
0.0
  0
VERTEX
  8
0
 10
138.826813
 20
177.034736
 30
0.0
  0
VERTEX
  8
0
 10
141.801147
 20
176.643158
 30
0.0
  0
SEQEND
  8
0
  0
POLYLINE
  8
0
 62
     7
 66
     1
 10
0.0
 20
0.0
 30
0.0
 70
     1
 71
     3
  0
VERTEX
  8
0
 10
173.852478
 20
176.643158
 30
0.0
  0
VERTEX
  8
0
 10
176.826813
 20
177.034736
 30
0.0
  0
VERTEX
  8
0
 10
173.852478
 20
177.426315
 30
0.0
  0
SEQEND
  8
0
  0
ENDBLK
  8
0
  0
BLOCK
  8
0
  2
*D91
 70
    65
 10
0.0
 20
0.0
 30
0.0
  3
*D91
  0
SOLID
  8
0
 62
     7
 10
146.852478
 20
258.265131
 30
0.0
 11
149.826813
 21
258.656709
 31
0.0
 12
146.852478
 22
258.265131
 32
0.0
 13
146.852478
 23
259.048288
 33
0.0
  0
SOLID
  8
0
 62
     7
 10
168.801147
 20
259.048288
 30
0.0
 11
165.826813
 21
258.656709
 31
0.0
 12
168.801147
 22
259.048288
 32
0.0
 13
168.801147
 23
258.265131
 33
0.0
  0
TEXT
  8
0
 62
     7
 10
154.700156
 20
259.656709
 30
0.0
 40
2.5
  1
16
 72
     5
 11
159.537332
 21
259.656709
 31
0.0
  0
TEXT
  8
0
 62
     7
 10
151.531568
 20
259.656709
 30
0.0
 40
2.5
  1
M
 72
     5
 11
153.700156
 21
259.656709
 31
0.0
  0
TEXT
  8
0
 62
     7
 10
160.537332
 20
259.656709
 30
0.0
 40
2.5
  1
x1
 72
     5
 11
165.374508
 21
259.656709
 31
0.0
  0
LINE
  8
0
 62
     7
 10
149.826813
 20
250.558695
 30
0.0
 11
149.826813
 21
260.656709
 31
0.0
210
0.0
220
0.0
230
1.0
  0
LINE
  8
0
 62
     7
 10
165.826813
 20
250.558695
 30
0.0
 11
165.826813
 21
260.656709
 31
0.0
210
0.0
220
0.0
230
1.0
  0
LINE
  8
0
 62
     7
 10
144.826813
 20
258.656709
 30
0.0
 11
146.852478
 21
258.656709
 31
0.0
210
0.0
220
0.0
230
1.0
  0
LINE
  8
0
 62
     7
 10
149.826813
 20
258.656709
 30
0.0
 11
165.826813
 21
258.656709
 31
0.0
210
0.0
220
0.0
230
1.0
  0
LINE
  8
0
 62
     7
 10
168.801147
 20
258.656709
 30
0.0
 11
170.826813
 21
258.656709
 31
0.0
210
0.0
220
0.0
230
1.0
  0
POLYLINE
  8
0
 62
     7
 66
     1
 10
0.0
 20
0.0
 30
0.0
 70
     1
 71
     3
  0
VERTEX
  8
0
 10
146.852478
 20
258.265131
 30
0.0
  0
VERTEX
  8
0
 10
149.826813
 20
258.656709
 30
0.0
  0
VERTEX
  8
0
 10
146.852478
 20
259.048288
 30
0.0
  0
SEQEND
  8
0
  0
POLYLINE
  8
0
 62
     7
 66
     1
 10
0.0
 20
0.0
 30
0.0
 70
     1
 71
     3
  0
VERTEX
  8
0
 10
168.801147
 20
259.048288
 30
0.0
  0
VERTEX
  8
0
 10
165.826813
 20
258.656709
 30
0.0
  0
VERTEX
  8
0
 10
168.801147
 20
258.265131
 30
0.0
  0
SEQEND
  8
0
  0
ENDBLK
  8
0
  0
BLOCK
  8
0
  2
BLOCK191
 70
     0
 10
0.0
 20
0.0
 30
0.0
  3
BLOCK191
  0
LINE
  8
0
 62
     7
 10
-5.76514
 20
11.421994
 30
0.0
 11
0.088636
 21
5.568218
 31
0.0
210
0.0
220
0.0
230
1.0
  0
LINE
  8
0
 62
     7
 10
-5.252576
 20
13.737857
 30
0.0
 11
2.395931
 21
6.089351
 31
0.0
210
0.0
220
0.0
230
1.0
  0
LINE
  8
0
 62
     7
 10
-4.098229
 20
15.411938
 30
0.0
 11
4.071068
 21
7.24264
 31
0.0
210
0.0
220
0.0
230
1.0
  0
LINE
  8
0
 62
     7
 10
-2.450048
 20
16.592184
 30
0.0
 11
5.243934
 21
8.898202
 31
0.0
210
0.0
220
0.0
230
1.0
  0
LINE
  8
0
 62
     7
 10
-0.163368
 20
17.13393
 30
0.0
 11
5.789497
 21
11.181066
 31
0.0
210
0.0
220
0.0
230
1.0
  0
ENDBLK
  8
0
  0
BLOCK
  8
0
  2
BLOCK192
 70
     0
 10
0.0
 20
0.0
 30
0.0
  3
BLOCK192
  0
LINE
  8
0
 62
     7
 10
4.242641
 20
1.757359
 30
0.0
 11
7.156908
 21
4.671626
 31
0.0
210
0.0
220
0.0
230
1.0
  0
ARC
  8
0
 62
     7
 10
0.0
 20
6.0
 30
0.0
 40
6.0
 50
270.105539
 51
315.0
210
0.0
220
0.0
230
1.0
  0
ARC
  8
0
 62
     7
 10
0.0
 20
6.0
 30
0.0
 40
6.0
 50
225.0
 51
269.894461
210
0.0
220
0.0
230
1.0
  0
LINE
  8
0
 62
     7
 10
-4.242641
 20
1.757359
 30
0.0
 11
-7.156908
 21
4.671626
 31
0.0
210
0.0
220
0.0
230
1.0
  0
ARC
  8
0
 62
     7
 10
-7.864014
 20
3.964519
 30
0.0
 40
1.0
 50
45.0
 51
60.0
210
0.0
220
0.0
230
1.0
  0
LINE
  8
0
 62
     7
 10
-7.364014
 20
4.830545
 30
0.0
 11
-12.65
 21
7.88241
 31
0.0
210
0.0
220
0.0
230
1.0
  0
LINE
  8
0
 62
     7
 10
-12.65
 20
7.88241
 30
0.0
 11
-10.65
 21
11.346512
 31
0.0
210
0.0
220
0.0
230
1.0
  0
LINE
  8
0
 62
     7
 10
-5.364014
 20
8.294646
 30
0.0
 11
-10.65
 21
11.346512
 31
0.0
210
0.0
220
0.0
230
1.0
  0
ARC
  8
0
 62
     7
 10
-7.864014
 20
3.964519
 30
0.0
 40
5.0
 50
45.0
 51
60.0
210
0.0
220
0.0
230
1.0
  0
LINE
  8
0
 62
     7
 10
-1.414214
 20
4.585786
 30
0.0
 11
-4.328481
 21
7.500053
 31
0.0
210
0.0
220
0.0
230
1.0
  0
ARC
  8
0
 62
     7
 10
0.0
 20
6.0
 30
0.0
 40
2.0
 50
225.0
 51
315.0
210
0.0
220
0.0
230
1.0
  0
LINE
  8
0
 62
     7
 10
1.414214
 20
4.585786
 30
0.0
 11
4.328481
 21
7.500053
 31
0.0
210
0.0
220
0.0
230
1.0
  0
ARC
  8
0
 62
     7
 10
7.864014
 20
3.964519
 30
0.0
 40
5.0
 50
120.0
 51
135.0
210
0.0
220
0.0
230
1.0
  0
LINE
  8
0
 62
     7
 10
5.364014
 20
8.294646
 30
0.0
 11
10.65
 21
11.346512
 31
0.0
210
0.0
220
0.0
230
1.0
  0
LINE
  8
0
 62
     7
 10
12.65
 20
7.88241
 30
0.0
 11
10.65
 21
11.346512
 31
0.0
210
0.0
220
0.0
230
1.0
  0
LINE
  8
0
 62
     7
 10
7.364014
 20
4.830545
 30
0.0
 11
12.65
 21
7.88241
 31
0.0
210
0.0
220
0.0
230
1.0
  0
ARC
  8
0
 62
     7
 10
7.864014
 20
3.964519
 30
0.0
 40
1.0
 50
120.0
 51
135.0
210
0.0
220
0.0
230
1.0
  0
LINE
  8
0
 62
     7
 10
10.649869
 20
11.346582
 30
0.0
 11
13.990605
 21
9.544496
 31
0.0
210
0.0
220
0.0
230
1.0
  0
LINE
  8
0
 62
     7
 10
-10.64987
 20
11.346582
 30
0.0
 11
-13.990605
 21
9.544496
 31
0.0
210
0.0
220
0.0
230
1.0
  0
LINE
  8
0
 62
     7
 10
-12.649997
 20
7.882414
 30
0.0
 11
-12.706016
 21
7.813704
 31
0.0
210
0.0
220
0.0
230
1.0
  0
LINE
  8
0
 62
     7
 10
-7.2192
 20
4.5
 30
0.0
 11
-7.206361
 21
4.5
 31
0.0
210
0.0
220
0.0
230
1.0
  0
LINE
  8
0
 62
     7
 10
7.206134
 20
4.5
 30
0.0
 11
7.219093
 21
4.5
 31
0.0
210
0.0
220
0.0
230
1.0
  0
LINE
  8
0
 62
     7
 10
12.649997
 20
7.882414
 30
0.0
 11
12.706016
 21
7.813704
 31
0.0
210
0.0
220
0.0
230
1.0
  0
ARC
  8
0
 62
     7
 10
-9.81298
 20
0.078708
 30
0.0
 40
5.132445
 50
47.243133
 51
59.916019
210
0.0
220
0.0
230
1.0
  0
ARC
  8
0
 62
     7
 10
9.816637
 20
0.073505
 30
0.0
 40
5.138933
 50
120.382968
 51
132.751789
210
0.0
220
0.0
230
1.0
  0
ARC
  8
0
 62
     7
 10
11.1
 20
10.347148
 30
0.0
 40
3.0
 50
300.0
 51
360.0
210
0.0
220
0.0
230
1.0
  0
LINE
  8
0
 62
     7
 10
12.6
 20
7.749072
 30
0.0
 11
11.798288
 21
7.286203
 31
0.0
210
0.0
220
0.0
230
1.0
  0
LINE
  8
0
 62
     7
 10
10.676352
 20
6.638453
 30
0.0
 11
11.798288
 21
7.286203
 31
0.0
210
0.0
220
0.0
230
1.0
  0
LINE
  8
0
 62
     7
 10
10.676352
 20
6.638453
 30
0.0
 11
8.998288
 21
5.669623
 31
0.0
210
0.0
220
0.0
230
1.0
  0
LINE
  8
0
 62
     7
 10
7.323553
 20
4.604351
 30
0.0
 11
8.998288
 21
5.669623
 31
0.0
210
0.0
220
0.0
230
1.0
  0
LINE
  8
0
 62
     7
 10
7.323553
 20
4.604351
 30
0.0
 11
6.165685
 21
3.446483
 31
0.0
210
0.0
220
0.0
230
1.0
  0
LINE
  8
0
 62
     7
 10
5.493635
 20
2.774432
 30
0.0
 11
6.165685
 21
3.446483
 31
0.0
210
0.0
220
0.0
230
1.0
  0
LINE
  8
0
 62
     7
 10
-6.165685
 20
3.446483
 30
0.0
 11
-7.323553
 21
4.604351
 31
0.0
210
0.0
220
0.0
230
1.0
  0
LINE
  8
0
 62
     7
 10
-6.165685
 20
3.446483
 30
0.0
 11
-5.493635
 21
2.774432
 31
0.0
210
0.0
220
0.0
230
1.0
  0
ARC
  8
0
 62
     7
 10
-9.09132
 20
2.836584
 30
0.0
 40
2.5
 50
45.0
 51
60.0
210
0.0
220
0.0
230
1.0
  0
LINE
  8
0
 62
     7
 10
-8.998288
 20
5.669623
 30
0.0
 11
-7.84132
 21
5.001647
 31
0.0
210
0.0
220
0.0
230
1.0
  0
LINE
  8
0
 62
     7
 10
-8.998288
 20
5.669623
 30
0.0
 11
-10.676352
 21
6.638453
 31
0.0
210
0.0
220
0.0
230
1.0
  0
LINE
  8
0
 62
     7
 10
-11.798288
 20
7.286203
 30
0.0
 11
-10.676352
 21
6.638453
 31
0.0
210
0.0
220
0.0
230
1.0
  0
LINE
  8
0
 62
     7
 10
-11.798288
 20
7.286203
 30
0.0
 11
-12.6
 21
7.749072
 31
0.0
210
0.0
220
0.0
230
1.0
  0
ARC
  8
0
 62
     7
 10
-11.1
 20
10.347148
 30
0.0
 40
3.0
 50
180.0
 51
240.0
210
0.0
220
0.0
230
1.0
  0
LINE
  8
0
 62
     7
 10
14.1
 20
35.373185
 30
0.0
 11
14.1
 21
10.347148
 31
0.0
210
0.0
220
0.0
230
1.0
  0
LINE
  8
0
 62
     7
 10
-14.1
 20
10.347148
 30
0.0
 11
-14.1
 21
35.373185
 31
0.0
210
0.0
220
0.0
230
1.0
  0
ARC
  8
0
 62
     7
 10
5.6
 20
2.605061
 30
0.0
 40
0.2
 50
122.128916
 51
147.871083
210
0.0
220
0.0
230
1.0
  0
ARC
  8
0
 62
     7
 10
-5.6
 20
2.605061
 30
0.0
 40
0.2
 50
32.128916
 51
57.871085
210
0.0
220
0.0
230
1.0
  0
ARC
  8
0
 62
     7
 10
0.0
 20
6.473185
 30
0.0
 40
6.5
 50
301.552485
 51
315.0
210
0.0
220
0.0
230
1.0
  0
LINE
  8
0
 62
     7
 10
4.596194
 20
1.876991
 30
0.0
 11
5.430629
 21
2.711427
 31
0.0
210
0.0
220
0.0
230
1.0
  0
LINE
  8
0
 62
     7
 10
2.271859
 20
0.38314
 30
0.0
 11
3.401316
 21
0.934138
 31
0.0
210
0.0
220
0.0
230
1.0
  0
ARC
  8
0
 62
     7
 10
0.0
 20
6.473185
 30
0.0
 40
6.5
 50
275.206137
 51
290.457762
210
0.0
220
0.0
230
1.0
  0
LINE
  8
0
 62
     7
 10
-0.589805
 20
0.0
 30
0.0
 11
0.589805
 21
0.0
 31
0.0
210
0.0
220
0.0
230
1.0
  0
ARC
  8
0
 62
     7
 10
0.0
 20
6.473185
 30
0.0
 40
6.5
 50
249.542238
 51
264.793863
210
0.0
220
0.0
230
1.0
  0
LINE
  8
0
 62
     7
 10
-3.401316
 20
0.934138
 30
0.0
 11
-2.271859
 21
0.38314
 31
0.0
210
0.0
220
0.0
230
1.0
  0
ARC
  8
0
 62
     7
 10
0.0
 20
6.473185
 30
0.0
 40
6.5
 50
225.0
 51
238.447515
210
0.0
220
0.0
230
1.0
  0
LINE
  8
0
 62
     7
 10
-4.596194
 20
1.876991
 30
0.0
 11
-5.105025
 21
2.385823
 31
0.0
210
0.0
220
0.0
230
1.0
  0
LINE
  8
0
 62
     7
 10
-5.430629
 20
2.711427
 30
0.0
 11
-5.105025
 21
2.385823
 31
0.0
210
0.0
220
0.0
230
1.0
  0
LINE
  8
0
 62
     7
 10
-9.25
 20
47.773185
 30
0.0
 11
9.25
 21
47.773185
 31
0.0
210
0.0
220
0.0
230
1.0
  0
ARC
  8
0
 62
     7
 10
9.25
 20
41.773185
 30
0.0
 40
6.0
 50
54.34785
 51
90.0
210
0.0
220
0.0
230
1.0
  0
ARC
  8
0
 62
     7
 10
-9.25
 20
41.773185
 30
0.0
 40
6.0
 50
90.0
 51
125.65215
210
0.0
220
0.0
230
1.0
  0
LINE
  8
0
 62
     7
 10
12.747177
 20
46.648609
 30
0.0
 11
14.620059
 21
45.305177
 31
0.0
210
0.0
220
0.0
230
1.0
  0
LINE
  8
0
 62
     7
 10
-19.0
 20
7.505236
 30
0.0
 11
-19.0
 21
36.773185
 31
0.0
210
0.0
220
0.0
230
1.0
  0
ARC
  8
0
 62
     7
 10
-8.5
 20
36.773185
 30
0.0
 40
10.5
 50
125.65215
 51
180.0
210
0.0
220
0.0
230
1.0
  0
LINE
  8
0
 62
     7
 10
-14.62006
 20
45.305177
 30
0.0
 11
-12.747177
 21
46.648609
 31
0.0
210
0.0
220
0.0
230
1.0
  0
ARC
  8
0
 62
     7
 10
8.5
 20
36.773185
 30
0.0
 40
10.5
 50
0.0
 51
54.34785
210
0.0
220
0.0
230
1.0
  0
LINE
  8
0
 62
     7
 10
19.0
 20
36.773185
 30
0.0
 11
19.0
 21
7.505236
 31
0.0
210
0.0
220
0.0
230
1.0
  0
ARC
  8
0
 62
     7
 10
11.0
 20
7.505236
 30
0.0
 40
8.0
 50
300.0
 51
360.0
210
0.0
220
0.0
230
1.0
  0
LINE
  8
0
 62
     7
 10
15.0
 20
0.577033
 30
0.0
 11
6.0
 21
-4.619119
 31
0.0
210
0.0
220
0.0
230
1.0
  0
ARC
  8
0
 62
     7
 10
0.0
 20
5.773185
 30
0.0
 40
12.0
 50
240.0
 51
300.0
210
0.0
220
0.0
230
1.0
  0
LINE
  8
0
 62
     7
 10
-6.0
 20
-4.619119
 30
0.0
 11
-15.0
 21
0.577033
 31
0.0
210
0.0
220
0.0
230
1.0
  0
ARC
  8
0
 62
     7
 10
-11.0
 20
7.505236
 30
0.0
 40
8.0
 50
180.0
 51
240.0
210
0.0
220
0.0
230
1.0
  0
ARC
  8
0
 62
     7
 10
11.7
 20
35.373185
 30
0.0
 40
2.4
 50
0.0
 51
90.0
210
0.0
220
0.0
230
1.0
  0
LINE
  8
0
 62
     7
 10
11.7
 20
37.773185
 30
0.0
 11
-11.7
 21
37.773185
 31
0.0
210
0.0
220
0.0
230
1.0
  0
ARC
  8
0
 62
     7
 10
-11.7
 20
35.373185
 30
0.0
 40
2.4
 50
90.0
 51
180.0
210
0.0
220
0.0
230
1.0
  0
LINE
  8
0
 62
     7
 10
-7.5
 20
52.814891
 30
0.0
 11
0.0
 21
52.814891
 31
0.0
210
0.0
220
0.0
230
1.0
  0
LINE
  8
0
 62
     7
 10
0.0
 20
52.814891
 30
0.0
 11
7.5
 21
52.814891
 31
0.0
210
0.0
220
0.0
230
1.0
  0
LINE
  8
0
 62
     7
 10
8.0
 20
52.314891
 30
0.0
 11
7.5
 21
52.814891
 31
0.0
210
0.0
220
0.0
230
1.0
  0
LINE
  8
0
 62
     7
 10
-8.0
 20
52.314891
 30
0.0
 11
-7.5
 21
52.814891
 31
0.0
210
0.0
220
0.0
230
1.0
  0
LINE
  8
0
 62
     7
 10
-8.0
 20
52.314891
 30
0.0
 11
0.0
 21
52.314891
 31
0.0
210
0.0
220
0.0
230
1.0
  0
LINE
  8
0
 62
     7
 10
0.0
 20
52.314891
 30
0.0
 11
8.0
 21
52.314891
 31
0.0
210
0.0
220
0.0
230
1.0
  0
LINE
  8
0
 62
     7
 10
-8.0
 20
52.314891
 30
0.0
 11
-8.0
 21
47.773196
 31
0.0
210
0.0
220
0.0
230
1.0
  0
LINE
  8
0
 62
     7
 10
-8.0
 20
37.773196
 30
0.0
 11
-8.0
 21
28.466292
 31
0.0
210
0.0
220
0.0
230
1.0
  0
LINE
  8
0
 62
     7
 10
8.0
 20
52.314891
 30
0.0
 11
8.0
 21
47.773196
 31
0.0
210
0.0
220
0.0
230
1.0
  0
LINE
  8
0
 62
     7
 10
8.0
 20
37.773196
 30
0.0
 11
8.0
 21
28.466292
 31
0.0
210
0.0
220
0.0
230
1.0
  0
LINE
  8
0
 62
     7
 10
8.03
 20
28.466292
 30
0.0
 11
-7.046988
 21
28.466292
 31
0.0
210
0.0
220
0.0
230
1.0
  0
LINE
  8
0
 62
     7
 10
-7.046988
 20
28.466292
 30
0.0
 11
-8.03
 21
28.466292
 31
0.0
210
0.0
220
0.0
230
1.0
  0
ARC
  8
0
 62
     7
 10
0.0
 20
21.550888
 30
0.0
 40
4.335997
 50
270.0
 51
313.939903
210
0.0
220
0.0
230
1.0
  0
LINE
  8
0
 62
     7
 10
0.0
 20
18.428675
 30
0.0
 11
3.008763
 21
18.428675
 31
0.0
210
0.0
220
0.0
230
1.0
  0
ARC
  8
0
 62
     7
 10
0.0
 20
21.550888
 30
0.0
 40
4.335997
 50
226.060097
 51
270.0
210
0.0
220
0.0
230
1.0
  0
LINE
  8
0
 62
     7
 10
0.0
 20
18.428675
 30
0.0
 11
-2.640438
 21
18.428675
 31
0.0
210
0.0
220
0.0
230
1.0
  0
LINE
  8
0
 62
     7
 10
-3.008763
 20
18.428675
 30
0.0
 11
-2.640438
 21
18.428675
 31
0.0
210
0.0
220
0.0
230
1.0
  0
LINE
  8
0
 62
     7
 10
7.628994
 20
21.459951
 30
0.0
 11
-6.695072
 21
21.459951
 31
0.0
210
0.0
220
0.0
230
1.0
  0
LINE
  8
0
 62
     7
 10
-7.628994
 20
21.459951
 30
0.0
 11
-6.695072
 21
21.459951
 31
0.0
210
0.0
220
0.0
230
1.0
  0
LINE
  8
0
 62
     7
 10
-8.007008
 20
21.678198
 30
0.0
 11
-7.628994
 21
21.459951
 31
0.0
210
0.0
220
0.0
230
1.0
  0
LINE
  8
0
 62
     7
 10
8.007008
 20
21.678198
 30
0.0
 11
7.628994
 21
21.459951
 31
0.0
210
0.0
220
0.0
230
1.0
  0
LINE
  8
0
 62
     7
 10
-8.007008
 20
21.678198
 30
0.0
 11
8.007008
 21
21.678198
 31
0.0
210
0.0
220
0.0
230
1.0
  0
ARC
  8
0
 62
     7
 10
-9.507008
 20
19.080122
 30
0.0
 40
3.0
 50
60.0
 51
87.0
210
0.0
220
0.0
230
1.0
  0
ARC
  8
0
 62
     7
 10
9.507008
 20
19.080122
 30
0.0
 40
3.0
 50
93.0
 51
120.0
210
0.0
220
0.0
230
1.0
  0
LINE
  8
0
 62
     7
 10
-9.35
 20
22.07601
 30
0.0
 11
9.35
 21
22.07601
 31
0.0
210
0.0
220
0.0
230
1.0
  0
LINE
  8
0
 62
     7
 10
11.526168
 20
22.190059
 30
0.0
 11
9.35
 21
22.07601
 31
0.0
210
0.0
220
0.0
230
1.0
  0
LINE
  8
0
 62
     7
 10
-11.526168
 20
22.190059
 30
0.0
 11
-9.35
 21
22.07601
 31
0.0
210
0.0
220
0.0
230
1.0
  0
LINE
  8
0
 62
     7
 10
-11.525222
 20
22.190059
 30
0.0
 11
11.526168
 21
22.190059
 31
0.0
210
0.0
220
0.0
230
1.0
  0
ARC
  8
0
 62
     7
 10
-11.5
 20
22.689373
 30
0.0
 40
0.5
 50
180.0
 51
267.0
210
0.0
220
0.0
230
1.0
  0
ARC
  8
0
 62
     7
 10
11.5
 20
22.689373
 30
0.0
 40
0.5
 50
273.0
 51
360.0
210
0.0
220
0.0
230
1.0
  0
LINE
  8
0
 62
     7
 10
-11.999015
 20
22.689373
 30
0.0
 11
12.0
 21
22.689373
 31
0.0
210
0.0
220
0.0
230
1.0
  0
LINE
  8
0
 62
     7
 10
12.0
 20
23.914891
 30
0.0
 11
12.0
 21
22.689373
 31
0.0
210
0.0
220
0.0
230
1.0
  0
LINE
  8
0
 62
     7
 10
-12.0
 20
23.914891
 30
0.0
 11
-12.0
 21
22.689373
 31
0.0
210
0.0
220
0.0
230
1.0
  0
LINE
  8
0
 62
     7
 10
-11.998918
 20
23.914891
 30
0.0
 11
12.0
 21
23.914891
 31
0.0
210
0.0
220
0.0
230
1.0
  0
LINE
  8
0
 62
     7
 10
-12.0
 20
23.914891
 30
0.0
 11
-11.998918
 21
23.914891
 31
0.0
210
0.0
220
0.0
230
1.0
  0
ARC
  8
0
 62
     7
 10
-11.5
 20
23.914891
 30
0.0
 40
0.5
 50
90.0
 51
180.0
210
0.0
220
0.0
230
1.0
  0
ARC
  8
0
 62
     7
 10
11.5
 20
23.914891
 30
0.0
 40
0.5
 50
0.0
 51
90.0
210
0.0
220
0.0
230
1.0
  0
LINE
  8
0
 62
     7
 10
-11.498963
 20
24.414891
 30
0.0
 11
11.5
 21
24.414891
 31
0.0
210
0.0
220
0.0
230
1.0
  0
LINE
  8
0
 62
     7
 10
-11.5
 20
24.414891
 30
0.0
 11
-11.498963
 21
24.414891
 31
0.0
210
0.0
220
0.0
230
1.0
  0
LINE
  8
0
 62
     7
 10
8.03
 20
24.414891
 30
0.0
 11
8.03
 21
28.466292
 31
0.0
210
0.0
220
0.0
230
1.0
  0
LINE
  8
0
 62
     7
 10
-8.03
 20
24.414891
 30
0.0
 11
-8.03
 21
28.466292
 31
0.0
210
0.0
220
0.0
230
1.0
  0
LINE
  8
0
 62
     7
 10
3.008763
 20
18.428675
 30
0.0
 11
7.628994
 21
21.459951
 31
0.0
210
0.0
220
0.0
230
1.0
  0
LINE
  8
0
 62
     7
 10
-3.008763
 20
18.428675
 30
0.0
 11
-7.628994
 21
21.459951
 31
0.0
210
0.0
220
0.0
230
1.0
  0
ENDBLK
  8
0
  0
BLOCK
  8
0
  2
BLOCK193
 70
     0
 10
0.0
 20
0.0
 30
0.0
  3
BLOCK193
  0
LINE
  8
0
 62
     7
 10
11.389162
 20
7.146521
 30
0.0
 11
12.466404
 21
8.223763
 31
0.0
210
0.0
220
0.0
230
1.0
  0
LINE
  8
0
 62
     7
 10
8.07198
 20
5.243554
 30
0.0
 11
11.927936
 21
9.099508
 31
0.0
210
0.0
220
0.0
230
1.0
  0
LINE
  8
0
 62
     7
 10
1.685497
 20
0.271284
 30
0.0
 11
11.425158
 21
10.010943
 31
0.0
210
0.0
220
0.0
230
1.0
  0
LINE
  8
0
 62
     7
 10
-0.004953
 20
-0.004953
 30
0.0
 11
10.912404
 21
10.912404
 31
0.0
210
0.0
220
0.0
230
1.0
  0
LINE
  8
0
 62
     7
 10
-1.262464
 20
0.151749
 30
0.0
 11
8.924382
 21
10.338595
 31
0.0
210
0.0
220
0.0
230
1.0
  0
LINE
  8
0
 62
     7
 10
-2.338233
 20
0.490194
 30
0.0
 11
5.545815
 21
8.374242
 31
0.0
210
0.0
220
0.0
230
1.0
  0
LINE
  8
0
 62
     7
 10
-3.27584
 20
0.966801
 30
0.0
 11
-0.226808
 21
4.015832
 31
0.0
210
0.0
220
0.0
230
1.0
  0
LINE
  8
0
 62
     7
 10
-4.059931
 20
1.596923
 30
0.0
 11
-1.235264
 21
4.42159
 31
0.0
210
0.0
220
0.0
230
1.0
  0
LINE
  8
0
 62
     7
 10
-4.782617
 20
2.288451
 30
0.0
 11
-1.942598
 21
5.128469
 31
0.0
210
0.0
220
0.0
230
1.0
  0
LINE
  8
0
 62
     7
 10
-5.4746
 20
3.010681
 30
0.0
 11
-2.649933
 21
5.835349
 31
0.0
210
0.0
220
0.0
230
1.0
  0
LINE
  8
0
 62
     7
 10
-6.197286
 20
3.702209
 30
0.0
 11
-3.357267
 21
6.542228
 31
0.0
210
0.0
220
0.0
230
1.0
  0
LINE
  8
0
 62
     7
 10
-6.90462
 20
4.409088
 30
0.0
 11
-4.064601
 21
7.249107
 31
0.0
210
0.0
220
0.0
230
1.0
  0
LINE
  8
0
 62
     7
 10
-7.69922
 20
5.028702
 30
0.0
 11
-4.81799
 21
7.909932
 31
0.0
210
0.0
220
0.0
230
1.0
  0
LINE
  8
0
 62
     7
 10
-8.595615
 20
5.546521
 30
0.0
 11
-5.678839
 21
8.463296
 31
0.0
210
0.0
220
0.0
230
1.0
  0
LINE
  8
0
 62
     7
 10
-9.487166
 20
6.069182
 30
0.0
 11
-6.570391
 21
8.985958
 31
0.0
210
0.0
220
0.0
230
1.0
  0
LINE
  8
0
 62
     7
 10
-10.39407
 20
6.576493
 30
0.0
 11
-7.461943
 21
9.50862
 31
0.0
210
0.0
220
0.0
230
1.0
  0
LINE
  8
0
 62
     7
 10
-11.285622
 20
7.099154
 30
0.0
 11
-8.368846
 21
10.01593
 31
0.0
210
0.0
220
0.0
230
1.0
  0
LINE
  8
0
 62
     7
 10
-12.192525
 20
7.606465
 30
0.0
 11
-9.260398
 21
10.538592
 31
0.0
210
0.0
220
0.0
230
1.0
  0
LINE
  8
0
 62
     7
 10
-11.701572
 20
9.511631
 30
0.0
 11
-10.15195
 21
11.061254
 31
0.0
210
0.0
220
0.0
230
1.0
  0
ENDBLK
  8
0
  0
BLOCK
  8
0
  2
*D95
 70
    65
 10
0.0
 20
0.0
 30
0.0
  3
*D95
  0
SOLID
  8
0
 62
     7
 10
18.218435
 20
127.368515
 30
0.0
 11
18.610014
 21
124.394181
 31
0.0
 12
18.218435
 22
127.368515
 32
0.0
 13
19.001593
 23
127.368515
 33
0.0
  0
SOLID
  8
0
 62
     7
 10
19.001593
 20
113.389846
 30
0.0
 11
18.610014
 21
116.364181
 31
0.0
 12
19.001593
 22
113.389846
 32
0.0
 13
18.218435
 23
113.389846
 33
0.0
  0
TEXT
  8
0
 62
     7
 10
17.610014
 20
135.116559
 30
0.0
 40
2.5
  1
8
 50
90.000003
 72
     5
 11
17.610014
 21
137.285147
 31
0.0
  0
TEXT
  8
0
 62
     7
 10
17.610014
 20
129.279384
 30
0.0
 40
2.5
  1
SW
 50
90.000003
 72
     5
 11
17.610014
 21
134.116559
 31
0.0
  0
LINE
  8
0
 62
     7
 10
36.554132
 20
116.364181
 30
0.0
 11
16.610014
 21
116.364181
 31
0.0
210
0.0
220
0.0
230
1.0
  0
LINE
  8
0
 62
     7
 10
36.554132
 20
124.394181
 30
0.0
 11
16.610014
 21
124.394181
 31
0.0
210
0.0
220
0.0
230
1.0
  0
LINE
  8
0
 62
     7
 10
18.610014
 20
111.364181
 30
0.0
 11
18.610014
 21
113.389846
 31
0.0
210
0.0
220
0.0
230
1.0
  0
LINE
  8
0
 62
     7
 10
18.610014
 20
116.364181
 30
0.0
 11
18.610014
 21
124.394181
 31
0.0
210
0.0
220
0.0
230
1.0
  0
LINE
  8
0
 62
     7
 10
18.610014
 20
127.368515
 30
0.0
 11
18.610014
 21
137.285147
 31
0.0
210
0.0
220
0.0
230
1.0
  0
POLYLINE
  8
0
 62
     7
 66
     1
 10
0.0
 20
0.0
 30
0.0
 70
     1
 71
     3
  0
VERTEX
  8
0
 10
18.218435
 20
127.368515
 30
0.0
  0
VERTEX
  8
0
 10
18.610014
 20
124.394181
 30
0.0
  0
VERTEX
  8
0
 10
19.001593
 20
127.368515
 30
0.0
  0
SEQEND
  8
0
  0
POLYLINE
  8
0
 62
     7
 66
     1
 10
0.0
 20
0.0
 30
0.0
 70
     1
 71
     3
  0
VERTEX
  8
0
 10
19.001593
 20
113.389846
 30
0.0
  0
VERTEX
  8
0
 10
18.610014
 20
116.364181
 30
0.0
  0
VERTEX
  8
0
 10
18.218435
 20
113.389846
 30
0.0
  0
SEQEND
  8
0
  0
ENDBLK
  8
0
  0
BLOCK
  8
0
  2
*D96
 70
    65
 10
0.0
 20
0.0
 30
0.0
  3
*D96
  0
SOLID
  8
0
 62
     7
 10
113.504739
 20
124.404846
 30
0.0
 11
113.11316
 21
127.379181
 31
0.0
 12
113.504739
 22
124.404846
 32
0.0
 13
112.721581
 23
124.404846
 33
0.0
  0
SOLID
  8
0
 62
     7
 10
112.721581
 20
116.353516
 30
0.0
 11
113.11316
 21
113.379181
 31
0.0
 12
112.721581
 22
116.353516
 32
0.0
 13
113.504739
 23
116.353516
 33
0.0
  0
TEXT
  8
0
 62
     7
 10
112.11316
 20
117.960593
 30
0.0
 40
2.5
  1
14
 50
90.000003
 72
     5
 11
112.11316
 21
122.797769
 31
0.0
  0
LINE
  8
0
 62
     7
 10
86.872193
 20
113.379181
 30
0.0
 11
115.11316
 21
113.379181
 31
0.0
210
0.0
220
0.0
230
1.0
  0
LINE
  8
0
 62
     7
 10
86.872193
 20
127.379181
 30
0.0
 11
115.11316
 21
127.379181
 31
0.0
210
0.0
220
0.0
230
1.0
  0
LINE
  8
0
 62
     7
 10
113.11316
 20
116.353516
 30
0.0
 11
113.11316
 21
124.404846
 31
0.0
210
0.0
220
0.0
230
1.0
  0
POLYLINE
  8
0
 62
     7
 66
     1
 10
0.0
 20
0.0
 30
0.0
 70
     1
 71
     3
  0
VERTEX
  8
0
 10
113.504739
 20
124.404846
 30
0.0
  0
VERTEX
  8
0
 10
113.11316
 20
127.379181
 30
0.0
  0
VERTEX
  8
0
 10
112.721581
 20
124.404846
 30
0.0
  0
SEQEND
  8
0
  0
POLYLINE
  8
0
 62
     7
 66
     1
 10
0.0
 20
0.0
 30
0.0
 70
     1
 71
     3
  0
VERTEX
  8
0
 10
112.721581
 20
116.353516
 30
0.0
  0
VERTEX
  8
0
 10
113.11316
 20
113.379181
 30
0.0
  0
VERTEX
  8
0
 10
113.504739
 20
116.353516
 30
0.0
  0
SEQEND
  8
0
  0
ENDBLK
  8
0
  0
BLOCK
  8
0
  2
*D97
 70
    65
 10
0.0
 20
0.0
 30
0.0
  3
*D97
  0
SOLID
  8
0
 62
     7
 10
120.583978
 20
132.404846
 30
0.0
 11
120.192399
 21
135.379181
 31
0.0
 12
120.583978
 22
132.404846
 32
0.0
 13
119.80082
 23
132.404846
 33
0.0
  0
SOLID
  8
0
 62
     7
 10
119.80082
 20
108.353516
 30
0.0
 11
120.192399
 21
105.379181
 31
0.0
 12
119.80082
 22
108.353516
 32
0.0
 13
120.583978
 23
108.353516
 33
0.0
  0
TEXT
  8
0
 62
     7
 10
119.192399
 20
117.960593
 30
0.0
 40
2.5
  1
30
 50
90.000003
 72
     5
 11
119.192399
 21
122.797769
 31
0.0
  0
LINE
  8
0
 62
     7
 10
101.872193
 20
105.379181
 30
0.0
 11
122.192399
 21
105.379181
 31
0.0
210
0.0
220
0.0
230
1.0
  0
LINE
  8
0
 62
     7
 10
101.872193
 20
135.379181
 30
0.0
 11
122.192399
 21
135.379181
 31
0.0
210
0.0
220
0.0
230
1.0
  0
LINE
  8
0
 62
     7
 10
120.192399
 20
108.353516
 30
0.0
 11
120.192399
 21
132.404846
 31
0.0
210
0.0
220
0.0
230
1.0
  0
POLYLINE
  8
0
 62
     7
 66
     1
 10
0.0
 20
0.0
 30
0.0
 70
     1
 71
     3
  0
VERTEX
  8
0
 10
120.583978
 20
132.404846
 30
0.0
  0
VERTEX
  8
0
 10
120.192399
 20
135.379181
 30
0.0
  0
VERTEX
  8
0
 10
119.80082
 20
132.404846
 30
0.0
  0
SEQEND
  8
0
  0
POLYLINE
  8
0
 62
     7
 66
     1
 10
0.0
 20
0.0
 30
0.0
 70
     1
 71
     3
  0
VERTEX
  8
0
 10
119.80082
 20
108.353516
 30
0.0
  0
VERTEX
  8
0
 10
120.192399
 20
105.379181
 30
0.0
  0
VERTEX
  8
0
 10
120.583978
 20
108.353516
 30
0.0
  0
SEQEND
  8
0
  0
ENDBLK
  8
0
  0
BLOCK
  8
0
  2
*D98
 70
    65
 10
0.0
 20
0.0
 30
0.0
  3
*D98
  0
SOLID
  8
0
 62
     7
 10
78.897859
 20
140.501078
 30
0.0
 11
81.872193
 21
140.892656
 31
0.0
 12
78.897859
 22
140.501078
 32
0.0
 13
78.897859
 23
141.284235
 33
0.0
  0
SOLID
  8
0
 62
     7
 10
89.846528
 20
141.284235
 30
0.0
 11
86.872193
 21
140.892656
 31
0.0
 12
89.846528
 22
141.284235
 32
0.0
 13
89.846528
 23
140.501078
 33
0.0
  0
TEXT
  8
0
 62
     7
 10
83.276448
 20
141.892656
 30
0.0
 40
2.5
  1
5
 72
     5
 11
85.445035
 21
141.892656
 31
0.0
  0
LINE
  8
0
 62
     7
 10
81.872193
 20
128.495972
 30
0.0
 11
81.872193
 21
142.892656
 31
0.0
210
0.0
220
0.0
230
1.0
  0
LINE
  8
0
 62
     7
 10
86.872193
 20
128.495972
 30
0.0
 11
86.872193
 21
142.892656
 31
0.0
210
0.0
220
0.0
230
1.0
  0
LINE
  8
0
 62
     7
 10
76.872193
 20
140.892656
 30
0.0
 11
78.897859
 21
140.892656
 31
0.0
210
0.0
220
0.0
230
1.0
  0
LINE
  8
0
 62
     7
 10
81.872193
 20
140.892656
 30
0.0
 11
86.872193
 21
140.892656
 31
0.0
210
0.0
220
0.0
230
1.0
  0
LINE
  8
0
 62
     7
 10
89.846528
 20
140.892656
 30
0.0
 11
91.872193
 21
140.892656
 31
0.0
210
0.0
220
0.0
230
1.0
  0
POLYLINE
  8
0
 62
     7
 66
     1
 10
0.0
 20
0.0
 30
0.0
 70
     1
 71
     3
  0
VERTEX
  8
0
 10
78.897859
 20
140.501078
 30
0.0
  0
VERTEX
  8
0
 10
81.872193
 20
140.892656
 30
0.0
  0
VERTEX
  8
0
 10
78.897859
 20
141.284235
 30
0.0
  0
SEQEND
  8
0
  0
POLYLINE
  8
0
 62
     7
 66
     1
 10
0.0
 20
0.0
 30
0.0
 70
     1
 71
     3
  0
VERTEX
  8
0
 10
89.846528
 20
141.284235
 30
0.0
  0
VERTEX
  8
0
 10
86.872193
 20
140.892656
 30
0.0
  0
VERTEX
  8
0
 10
89.846528
 20
140.501078
 30
0.0
  0
SEQEND
  8
0
  0
ENDBLK
  8
0
  0
BLOCK
  8
0
  2
*D99
 70
    65
 10
0.0
 20
0.0
 30
0.0
  3
*D99
  0
SOLID
  8
0
 62
     7
 10
103.397859
 20
147.026499
 30
0.0
 11
106.372193
 21
147.418077
 31
0.0
 12
103.397859
 22
147.026499
 32
0.0
 13
103.397859
 23
147.809656
 33
0.0
  0
SOLID
  8
0
 62
     7
 10
84.846528
 20
147.809656
 30
0.0
 11
81.872193
 21
147.418077
 31
0.0
 12
84.846528
 22
147.809656
 32
0.0
 13
84.846528
 23
147.026499
 33
0.0
  0
TEXT
  8
0
 62
     7
 10
89.03502
 20
148.418077
 30
0.0
 40
2.5
  1
24.5
 72
     5
 11
99.209367
 21
148.418077
 31
0.0
  0
LINE
  8
0
 62
     7
 10
81.872193
 20
128.495972
 30
0.0
 11
81.872193
 21
149.418077
 31
0.0
210
0.0
220
0.0
230
1.0
  0
LINE
  8
0
 62
     7
 10
106.372193
 20
135.379181
 30
0.0
 11
106.372193
 21
149.418077
 31
0.0
210
0.0
220
0.0
230
1.0
  0
LINE
  8
0
 62
     7
 10
84.846528
 20
147.418077
 30
0.0
 11
103.397859
 21
147.418077
 31
0.0
210
0.0
220
0.0
230
1.0
  0
POLYLINE
  8
0
 62
     7
 66
     1
 10
0.0
 20
0.0
 30
0.0
 70
     1
 71
     3
  0
VERTEX
  8
0
 10
103.397859
 20
147.026499
 30
0.0
  0
VERTEX
  8
0
 10
106.372193
 20
147.418077
 30
0.0
  0
VERTEX
  8
0
 10
103.397859
 20
147.809656
 30
0.0
  0
SEQEND
  8
0
  0
POLYLINE
  8
0
 62
     7
 66
     1
 10
0.0
 20
0.0
 30
0.0
 70
     1
 71
     3
  0
VERTEX
  8
0
 10
84.846528
 20
147.809656
 30
0.0
  0
VERTEX
  8
0
 10
81.872193
 20
147.418077
 30
0.0
  0
VERTEX
  8
0
 10
84.846528
 20
147.026499
 30
0.0
  0
SEQEND
  8
0
  0
ENDBLK
  8
0
  0
BLOCK
  8
0
  2
BLOCK194
 70
     0
 10
0.0
 20
0.0
 30
0.0
  3
BLOCK194
  0
LINE
  8
0
  6
DASHDOT
 62
     7
 10
70.116791
 20
0.0
 30
0.0
 11
53.883209
 21
0.0
 31
0.0
210
0.0
220
0.0
230
1.0
  0
LINE
  8
0
  6
DASHDOT
 62
     7
 10
62.0
 20
8.116791
 30
0.0
 11
62.0
 21
-8.116791
 31
0.0
210
0.0
220
0.0
230
1.0
  0
ENDBLK
  8
0
  0
BLOCK
  8
0
  2
BLOCK195
 70
     0
 10
0.0
 20
0.0
 30
0.0
  3
BLOCK195
  0
LINE
  8
0
  6
DASHDOT
 62
     7
 10
65.116791
 20
0.0
 30
0.0
 11
48.883209
 21
0.0
 31
0.0
210
0.0
220
0.0
230
1.0
  0
LINE
  8
0
  6
DASHDOT
 62
     7
 10
57.0
 20
8.116791
 30
0.0
 11
57.0
 21
-8.116791
 31
0.0
210
0.0
220
0.0
230
1.0
  0
ENDBLK
  8
0
  0
BLOCK
  8
0
  2
BLOCK196
 70
     0
 10
0.0
 20
0.0
 30
0.0
  3
BLOCK196
  0
LINE
  8
0
  6
DASHDOT
 62
     7
 10
23.863525
 20
0.0
 30
0.0
 11
4.136475
 21
0.0
 31
0.0
210
0.0
220
0.0
230
1.0
  0
LINE
  8
0
  6
DASHDOT
 62
     7
 10
14.0
 20
9.863525
 30
0.0
 11
14.0
 21
-9.863525
 31
0.0
210
0.0
220
0.0
230
1.0
  0
ENDBLK
  8
0
  0
BLOCK
  8
0
  2
BLOCK197
 70
     0
 10
0.0
 20
0.0
 30
0.0
  3
BLOCK197
  0
CIRCLE
  8
0
 62
     7
 10
37.0
 20
0.0
 30
0.0
 40
1.85
210
0.0
220
0.0
230
1.0
  0
LINE
  8
0
 62
     7
 10
38.774951
 20
-0.3
 30
0.0
 11
37.974951
 21
-0.3
 31
0.0
210
0.0
220
0.0
230
1.0
  0
LINE
  8
0
 62
     7
 10
37.974951
 20
-0.3
 30
0.0
 11
38.564804
 21
-0.889853
 31
0.0
210
0.0
220
0.0
230
1.0
  0
LINE
  8
0
 62
     7
 10
38.564804
 20
-0.889853
 30
0.0
 11
36.089767
 21
-1.553037
 31
0.0
210
0.0
220
0.0
230
1.0
  0
LINE
  8
0
 62
     7
 10
36.089767
 20
-1.553037
 30
0.0
 11
35.556024
 21
-1.074888
 31
0.0
210
0.0
220
0.0
230
1.0
  0
LINE
  8
0
 62
     7
 10
35.556024
 20
-1.074888
 30
0.0
 11
37.405693
 21
-0.57927
 31
0.0
210
0.0
220
0.0
230
1.0
  0
LINE
  8
0
 62
     7
 10
37.405693
 20
-0.57927
 30
0.0
 11
37.126423
 21
-0.3
 31
0.0
210
0.0
220
0.0
230
1.0
  0
LINE
  8
0
 62
     7
 10
37.126423
 20
-0.3
 30
0.0
 11
35.225049
 21
-0.3
 31
0.0
210
0.0
220
0.0
230
1.0
  0
LINE
  8
0
 62
     7
 10
35.225049
 20
-0.3
 30
0.0
 11
35.225049
 21
0.0
 31
0.0
210
0.0
220
0.0
230
1.0
  0
LINE
  8
0
 62
     7
 10
35.225049
 20
0.3
 30
0.0
 11
35.225049
 21
0.0
 31
0.0
210
0.0
220
0.0
230
1.0
  0
LINE
  8
0
 62
     7
 10
37.126423
 20
0.3
 30
0.0
 11
35.225049
 21
0.3
 31
0.0
210
0.0
220
0.0
230
1.0
  0
LINE
  8
0
 62
     7
 10
37.405693
 20
0.57927
 30
0.0
 11
37.126423
 21
0.3
 31
0.0
210
0.0
220
0.0
230
1.0
  0
LINE
  8
0
 62
     7
 10
35.556024
 20
1.074888
 30
0.0
 11
37.405693
 21
0.57927
 31
0.0
210
0.0
220
0.0
230
1.0
  0
LINE
  8
0
 62
     7
 10
36.089767
 20
1.553037
 30
0.0
 11
35.556024
 21
1.074888
 31
0.0
210
0.0
220
0.0
230
1.0
  0
LINE
  8
0
 62
     7
 10
38.564804
 20
0.889853
 30
0.0
 11
36.089767
 21
1.553037
 31
0.0
210
0.0
220
0.0
230
1.0
  0
LINE
  8
0
 62
     7
 10
37.974951
 20
0.3
 30
0.0
 11
38.564804
 21
0.889853
 31
0.0
210
0.0
220
0.0
230
1.0
  0
LINE
  8
0
 62
     7
 10
38.774951
 20
0.3
 30
0.0
 11
37.974951
 21
0.3
 31
0.0
210
0.0
220
0.0
230
1.0
  0
LINE
  8
0
 62
     7
 10
38.774951
 20
-0.3
 30
0.0
 11
38.774951
 21
0.3
 31
0.0
210
0.0
220
0.0
230
1.0
  0
LINE
  8
0
 62
     7
 10
33.0
 20
15.0
 30
0.0
 11
77.0
 21
15.0
 31
0.0
210
0.0
220
0.0
230
1.0
  0
LINE
  8
0
 62
     7
 10
33.0
 20
15.0
 30
0.0
 11
33.0
 21
-15.0
 31
0.0
210
0.0
220
0.0
230
1.0
  0
LINE
  8
0
 62
     7
 10
33.0
 20
-15.0
 30
0.0
 11
77.0
 21
-15.0
 31
0.0
210
0.0
220
0.0
230
1.0
  0
LINE
  8
0
 62
     7
 10
77.0
 20
-15.0
 30
0.0
 11
77.0
 21
15.0
 31
0.0
210
0.0
220
0.0
230
1.0
  0
ARC
  8
0
 62
     7
 10
57.0
 20
0.0
 30
0.0
 40
7.0
 50
90.0
 51
270.0
210
0.0
220
0.0
230
1.0
  0
LINE
  8
0
 62
     7
 10
62.0
 20
7.0
 30
0.0
 11
57.0
 21
7.0
 31
0.0
210
0.0
220
0.0
230
1.0
  0
ARC
  8
0
 62
     7
 10
62.0
 20
0.0
 30
0.0
 40
7.0
 50
270.0
 51
450.0
210
0.0
220
0.0
230
1.0
  0
LINE
  8
0
 62
     7
 10
62.0
 20
-7.0
 30
0.0
 11
57.0
 21
-7.0
 31
0.0
210
0.0
220
0.0
230
1.0
  0
CIRCLE
  8
0
 62
     7
 10
37.0
 20
0.0
 30
0.0
 40
2.5
210
0.0
220
0.0
230
1.0
  0
LINE
  8
0
 62
     7
 10
77.0
 20
-15.0
 30
0.0
 11
81.5
 21
-15.0
 31
0.0
210
0.0
220
0.0
230
1.0
  0
LINE
  8
0
 62
     7
 10
81.5
 20
-15.0
 30
0.0
 11
81.5
 21
15.0
 31
0.0
210
0.0
220
0.0
230
1.0
  0
LINE
  8
0
 62
     7
 10
77.0
 20
15.0
 30
0.0
 11
81.5
 21
15.0
 31
0.0
210
0.0
220
0.0
230
1.0
  0
POLYLINE
  8
0
 62
     7
 66
     1
 10
0.0
 20
0.0
 30
0.0
 71
    23
  0
VERTEX
  8
0
 10
28.000029
 20
13.723949
 30
0.0
  0
VERTEX
  8
0
 10
28.380207
 20
13.878882
 30
0.0
  0
VERTEX
  8
0
 10
28.760477
 20
14.03276
 30
0.0
  0
VERTEX
  8
0
 10
29.096718
 20
14.165391
 30
0.0
  0
VERTEX
  8
0
 10
29.434692
 20
14.293333
 30
0.0
  0
VERTEX
  8
0
 10
29.618505
 20
14.359994
 30
0.0
  0
VERTEX
  8
0
 10
29.803175
 20
14.424547
 30
0.0
  0
VERTEX
  8
0
 10
29.983751
 20
14.485092
 30
0.0
  0
VERTEX
  8
0
 10
30.165333
 20
14.543199
 30
0.0
  0
VERTEX
  8
0
 10
30.412561
 20
14.617514
 30
0.0
  0
VERTEX
  8
0
 10
30.661924
 20
14.686505
 30
0.0
  0
VERTEX
  8
0
 10
30.913515
 20
14.74971
 30
0.0
  0
VERTEX
  8
0
 10
31.167362
 20
14.806691
 30
0.0
  0
VERTEX
  8
0
 10
31.423416
 20
14.857037
 30
0.0
  0
VERTEX
  8
0
 10
31.68154
 20
14.900361
 30
0.0
  0
VERTEX
  8
0
 10
31.9415
 20
14.936306
 30
0.0
  0
VERTEX
  8
0
 10
32.07338
 20
14.951547
 30
0.0
  0
VERTEX
  8
0
 10
32.205589
 20
14.96478
 30
0.0
  0
VERTEX
  8
0
 10
32.335426
 20
14.975764
 30
0.0
  0
VERTEX
  8
0
 10
32.46545
 20
14.984748
 30
0.0
  0
VERTEX
  8
0
 10
32.643623
 20
14.993742
 30
0.0
  0
VERTEX
  8
0
 10
32.821877
 20
14.998851
 30
0.0
  0
VERTEX
  8
0
 10
33.0
 20
15.0
 30
0.0
  0
SEQEND
  8
0
  0
POLYLINE
  8
0
 62
     7
 66
     1
 10
0.0
 20
0.0
 30
0.0
 71
    28
  0
VERTEX
  8
0
 10
28.000086
 20
12.629209
 30
0.0
  0
VERTEX
  8
0
 10
28.274338
 20
12.844747
 30
0.0
  0
VERTEX
  8
0
 10
28.54892
 20
13.060252
 30
0.0
  0
VERTEX
  8
0
 10
28.873243
 20
13.31056
 30
0.0
  0
VERTEX
  8
0
 10
29.03684
 20
13.433764
 30
0.0
  0
VERTEX
  8
0
 10
29.301661
 20
13.627179
 30
0.0
  0
VERTEX
  8
0
 10
29.435526
 20
13.7216
 30
0.0
  0
VERTEX
  8
0
 10
29.570484
 20
13.814217
 30
0.0
  0
VERTEX
  8
0
 10
29.752266
 20
13.934536
 30
0.0
  0
VERTEX
  8
0
 10
29.936296
 20
14.050778
 30
0.0
  0
VERTEX
  8
0
 10
30.122717
 20
14.162452
 30
0.0
  0
VERTEX
  8
0
 10
30.335426
 20
14.28202
 30
0.0
  0
VERTEX
  8
0
 10
30.443001
 20
14.339193
 30
0.0
  0
VERTEX
  8
0
 10
30.551395
 20
14.394514
 30
0.0
  0
VERTEX
  8
0
 10
30.69721
 20
14.465255
 30
0.0
  0
VERTEX
  8
0
 10
30.84449
 20
14.532368
 30
0.0
  0
VERTEX
  8
0
 10
30.993225
 20
14.595669
 30
0.0
  0
VERTEX
  8
0
 10
31.173586
 20
14.666347
 30
0.0
  0
VERTEX
  8
0
 10
31.355927
 20
14.730979
 30
0.0
  0
VERTEX
  8
0
 10
31.540144
 20
14.789282
 30
0.0
  0
VERTEX
  8
0
 10
31.72611
 20
14.840988
 30
0.0
  0
VERTEX
  8
0
 10
31.913658
 20
14.885845
 30
0.0
  0
VERTEX
  8
0
 10
32.092808
 20
14.921842
 30
0.0
  0
VERTEX
  8
0
 10
32.273163
 20
14.95129
 30
0.0
  0
VERTEX
  8
0
 10
32.454456
 20
14.974005
 30
0.0
  0
VERTEX
  8
0
 10
32.636299
 20
14.989803
 30
0.0
  0
VERTEX
  8
0
 10
32.818264
 20
14.998516
 30
0.0
  0
VERTEX
  8
0
 10
33.0
 20
15.0
 30
0.0
  0
SEQEND
  8
0
  0
POLYLINE
  8
0
 62
     7
 66
     1
 10
0.0
 20
0.0
 30
0.0
 71
    28
  0
VERTEX
  8
0
 10
28.000082
 20
-12.629207
 30
0.0
  0
VERTEX
  8
0
 10
28.274332
 20
-12.844743
 30
0.0
  0
VERTEX
  8
0
 10
28.548912
 20
-13.060247
 30
0.0
  0
VERTEX
  8
0
 10
28.87324
 20
-13.310557
 30
0.0
  0
VERTEX
  8
0
 10
29.036839
 20
-13.433762
 30
0.0
  0
VERTEX
  8
0
 10
29.301659
 20
-13.627177
 30
0.0
  0
VERTEX
  8
0
 10
29.435524
 20
-13.721599
 30
0.0
  0
VERTEX
  8
0
 10
29.570482
 20
-13.814215
 30
0.0
  0
VERTEX
  8
0
 10
29.752262
 20
-13.934534
 30
0.0
  0
VERTEX
  8
0
 10
29.936295
 20
-14.050776
 30
0.0
  0
VERTEX
  8
0
 10
30.122715
 20
-14.162451
 30
0.0
  0
VERTEX
  8
0
 10
30.335424
 20
-14.282019
 30
0.0
  0
VERTEX
  8
0
 10
30.442999
 20
-14.339192
 30
0.0
  0
VERTEX
  8
0
 10
30.551394
 20
-14.394514
 30
0.0
  0
VERTEX
  8
0
 10
30.697208
 20
-14.465254
 30
0.0
  0
VERTEX
  8
0
 10
30.84449
 20
-14.532367
 30
0.0
  0
VERTEX
  8
0
 10
30.993223
 20
-14.595668
 30
0.0
  0
VERTEX
  8
0
 10
31.173584
 20
-14.666346
 30
0.0
  0
VERTEX
  8
0
 10
31.355925
 20
-14.730978
 30
0.0
  0
VERTEX
  8
0
 10
31.540144
 20
-14.789282
 30
0.0
  0
VERTEX
  8
0
 10
31.726109
 20
-14.840988
 30
0.0
  0
VERTEX
  8
0
 10
31.913658
 20
-14.885845
 30
0.0
  0
VERTEX
  8
0
 10
32.092808
 20
-14.921842
 30
0.0
  0
VERTEX
  8
0
 10
32.273159
 20
-14.95129
 30
0.0
  0
VERTEX
  8
0
 10
32.454456
 20
-14.974005
 30
0.0
  0
VERTEX
  8
0
 10
32.636299
 20
-14.989803
 30
0.0
  0
VERTEX
  8
0
 10
32.818264
 20
-14.998516
 30
0.0
  0
VERTEX
  8
0
 10
33.0
 20
-15.0
 30
0.0
  0
SEQEND
  8
0
  0
POLYLINE
  8
0
 62
     7
 66
     1
 10
0.0
 20
0.0
 30
0.0
 71
    23
  0
VERTEX
  8
0
 10
28.000029
 20
-13.723949
 30
0.0
  0
VERTEX
  8
0
 10
28.380207
 20
-13.878882
 30
0.0
  0
VERTEX
  8
0
 10
28.760477
 20
-14.03276
 30
0.0
  0
VERTEX
  8
0
 10
29.096718
 20
-14.165391
 30
0.0
  0
VERTEX
  8
0
 10
29.434692
 20
-14.293333
 30
0.0
  0
VERTEX
  8
0
 10
29.618505
 20
-14.359994
 30
0.0
  0
VERTEX
  8
0
 10
29.803175
 20
-14.424547
 30
0.0
  0
VERTEX
  8
0
 10
29.983751
 20
-14.485092
 30
0.0
  0
VERTEX
  8
0
 10
30.165333
 20
-14.543199
 30
0.0
  0
VERTEX
  8
0
 10
30.412561
 20
-14.617514
 30
0.0
  0
VERTEX
  8
0
 10
30.661924
 20
-14.686505
 30
0.0
  0
VERTEX
  8
0
 10
30.913515
 20
-14.74971
 30
0.0
  0
VERTEX
  8
0
 10
31.167362
 20
-14.806691
 30
0.0
  0
VERTEX
  8
0
 10
31.423416
 20
-14.857037
 30
0.0
  0
VERTEX
  8
0
 10
31.68154
 20
-14.900361
 30
0.0
  0
VERTEX
  8
0
 10
31.9415
 20
-14.936306
 30
0.0
  0
VERTEX
  8
0
 10
32.07338
 20
-14.951547
 30
0.0
  0
VERTEX
  8
0
 10
32.205589
 20
-14.96478
 30
0.0
  0
VERTEX
  8
0
 10
32.335426
 20
-14.975764
 30
0.0
  0
VERTEX
  8
0
 10
32.46545
 20
-14.984748
 30
0.0
  0
VERTEX
  8
0
 10
32.643623
 20
-14.993742
 30
0.0
  0
VERTEX
  8
0
 10
32.821877
 20
-14.998851
 30
0.0
  0
VERTEX
  8
0
 10
33.0
 20
-15.0
 30
0.0
  0
SEQEND
  8
0
  0
LINE
  8
0
 62
     7
 10
0.0
 20
12.65
 30
0.0
 11
0.0
 21
10.65
 31
0.0
210
0.0
220
0.0
230
1.0
  0
LINE
  8
0
 62
     7
 10
0.0
 20
5.364014
 30
0.0
 11
0.0
 21
10.65
 31
0.0
210
0.0
220
0.0
230
1.0
  0
LINE
  8
0
 62
     7
 10
0.0
 20
5.364014
 30
0.0
 11
0.0
 21
4.328481
 31
0.0
210
0.0
220
0.0
230
1.0
  0
LINE
  8
0
 62
     7
 10
0.0
 20
1.414214
 30
0.0
 11
0.0
 21
4.328481
 31
0.0
210
0.0
220
0.0
230
1.0
  0
LINE
  8
0
 62
     7
 10
0.0
 20
1.414214
 30
0.0
 11
0.0
 21
0.0
 31
0.0
210
0.0
220
0.0
230
1.0
  0
LINE
  8
0
 62
     7
 10
0.0
 20
0.0
 30
0.0
 11
0.0
 21
-1.414214
 31
0.0
210
0.0
220
0.0
230
1.0
  0
LINE
  8
0
 62
     7
 10
0.0
 20
-1.414214
 30
0.0
 11
0.0
 21
-4.328481
 31
0.0
210
0.0
220
0.0
230
1.0
  0
LINE
  8
0
 62
     7
 10
0.0
 20
-4.328481
 30
0.0
 11
0.0
 21
-5.364014
 31
0.0
210
0.0
220
0.0
230
1.0
  0
LINE
  8
0
 62
     7
 10
0.0
 20
-5.364014
 30
0.0
 11
0.0
 21
-10.65
 31
0.0
210
0.0
220
0.0
230
1.0
  0
LINE
  8
0
 62
     7
 10
0.0
 20
-12.65
 30
0.0
 11
0.0
 21
-10.65
 31
0.0
210
0.0
220
0.0
230
1.0
  0
CIRCLE
  8
0
 62
     7
 10
37.0
 20
0.0
 30
0.0
 40
2.0
210
0.0
220
0.0
230
1.0
  0
CIRCLE
  8
0
 62
     7
 10
37.0
 20
0.0
 30
0.0
 40
1.9
210
0.0
220
0.0
230
1.0
  0
CIRCLE
  8
0
 62
     7
 10
14.0
 20
0.0
 30
0.0
 40
8.25
210
0.0
220
0.0
230
1.0
  0
ARC
  8
0
 62
     7
 10
14.0
 20
0.0
 30
0.0
 40
7.5
 50
270.0
 51
450.0
210
0.0
220
0.0
230
1.0
  0
LINE
  8
0
 62
     7
 10
0.0
 20
-9.25
 30
0.0
 11
28.0
 21
-9.25
 31
0.0
210
0.0
220
0.0
230
1.0
  0
LINE
  8
0
 62
     7
 10
28.0
 20
9.25
 30
0.0
 11
28.0
 21
-9.25
 31
0.0
210
0.0
220
0.0
230
1.0
  0
LINE
  8
0
 62
     7
 10
0.0
 20
9.25
 30
0.0
 11
28.0
 21
9.25
 31
0.0
210
0.0
220
0.0
230
1.0
  0
LINE
  8
0
 62
     7
 10
0.0
 20
9.25
 30
0.0
 11
0.0
 21
-9.25
 31
0.0
210
0.0
220
0.0
230
1.0
  0
LINE
  8
0
 62
     7
 10
0.0
 20
-12.747177
 30
0.0
 11
28.0
 21
-12.747177
 31
0.0
210
0.0
220
0.0
230
1.0
  0
LINE
  8
0
 62
     7
 10
28.0
 20
-12.747177
 30
0.0
 11
28.0
 21
-9.25
 31
0.0
210
0.0
220
0.0
230
1.0
  0
LINE
  8
0
 62
     7
 10
0.0
 20
-9.25
 30
0.0
 11
0.0
 21
-12.747177
 31
0.0
210
0.0
220
0.0
230
1.0
  0
LINE
  8
0
 62
     7
 10
28.0
 20
9.25
 30
0.0
 11
28.0
 21
12.747177
 31
0.0
210
0.0
220
0.0
230
1.0
  0
LINE
  8
0
 62
     7
 10
0.0
 20
12.747177
 30
0.0
 11
28.0
 21
12.747177
 31
0.0
210
0.0
220
0.0
230
1.0
  0
LINE
  8
0
 62
     7
 10
0.0
 20
12.747177
 30
0.0
 11
0.0
 21
9.25
 31
0.0
210
0.0
220
0.0
230
1.0
  0
LINE
  8
0
 62
     7
 10
0.0
 20
-14.620059
 30
0.0
 11
28.0
 21
-14.620059
 31
0.0
210
0.0
220
0.0
230
1.0
  0
LINE
  8
0
 62
     7
 10
28.0
 20
-12.747177
 30
0.0
 11
28.0
 21
-14.620059
 31
0.0
210
0.0
220
0.0
230
1.0
  0
LINE
  8
0
 62
     7
 10
0.0
 20
-12.747177
 30
0.0
 11
0.0
 21
-14.620059
 31
0.0
210
0.0
220
0.0
230
1.0
  0
LINE
  8
0
 62
     7
 10
0.0
 20
19.0
 30
0.0
 11
28.0
 21
19.0
 31
0.0
210
0.0
220
0.0
230
1.0
  0
LINE
  8
0
 62
     7
 10
0.0
 20
14.62006
 30
0.0
 11
28.0
 21
14.62006
 31
0.0
210
0.0
220
0.0
230
1.0
  0
LINE
  8
0
 62
     7
 10
28.0
 20
14.62006
 30
0.0
 11
28.0
 21
19.0
 31
0.0
210
0.0
220
0.0
230
1.0
  0
LINE
  8
0
 62
     7
 10
0.0
 20
19.0
 30
0.0
 11
0.0
 21
14.62006
 31
0.0
210
0.0
220
0.0
230
1.0
  0
LINE
  8
0
 62
     7
 10
28.0
 20
14.62006
 30
0.0
 11
28.0
 21
12.747177
 31
0.0
210
0.0
220
0.0
230
1.0
  0
LINE
  8
0
 62
     7
 10
0.0
 20
14.62006
 30
0.0
 11
0.0
 21
12.747177
 31
0.0
210
0.0
220
0.0
230
1.0
  0
LINE
  8
0
 62
     7
 10
0.0
 20
-19.0
 30
0.0
 11
28.0
 21
-19.0
 31
0.0
210
0.0
220
0.0
230
1.0
  0
LINE
  8
0
 62
     7
 10
28.0
 20
-19.0
 30
0.0
 11
28.0
 21
-14.620059
 31
0.0
210
0.0
220
0.0
230
1.0
  0
LINE
  8
0
 62
     7
 10
0.0
 20
-14.620059
 30
0.0
 11
0.0
 21
-19.0
 31
0.0
210
0.0
220
0.0
230
1.0
  0
LINE
  8
0
 62
     7
 10
18.636123
 20
0.0
 30
0.0
 11
16.318061
 21
4.015
 31
0.0
210
0.0
220
0.0
230
1.0
  0
LINE
  8
0
 62
     7
 10
16.318061
 20
4.015
 30
0.0
 11
11.681939
 21
4.015
 31
0.0
210
0.0
220
0.0
230
1.0
  0
LINE
  8
0
 62
     7
 10
11.681939
 20
4.015
 30
0.0
 11
9.363877
 21
0.0
 31
0.0
210
0.0
220
0.0
230
1.0
  0
LINE
  8
0
 62
     7
 10
9.363877
 20
0.0
 30
0.0
 11
11.681939
 21
-4.015
 31
0.0
210
0.0
220
0.0
230
1.0
  0
LINE
  8
0
 62
     7
 10
11.681939
 20
-4.015
 30
0.0
 11
16.318061
 21
-4.015
 31
0.0
210
0.0
220
0.0
230
1.0
  0
LINE
  8
0
 62
     7
 10
16.318061
 20
-4.015
 30
0.0
 11
18.636123
 21
0.0
 31
0.0
210
0.0
220
0.0
230
1.0
  0
CIRCLE
  8
0
 62
     7
 10
14.0
 20
0.0
 30
0.0
 40
4.636123
210
0.0
220
0.0
230
1.0
  0
CIRCLE
  8
0
 62
     7
 10
14.0
 20
0.0
 30
0.0
 40
7.5
210
0.0
220
0.0
230
1.0
  0
CIRCLE
  8
0
 62
     7
 10
14.0
 20
0.0
 30
0.0
 40
8.0
210
0.0
220
0.0
230
1.0
  0
ENDBLK
  8
0
  0
BLOCK
  8
0
  2
BLOCK198
 70
     0
 10
0.0
 20
0.0
 30
0.0
  3
BLOCK198
  0
LINE
  8
0
 62
     7
 10
32.327676
 20
38.28921
 30
0.0
 11
43.816775
 21
44.930579
 31
0.0
210
0.0
220
0.0
230
1.0
  0
LINE
  8
0
 62
     7
 10
33.226004
 20
15.122823
 30
0.0
 11
33.933319
 21
14.714955
 31
0.0
210
0.0
220
0.0
230
1.0
  0
LINE
  8
0
 62
     7
 10
33.933319
 20
14.714955
 30
0.0
 11
65.036477
 21
32.694393
 31
0.0
210
0.0
220
0.0
230
1.0
  0
LINE
  8
0
 62
     7
 10
65.036477
 20
32.694393
 30
0.0
 11
43.816775
 21
44.930579
 31
0.0
210
0.0
220
0.0
230
1.0
  0
POLYLINE
  8
0
 62
     7
 66
     1
 10
0.0
 20
0.0
 30
0.0
 71
    10
  0
VERTEX
  8
0
 10
35.337563
 20
33.495125
 30
0.0
  0
VERTEX
  8
0
 10
34.925137
 20
33.234962
 30
0.0
  0
VERTEX
  8
0
 10
34.553532
 20
32.955051
 30
0.0
  0
VERTEX
  8
0
 10
34.225578
 20
32.65752
 30
0.0
  0
VERTEX
  8
0
 10
33.943764
 20
32.344639
 30
0.0
  0
VERTEX
  8
0
 10
33.710243
 20
32.01878
 30
0.0
  0
VERTEX
  8
0
 10
33.526791
 20
31.68243
 30
0.0
  0
VERTEX
  8
0
 10
33.394798
 20
31.338146
 30
0.0
  0
VERTEX
  8
0
 10
33.315277
 20
30.988548
 30
0.0
  0
VERTEX
  8
0
 10
33.288826
 20
30.636299
 30
0.0
  0
SEQEND
  8
0
  0
POLYLINE
  8
0
 62
     7
 66
     1
 10
0.0
 20
0.0
 30
0.0
 71
    10
  0
VERTEX
  8
0
 10
33.288826
 20
30.636299
 30
0.0
  0
VERTEX
  8
0
 10
33.315651
 20
30.284077
 30
0.0
  0
VERTEX
  8
0
 10
33.395546
 20
29.934565
 30
0.0
  0
VERTEX
  8
0
 10
33.527901
 20
29.59042
 30
0.0
  0
VERTEX
  8
0
 10
33.711712
 20
29.254265
 30
0.0
  0
VERTEX
  8
0
 10
33.94558
 20
28.928656
 30
0.0
  0
VERTEX
  8
0
 10
34.227722
 20
28.61607
 30
0.0
  0
VERTEX
  8
0
 10
34.555992
 20
28.31889
 30
0.0
  0
VERTEX
  8
0
 10
34.927895
 20
28.039373
 30
0.0
  0
VERTEX
  8
0
 10
35.340595
 20
27.77965
 30
0.0
  0
SEQEND
  8
0
  0
LINE
  8
0
 62
     7
 10
38.872012
 20
35.538242
 30
0.0
 11
35.337563
 21
33.495124
 31
0.0
210
0.0
220
0.0
230
1.0
  0
POLYLINE
  8
0
 62
     7
 66
     1
 10
0.0
 20
0.0
 30
0.0
 71
    18
  0
VERTEX
  8
0
 10
50.823277
 20
32.686848
 30
0.0
  0
VERTEX
  8
0
 10
50.755852
 20
33.245163
 30
0.0
  0
VERTEX
  8
0
 10
50.55547
 20
33.792702
 30
0.0
  0
VERTEX
  8
0
 10
50.225967
 20
34.318958
 30
0.0
  0
VERTEX
  8
0
 10
49.773666
 20
34.813843
 30
0.0
  0
VERTEX
  8
0
 10
49.207245
 20
35.26786
 30
0.0
  0
VERTEX
  8
0
 10
48.53756
 20
35.672302
 30
0.0
  0
VERTEX
  8
0
 10
47.777462
 20
36.019421
 30
0.0
  0
VERTEX
  8
0
 10
46.941525
 20
36.302547
 30
0.0
  0
VERTEX
  8
0
 10
46.04578
 20
36.516258
 30
0.0
  0
VERTEX
  8
0
 10
45.107414
 20
36.656452
 30
0.0
  0
VERTEX
  8
0
 10
44.144417
 20
36.720444
 30
0.0
  0
VERTEX
  8
0
 10
43.175262
 20
36.707001
 30
0.0
  0
VERTEX
  8
0
 10
42.218536
 20
36.616383
 30
0.0
  0
VERTEX
  8
0
 10
41.292583
 20
36.450333
 30
0.0
  0
VERTEX
  8
0
 10
40.415173
 20
36.212025
 30
0.0
  0
VERTEX
  8
0
 10
39.603123
 20
35.90604
 30
0.0
  0
VERTEX
  8
0
 10
38.872013
 20
35.538242
 30
0.0
  0
SEQEND
  8
0
  0
POLYLINE
  8
0
 62
     7
 66
     1
 10
0.0
 20
0.0
 30
0.0
 71
    10
  0
VERTEX
  8
0
 10
48.77454
 20
29.828022
 30
0.0
  0
VERTEX
  8
0
 10
49.186966
 20
30.088184
 30
0.0
  0
VERTEX
  8
0
 10
49.558571
 20
30.368095
 30
0.0
  0
VERTEX
  8
0
 10
49.886528
 20
30.665625
 30
0.0
  0
VERTEX
  8
0
 10
50.168335
 20
30.97851
 30
0.0
  0
VERTEX
  8
0
 10
50.401859
 20
31.304367
 30
0.0
  0
VERTEX
  8
0
 10
50.585312
 20
31.640717
 30
0.0
  0
VERTEX
  8
0
 10
50.7173
 20
31.985001
 30
0.0
  0
VERTEX
  8
0
 10
50.796825
 20
32.334599
 30
0.0
  0
VERTEX
  8
0
 10
50.823277
 20
32.686848
 30
0.0
  0
SEQEND
  8
0
  0
LINE
  8
0
 62
     7
 10
48.77454
 20
29.828022
 30
0.0
 11
45.24009
 21
27.784904
 31
0.0
210
0.0
220
0.0
230
1.0
  0
POLYLINE
  8
0
 62
     7
 66
     1
 10
0.0
 20
0.0
 30
0.0
 71
    12
  0
VERTEX
  8
0
 10
35.340595
 20
27.77965
 30
0.0
  0
VERTEX
  8
0
 10
36.0956
 20
27.402439
 30
0.0
  0
VERTEX
  8
0
 10
36.935966
 20
27.091137
 30
0.0
  0
VERTEX
  8
0
 10
37.844589
 20
26.852079
 30
0.0
  0
VERTEX
  8
0
 10
38.802967
 20
26.690134
 30
0.0
  0
VERTEX
  8
0
 10
39.791592
 20
26.608595
 30
0.0
  0
VERTEX
  8
0
 10
40.79034
 20
26.609125
 30
0.0
  0
VERTEX
  8
0
 10
41.778877
 20
26.691713
 30
0.0
  0
VERTEX
  8
0
 10
42.737083
 20
26.854677
 30
0.0
  0
VERTEX
  8
0
 10
43.645451
 20
27.094698
 30
0.0
  0
VERTEX
  8
0
 10
44.485485
 20
27.406893
 30
0.0
  0
VERTEX
  8
0
 10
45.240089
 20
27.784904
 30
0.0
  0
SEQEND
  8
0
  0
POLYLINE
  8
0
 62
     7
 66
     1
 10
0.0
 20
0.0
 30
0.0
 71
    10
  0
VERTEX
  8
0
 10
68.219437
 20
30.858965
 30
0.0
  0
VERTEX
  8
0
 10
68.207161
 20
31.172199
 30
0.0
  0
VERTEX
  8
0
 10
68.170769
 20
31.469053
 30
0.0
  0
VERTEX
  8
0
 10
68.110542
 20
31.747271
 30
0.0
  0
VERTEX
  8
0
 10
68.026932
 20
32.004734
 30
0.0
  0
VERTEX
  8
0
 10
67.920578
 20
32.239483
 30
0.0
  0
VERTEX
  8
0
 10
67.792282
 20
32.44973
 30
0.0
  0
VERTEX
  8
0
 10
67.643036
 20
32.633873
 30
0.0
  0
VERTEX
  8
0
 10
67.473969
 20
32.79052
 30
0.0
  0
VERTEX
  8
0
 10
67.286362
 20
32.918468
 30
0.0
  0
SEQEND
  8
0
  0
POLYLINE
  8
0
 62
     7
 66
     1
 10
0.0
 20
0.0
 30
0.0
 71
    10
  0
VERTEX
  8
0
 10
67.286362
 20
32.918468
 30
0.0
  0
VERTEX
  8
0
 10
67.081642
 20
33.016747
 30
0.0
  0
VERTEX
  8
0
 10
66.861382
 20
33.08461
 30
0.0
  0
VERTEX
  8
0
 10
66.627243
 20
33.121544
 30
0.0
  0
VERTEX
  8
0
 10
66.381012
 20
33.127258
 30
0.0
  0
VERTEX
  8
0
 10
66.124565
 20
33.101719
 30
0.0
  0
VERTEX
  8
0
 10
65.859848
 20
33.045113
 30
0.0
  0
VERTEX
  8
0
 10
65.588882
 20
32.957878
 30
0.0
  0
VERTEX
  8
0
 10
65.313728
 20
32.840675
 30
0.0
  0
VERTEX
  8
0
 10
65.036476
 20
32.694393
 30
0.0
  0
SEQEND
  8
0
  0
POLYLINE
  8
0
 62
     7
 66
     1
 10
0.0
 20
0.0
 30
0.0
 71
    10
  0
VERTEX
  8
0
 10
46.066658
 20
45.154652
 30
0.0
  0
VERTEX
  8
0
 10
45.861942
 20
45.252934
 30
0.0
  0
VERTEX
  8
0
 10
45.641678
 20
45.320797
 30
0.0
  0
VERTEX
  8
0
 10
45.407539
 20
45.357727
 30
0.0
  0
VERTEX
  8
0
 10
45.161308
 20
45.363445
 30
0.0
  0
VERTEX
  8
0
 10
44.904861
 20
45.337902
 30
0.0
  0
VERTEX
  8
0
 10
44.640144
 20
45.2813
 30
0.0
  0
VERTEX
  8
0
 10
44.369179
 20
45.194065
 30
0.0
  0
VERTEX
  8
0
 10
44.094025
 20
45.076859
 30
0.0
  0
VERTEX
  8
0
 10
43.816776
 20
44.930576
 30
0.0
  0
SEQEND
  8
0
  0
POLYLINE
  8
0
 62
     7
 66
     1
 10
0.0
 20
0.0
 30
0.0
 71
    10
  0
VERTEX
  8
0
 10
65.2882
 20
29.453304
 30
0.0
  0
VERTEX
  8
0
 10
65.26545
 20
29.464224
 30
0.0
  0
VERTEX
  8
0
 10
65.240982
 20
29.471766
 30
0.0
  0
VERTEX
  8
0
 10
65.214966
 20
29.475868
 30
0.0
  0
VERTEX
  8
0
 10
65.187607
 20
29.476503
 30
0.0
  0
VERTEX
  8
0
 10
65.159111
 20
29.473665
 30
0.0
  0
VERTEX
  8
0
 10
65.1297
 20
29.467377
 30
0.0
  0
VERTEX
  8
0
 10
65.099594
 20
29.457684
 30
0.0
  0
VERTEX
  8
0
 10
65.069016
 20
29.44466
 30
0.0
  0
VERTEX
  8
0
 10
65.038216
 20
29.428408
 30
0.0
  0
SEQEND
  8
0
  0
POLYLINE
  8
0
 62
     7
 66
     1
 10
0.0
 20
0.0
 30
0.0
 71
    10
  0
VERTEX
  8
0
 10
65.391876
 20
29.22447
 30
0.0
  0
VERTEX
  8
0
 10
65.390511
 20
29.259274
 30
0.0
  0
VERTEX
  8
0
 10
65.386467
 20
29.292257
 30
0.0
  0
VERTEX
  8
0
 10
65.379776
 20
29.323172
 30
0.0
  0
VERTEX
  8
0
 10
65.370483
 20
29.351778
 30
0.0
  0
VERTEX
  8
0
 10
65.358665
 20
29.377861
 30
0.0
  0
VERTEX
  8
0
 10
65.344414
 20
29.401222
 30
0.0
  0
VERTEX
  8
0
 10
65.327827
 20
29.421682
 30
0.0
  0
VERTEX
  8
0
 10
65.309044
 20
29.439087
 30
0.0
  0
VERTEX
  8
0
 10
65.2882
 20
29.453304
 30
0.0
  0
SEQEND
  8
0
  0
LINE
  8
0
 62
     7
 10
65.038211
 20
29.428407
 30
0.0
 11
65.391872
 21
29.224471
 31
0.0
210
0.0
220
0.0
230
1.0
  0
ARC
  8
0
 62
     7
 10
32.348217
 20
17.397458
 30
0.0
 40
3.116067
 50
286.384006
 51
300.579007
210
0.0
220
0.0
230
1.0
  0
ARC
  8
0
 62
     7
 10
32.165345
 20
14.46051
 30
0.0
 40
3.493112
 50
287.710228
 51
300.440269
210
0.0
220
0.0
230
1.0
  0
LINE
  8
0
 62
     7
 10
33.935052
 20
11.448969
 30
0.0
 11
33.933319
 21
14.714955
 31
0.0
210
0.0
220
0.0
230
1.0
  0
POLYLINE
  8
0
 62
     7
 66
     1
 10
0.0
 20
0.0
 30
0.0
 71
    12
  0
VERTEX
  8
0
 10
-3.001681
 20
3.165335
 30
0.0
  0
VERTEX
  8
0
 10
-2.543817
 20
2.443719
 30
0.0
  0
VERTEX
  8
0
 10
-2.034222
 20
1.772084
 30
0.0
  0
VERTEX
  8
0
 10
-1.483269
 20
1.164104
 30
0.0
  0
VERTEX
  8
0
 10
-0.902174
 20
0.632154
 30
0.0
  0
VERTEX
  8
0
 10
-0.302766
 20
0.187066
 30
0.0
  0
VERTEX
  8
0
 10
0.302753
 20
-0.162102
 30
0.0
  0
VERTEX
  8
0
 10
0.902055
 20
-0.408241
 30
0.0
  0
VERTEX
  8
0
 10
1.482941
 20
-0.54634
 30
0.0
  0
VERTEX
  8
0
 10
2.033586
 20
-0.573588
 30
0.0
  0
VERTEX
  8
0
 10
2.54278
 20
-0.48943
 30
0.0
  0
VERTEX
  8
0
 10
3.000157
 20
-0.29558
 30
0.0
  0
SEQEND
  8
0
  0
LINE
  8
0
 62
     7
 10
-3.001681
 20
3.165336
 30
0.0
 11
-5.064273
 21
6.733475
 31
0.0
210
0.0
220
0.0
230
1.0
  0
POLYLINE
  8
0
 62
     7
 66
     1
 10
0.0
 20
0.0
 30
0.0
 71
    10
  0
VERTEX
  8
0
 10
-5.064273
 20
6.733475
 30
0.0
  0
VERTEX
  8
0
 10
-5.079041
 20
6.758533
 30
0.0
  0
VERTEX
  8
0
 10
-5.094218
 20
6.783326
 30
0.0
  0
VERTEX
  8
0
 10
-5.109793
 20
6.807831
 30
0.0
  0
VERTEX
  8
0
 10
-5.125753
 20
6.83203
 30
0.0
  0
VERTEX
  8
0
 10
-5.142083
 20
6.8559
 30
0.0
  0
VERTEX
  8
0
 10
-5.158771
 20
6.879423
 30
0.0
  0
VERTEX
  8
0
 10
-5.175801
 20
6.902577
 30
0.0
  0
VERTEX
  8
0
 10
-5.193161
 20
6.925344
 30
0.0
  0
VERTEX
  8
0
 10
-5.210834
 20
6.947704
 30
0.0
  0
SEQEND
  8
0
  0
LINE
  8
0
 62
     7
 10
-5.210834
 20
6.947704
 30
0.0
 11
-8.951058
 21
11.595551
 31
0.0
210
0.0
220
0.0
230
1.0
  0
LINE
  8
0
 62
     7
 10
-7.537913
 20
13.608233
 30
0.0
 11
1.751013
 21
18.977773
 31
0.0
210
0.0
220
0.0
230
1.0
  0
LINE
  8
0
 62
     7
 10
-8.951058
 20
11.595551
 30
0.0
 11
-7.537913
 21
13.608233
 31
0.0
210
0.0
220
0.0
230
1.0
  0
LINE
  8
0
 62
     7
 10
-3.797688
 20
8.960385
 30
0.0
 11
-7.537913
 21
13.608233
 31
0.0
210
0.0
220
0.0
230
1.0
  0
LINE
  8
0
 62
     7
 10
-3.797688
 20
8.960385
 30
0.0
 11
9.961261
 21
16.91386
 31
0.0
210
0.0
220
0.0
230
1.0
  0
LINE
  8
0
 62
     7
 10
-3.064887
 20
7.889237
 30
0.0
 11
9.962052
 21
15.419567
 31
0.0
210
0.0
220
0.0
230
1.0
  0
POLYLINE
  8
0
 62
     7
 66
     1
 10
0.0
 20
0.0
 30
0.0
 71
    10
  0
VERTEX
  8
0
 10
-3.064886
 20
7.889237
 30
0.0
  0
VERTEX
  8
0
 10
-3.138722
 20
8.014528
 30
0.0
  0
VERTEX
  8
0
 10
-3.214611
 20
8.13849
 30
0.0
  0
VERTEX
  8
0
 10
-3.292486
 20
8.261019
 30
0.0
  0
VERTEX
  8
0
 10
-3.372284
 20
8.382011
 30
0.0
  0
VERTEX
  8
0
 10
-3.453937
 20
8.501364
 30
0.0
  0
VERTEX
  8
0
 10
-3.537375
 20
8.618977
 30
0.0
  0
VERTEX
  8
0
 10
-3.622528
 20
8.73475
 30
0.0
  0
VERTEX
  8
0
 10
-3.709323
 20
8.848585
 30
0.0
  0
VERTEX
  8
0
 10
-3.797688
 20
8.960385
 30
0.0
  0
SEQEND
  8
0
  0
LINE
  8
0
 62
     7
 10
-1.002294
 20
4.321098
 30
0.0
 11
-3.064887
 21
7.889237
 31
0.0
210
0.0
220
0.0
230
1.0
  0
LINE
  8
0
 62
     7
 10
-1.002294
 20
4.321098
 30
0.0
 11
9.964574
 21
10.660587
 31
0.0
210
0.0
220
0.0
230
1.0
  0
POLYLINE
  8
0
 62
     7
 66
     1
 10
0.0
 20
0.0
 30
0.0
 71
    12
  0
VERTEX
  8
0
 10
-1.002294
 20
4.321097
 30
0.0
  0
VERTEX
  8
0
 10
-0.849673
 20
4.080559
 30
0.0
  0
VERTEX
  8
0
 10
-0.679808
 20
3.85668
 30
0.0
  0
VERTEX
  8
0
 10
-0.496157
 20
3.65402
 30
0.0
  0
VERTEX
  8
0
 10
-0.302458
 20
3.476704
 30
0.0
  0
VERTEX
  8
0
 10
-0.102656
 20
3.328341
 30
0.0
  0
VERTEX
  8
0
 10
0.099184
 20
3.211952
 30
0.0
  0
VERTEX
  8
0
 10
0.298951
 20
3.129906
 30
0.0
  0
VERTEX
  8
0
 10
0.49258
 20
3.083873
 30
0.0
  0
VERTEX
  8
0
 10
0.676128
 20
3.07479
 30
0.0
  0
VERTEX
  8
0
 10
0.84586
 20
3.102842
 30
0.0
  0
VERTEX
  8
0
 10
0.998319
 20
3.167459
 30
0.0
  0
SEQEND
  8
0
  0
LINE
  8
0
 62
     7
 10
3.058385
 20
4.358298
 30
0.0
 11
9.96579
 21
8.351181
 31
0.0
210
0.0
220
0.0
230
1.0
  0
LINE
  8
0
 62
     7
 10
0.998319
 20
3.167459
 30
0.0
 11
3.058385
 21
4.358298
 31
0.0
210
0.0
220
0.0
230
1.0
  0
LINE
  8
0
 62
     7
 10
3.790498
 20
4.584714
 30
0.0
 11
9.965893
 21
8.154452
 31
0.0
210
0.0
220
0.0
230
1.0
  0
POLYLINE
  8
0
 62
     7
 66
     1
 10
0.0
 20
0.0
 30
0.0
 71
    10
  0
VERTEX
  8
0
 10
3.790497
 20
4.584713
 30
0.0
  0
VERTEX
  8
0
 10
3.702197
 20
4.574785
 30
0.0
  0
VERTEX
  8
0
 10
3.615469
 20
4.561011
 30
0.0
  0
VERTEX
  8
0
 10
3.530387
 20
4.543403
 30
0.0
  0
VERTEX
  8
0
 10
3.447023
 20
4.521976
 30
0.0
  0
VERTEX
  8
0
 10
3.365447
 20
4.496747
 30
0.0
  0
VERTEX
  8
0
 10
3.285729
 20
4.467739
 30
0.0
  0
VERTEX
  8
0
 10
3.207935
 20
4.434976
 30
0.0
  0
VERTEX
  8
0
 10
3.132133
 20
4.398485
 30
0.0
  0
VERTEX
  8
0
 10
3.058384
 20
4.358297
 30
0.0
  0
SEQEND
  8
0
  0
LINE
  8
0
 62
     7
 10
7.528076
 20
4.920541
 30
0.0
 11
9.966852
 21
6.330296
 31
0.0
210
0.0
220
0.0
230
1.0
  0
LINE
  8
0
 62
     7
 10
3.790498
 20
4.584714
 30
0.0
 11
7.528076
 21
4.920541
 31
0.0
210
0.0
220
0.0
230
1.0
  0
LINE
  8
0
 62
     7
 10
8.944224
 20
1.276369
 30
0.0
 11
7.528076
 21
4.920541
 31
0.0
210
0.0
220
0.0
230
1.0
  0
LINE
  8
0
 62
     7
 10
8.944224
 20
1.276369
 30
0.0
 11
9.751468
 21
1.743002
 31
0.0
210
0.0
220
0.0
230
1.0
  0
LINE
  8
0
 62
     7
 10
5.206646
 20
0.940541
 30
0.0
 11
8.944224
 21
1.276369
 31
0.0
210
0.0
220
0.0
230
1.0
  0
POLYLINE
  8
0
 62
     7
 66
     1
 10
0.0
 20
0.0
 30
0.0
 71
    10
  0
VERTEX
  8
0
 10
5.206645
 20
0.940541
 30
0.0
  0
VERTEX
  8
0
 10
5.188986
 20
0.938556
 30
0.0
  0
VERTEX
  8
0
 10
5.17164
 20
0.935801
 30
0.0
  0
VERTEX
  8
0
 10
5.154624
 20
0.932279
 30
0.0
  0
VERTEX
  8
0
 10
5.137951
 20
0.927994
 30
0.0
  0
VERTEX
  8
0
 10
5.121635
 20
0.922948
 30
0.0
  0
VERTEX
  8
0
 10
5.105692
 20
0.917147
 30
0.0
  0
VERTEX
  8
0
 10
5.090133
 20
0.910594
 30
0.0
  0
VERTEX
  8
0
 10
5.074973
 20
0.903296
 30
0.0
  0
VERTEX
  8
0
 10
5.060223
 20
0.895258
 30
0.0
  0
SEQEND
  8
0
  0
LINE
  8
0
 62
     7
 10
3.000157
 20
-0.29558
 30
0.0
 11
5.060223
 21
0.895258
 31
0.0
210
0.0
220
0.0
230
1.0
  0
POLYLINE
  8
0
 62
     7
 66
     1
 10
0.0
 20
0.0
 30
0.0
 71
    10
  0
VERTEX
  8
0
 10
50.22747
 20
31.05327
 30
0.0
  0
VERTEX
  8
0
 10
50.105919
 20
31.203577
 30
0.0
  0
VERTEX
  8
0
 10
49.973778
 20
31.35087
 30
0.0
  0
VERTEX
  8
0
 10
49.831276
 20
31.494905
 30
0.0
  0
VERTEX
  8
0
 10
49.67865
 20
31.635439
 30
0.0
  0
VERTEX
  8
0
 10
49.516155
 20
31.772232
 30
0.0
  0
VERTEX
  8
0
 10
49.34407
 20
31.905058
 30
0.0
  0
VERTEX
  8
0
 10
49.162682
 20
32.033688
 30
0.0
  0
VERTEX
  8
0
 10
48.972298
 20
32.157909
 30
0.0
  0
VERTEX
  8
0
 10
48.773239
 20
32.277512
 30
0.0
  0
SEQEND
  8
0
  0
POLYLINE
  8
0
 62
     7
 66
     1
 10
0.0
 20
0.0
 30
0.0
 71
    12
  0
VERTEX
  8
0
 10
48.773239
 20
32.277512
 30
0.0
  0
VERTEX
  8
0
 10
48.018234
 20
32.65472
 30
0.0
  0
VERTEX
  8
0
 10
47.177868
 20
32.966026
 30
0.0
  0
VERTEX
  8
0
 10
46.269249
 20
33.205082
 30
0.0
  0
VERTEX
  8
0
 10
45.310867
 20
33.367027
 30
0.0
  0
VERTEX
  8
0
 10
44.322243
 20
33.448566
 30
0.0
  0
VERTEX
  8
0
 10
43.323494
 20
33.448036
 30
0.0
  0
VERTEX
  8
0
 10
42.334953
 20
33.365448
 30
0.0
  0
VERTEX
  8
0
 10
41.376751
 20
33.202484
 30
0.0
  0
VERTEX
  8
0
 10
40.468384
 20
32.962463
 30
0.0
  0
VERTEX
  8
0
 10
39.628349
 20
32.650269
 30
0.0
  0
VERTEX
  8
0
 10
38.873745
 20
32.272255
 30
0.0
  0
SEQEND
  8
0
  0
LINE
  8
0
 62
     7
 10
38.873746
 20
32.272256
 30
0.0
 11
38.872012
 21
35.538242
 31
0.0
210
0.0
220
0.0
230
1.0
  0
LINE
  8
0
 62
     7
 10
38.873746
 20
32.272256
 30
0.0
 11
35.339297
 21
30.229138
 31
0.0
210
0.0
220
0.0
230
1.0
  0
LINE
  8
0
 62
     7
 10
35.339297
 20
30.229138
 30
0.0
 11
35.337563
 21
33.495124
 31
0.0
210
0.0
220
0.0
230
1.0
  0
POLYLINE
  8
0
 62
     7
 66
     1
 10
0.0
 20
0.0
 30
0.0
 71
    10
  0
VERTEX
  8
0
 10
35.339298
 20
30.229137
 30
0.0
  0
VERTEX
  8
0
 10
35.140366
 20
30.109324
 30
0.0
  0
VERTEX
  8
0
 10
34.950111
 20
29.984901
 30
0.0
  0
VERTEX
  8
0
 10
34.768864
 20
29.856077
 30
0.0
  0
VERTEX
  8
0
 10
34.596916
 20
29.72307
 30
0.0
  0
VERTEX
  8
0
 10
34.43457
 20
29.586103
 30
0.0
  0
VERTEX
  8
0
 10
34.282093
 20
29.445408
 30
0.0
  0
VERTEX
  8
0
 10
34.139744
 20
29.301222
 30
0.0
  0
VERTEX
  8
0
 10
34.007759
 20
29.153788
 30
0.0
  0
VERTEX
  8
0
 10
33.886368
 20
29.003353
 30
0.0
  0
SEQEND
  8
0
  0
LINE
  8
0
 62
     7
 10
68.22225
 20
25.551738
 30
0.0
 11
65.39469
 21
23.917244
 31
0.0
210
0.0
220
0.0
230
1.0
  0
LINE
  8
0
 62
     7
 10
60.443434
 20
26.772349
 30
0.0
 11
65.39469
 21
23.917244
 31
0.0
210
0.0
220
0.0
230
1.0
  0
LINE
  8
0
 62
     7
 10
65.391872
 20
29.224471
 30
0.0
 11
65.39469
 21
23.917244
 31
0.0
210
0.0
220
0.0
230
1.0
  0
LINE
  8
0
 62
     7
 10
33.935052
 20
11.448969
 30
0.0
 11
65.038211
 21
29.428407
 31
0.0
210
0.0
220
0.0
230
1.0
  0
LINE
  8
0
 62
     7
 10
68.22225
 20
25.551738
 30
0.0
 11
68.219432
 21
30.858965
 31
0.0
210
0.0
220
0.0
230
1.0
  0
LINE
  8
0
 62
     7
 10
46.066656
 20
45.154653
 30
0.0
 11
67.286358
 21
32.918467
 31
0.0
210
0.0
220
0.0
230
1.0
  0
LINE
  8
0
 62
     7
 10
9.685139
 20
1.636594
 30
0.0
 11
8.908916
 21
1.187892
 31
0.0
210
0.0
220
0.0
230
1.0
  0
POLYLINE
  8
0
 62
     7
 66
     1
 10
0.0
 20
0.0
 30
0.0
 71
    10
  0
VERTEX
  8
0
 10
9.348184
 20
1.323742
 30
0.0
  0
VERTEX
  8
0
 10
9.473164
 20
1.409174
 30
0.0
  0
VERTEX
  8
0
 10
9.585767
 20
1.513723
 30
0.0
  0
VERTEX
  8
0
 10
9.685135
 20
1.636592
 30
0.0
  0
VERTEX
  8
0
 10
9.770513
 20
1.776848
 30
0.0
  0
VERTEX
  8
0
 10
9.841249
 20
1.933422
 30
0.0
  0
VERTEX
  8
0
 10
9.896807
 20
2.105123
 30
0.0
  0
VERTEX
  8
0
 10
9.936763
 20
2.290643
 30
0.0
  0
VERTEX
  8
0
 10
9.960814
 20
2.488572
 30
0.0
  0
VERTEX
  8
0
 10
9.968775
 20
2.697403
 30
0.0
  0
SEQEND
  8
0
  0
POLYLINE
  8
0
 62
     7
 66
     1
 10
0.0
 20
0.0
 30
0.0
 71
    10
  0
VERTEX
  8
0
 10
8.908916
 20
1.187892
 30
0.0
  0
VERTEX
  8
0
 10
8.961896
 20
1.193849
 30
0.0
  0
VERTEX
  8
0
 10
9.013933
 20
1.202114
 30
0.0
  0
VERTEX
  8
0
 10
9.064981
 20
1.212679
 30
0.0
  0
VERTEX
  8
0
 10
9.115001
 20
1.225535
 30
0.0
  0
VERTEX
  8
0
 10
9.163946
 20
1.240672
 30
0.0
  0
VERTEX
  8
0
 10
9.211777
 20
1.258077
 30
0.0
  0
VERTEX
  8
0
 10
9.258453
 20
1.277735
 30
0.0
  0
VERTEX
  8
0
 10
9.303935
 20
1.29963
 30
0.0
  0
VERTEX
  8
0
 10
9.348184
 20
1.323742
 30
0.0
  0
SEQEND
  8
0
  0
LINE
  8
0
 62
     7
 10
8.908916
 20
1.187892
 30
0.0
 11
8.342047
 21
1.136958
 31
0.0
210
0.0
220
0.0
230
1.0
  0
LINE
  8
0
 62
     7
 10
7.548756
 20
1.06568
 30
0.0
 11
8.342047
 21
1.136958
 31
0.0
210
0.0
220
0.0
230
1.0
  0
LINE
  8
0
 62
     7
 10
6.53697
 20
1.060073
 30
0.0
 11
6.362242
 21
0.95907
 31
0.0
210
0.0
220
0.0
230
1.0
  0
LINE
  8
0
 62
     7
 10
7.548756
 20
1.06568
 30
0.0
 11
6.362242
 21
0.95907
 31
0.0
210
0.0
220
0.0
230
1.0
  0
LINE
  8
0
 62
     7
 10
5.517368
 20
0.96846
 30
0.0
 11
5.178125
 21
0.772358
 31
0.0
210
0.0
220
0.0
230
1.0
  0
LINE
  8
0
 62
     7
 10
5.178125
 20
0.772358
 30
0.0
 11
6.362242
 21
0.95907
 31
0.0
210
0.0
220
0.0
230
1.0
  0
LINE
  8
0
 62
     7
 10
5.178125
 20
0.772358
 30
0.0
 11
4.35964
 21
0.299225
 31
0.0
210
0.0
220
0.0
230
1.0
  0
LINE
  8
0
 62
     7
 10
3.884574
 20
0.02461
 30
0.0
 11
4.35964
 21
0.299225
 31
0.0
210
0.0
220
0.0
230
1.0
  0
LINE
  8
0
 62
     7
 10
-5.100658
 20
6.793603
 30
0.0
 11
-5.182117
 21
6.746515
 31
0.0
210
0.0
220
0.0
230
1.0
  0
LINE
  8
0
 62
     7
 10
-4.362628
 20
5.328857
 30
0.0
 11
-5.182117
 21
6.746515
 31
0.0
210
0.0
220
0.0
230
1.0
  0
LINE
  8
0
 62
     7
 10
-4.362628
 20
5.328857
 30
0.0
 11
-3.886979
 21
4.506018
 31
0.0
210
0.0
220
0.0
230
1.0
  0
LINE
  8
0
 62
     7
 10
-3.886979
 20
4.506018
 30
0.0
 11
-3.804301
 21
4.553811
 31
0.0
210
0.0
220
0.0
230
1.0
  0
LINE
  8
0
 62
     7
 10
-5.501699
 20
7.309153
 30
0.0
 11
-5.548517
 21
7.282089
 31
0.0
210
0.0
220
0.0
230
1.0
  0
POLYLINE
  8
0
 62
     7
 66
     1
 10
0.0
 20
0.0
 30
0.0
 71
    10
  0
VERTEX
  8
0
 10
-5.182117
 20
6.746514
 30
0.0
  0
VERTEX
  8
0
 10
-5.219034
 20
6.80916
 30
0.0
  0
VERTEX
  8
0
 10
-5.256979
 20
6.871141
 30
0.0
  0
VERTEX
  8
0
 10
-5.295917
 20
6.932405
 30
0.0
  0
VERTEX
  8
0
 10
-5.335815
 20
6.992902
 30
0.0
  0
VERTEX
  8
0
 10
-5.376642
 20
7.052578
 30
0.0
  0
VERTEX
  8
0
 10
-5.418361
 20
7.111384
 30
0.0
  0
VERTEX
  8
0
 10
-5.460937
 20
7.169271
 30
0.0
  0
VERTEX
  8
0
 10
-5.504335
 20
7.226189
 30
0.0
  0
VERTEX
  8
0
 10
-5.548517
 20
7.282089
 30
0.0
  0
SEQEND
  8
0
  0
LINE
  8
0
 62
     7
 10
-6.367157
 20
8.299384
 30
0.0
 11
-5.548517
 21
7.282089
 31
0.0
210
0.0
220
0.0
230
1.0
  0
LINE
  8
0
 62
     7
 10
-6.367157
 20
8.299384
 30
0.0
 11
-7.554511
 21
9.774868
 31
0.0
210
0.0
220
0.0
230
1.0
  0
LINE
  8
0
 62
     7
 10
-8.348363
 20
10.761361
 30
0.0
 11
-7.554511
 21
9.774868
 31
0.0
210
0.0
220
0.0
230
1.0
  0
LINE
  8
0
 62
     7
 10
-8.868815
 20
11.493352
 30
0.0
 11
-8.915634
 21
11.466288
 31
0.0
210
0.0
220
0.0
230
1.0
  0
LINE
  8
0
 62
     7
 10
-8.348363
 20
10.761361
 30
0.0
 11
-8.915634
 21
11.466288
 31
0.0
210
0.0
220
0.0
230
1.0
  0
LINE
  8
0
 62
     7
 10
0.145629
 20
20.051318
 30
0.0
 11
-9.977745
 21
14.199417
 31
0.0
210
0.0
220
0.0
230
1.0
  0
POLYLINE
  8
0
 62
     7
 66
     1
 10
0.0
 20
0.0
 30
0.0
 71
    10
  0
VERTEX
  8
0
 10
-9.977745
 20
14.199417
 30
0.0
  0
VERTEX
  8
0
 10
-9.963246
 20
13.906775
 30
0.0
  0
VERTEX
  8
0
 10
-9.920247
 20
13.601543
 30
0.0
  0
VERTEX
  8
0
 10
-9.84933
 20
13.287849
 30
0.0
  0
VERTEX
  8
0
 10
-9.751453
 20
12.969935
 30
0.0
  0
VERTEX
  8
0
 10
-9.62794
 20
12.652101
 30
0.0
  0
VERTEX
  8
0
 10
-9.480463
 20
12.338643
 30
0.0
  0
VERTEX
  8
0
 10
-9.311013
 20
12.033802
 30
0.0
  0
VERTEX
  8
0
 10
-9.121884
 20
11.741701
 30
0.0
  0
VERTEX
  8
0
 10
-8.915634
 20
11.466288
 30
0.0
  0
SEQEND
  8
0
  0
POLYLINE
  8
0
 62
     7
 66
     1
 10
0.0
 20
0.0
 30
0.0
 71
    12
  0
VERTEX
  8
0
 10
4.04391
 20
41.356224
 30
0.0
  0
VERTEX
  8
0
 10
4.933736
 20
40.911652
 30
0.0
  0
VERTEX
  8
0
 10
5.924167
 20
40.544762
 30
0.0
  0
VERTEX
  8
0
 10
6.995042
 20
40.263016
 30
0.0
  0
VERTEX
  8
0
 10
8.124559
 20
40.072151
 30
0.0
  0
VERTEX
  8
0
 10
9.289725
 20
39.976051
 30
0.0
  0
VERTEX
  8
0
 10
10.466822
 20
39.976677
 30
0.0
  0
VERTEX
  8
0
 10
11.631886
 20
40.074013
 30
0.0
  0
VERTEX
  8
0
 10
12.7612
 20
40.266075
 30
0.0
  0
VERTEX
  8
0
 10
13.831774
 20
40.548958
 30
0.0
  0
VERTEX
  8
0
 10
14.821815
 20
40.916904
 30
0.0
  0
VERTEX
  8
0
 10
15.71117
 20
41.362415
 30
0.0
  0
SEQEND
  8
0
  0
POLYLINE
  8
0
 62
     7
 66
     1
 10
0.0
 20
0.0
 30
0.0
 71
    10
  0
VERTEX
  8
0
 10
1.87445
 20
45.885231
 30
0.0
  0
VERTEX
  8
0
 10
1.696991
 20
45.349068
 30
0.0
  0
VERTEX
  8
0
 10
1.626925
 20
44.804741
 30
0.0
  0
VERTEX
  8
0
 10
1.665171
 20
44.259399
 30
0.0
  0
VERTEX
  8
0
 10
1.811227
 20
43.7202
 30
0.0
  0
VERTEX
  8
0
 10
2.063176
 20
43.194225
 30
0.0
  0
VERTEX
  8
0
 10
2.417709
 20
42.688385
 30
0.0
  0
VERTEX
  8
0
 10
2.870171
 20
42.209312
 30
0.0
  0
VERTEX
  8
0
 10
3.414621
 20
41.763309
 30
0.0
  0
VERTEX
  8
0
 10
4.04391
 20
41.356224
 30
0.0
  0
SEQEND
  8
0
  0
POLYLINE
  8
0
 62
     7
 66
     1
 10
0.0
 20
0.0
 30
0.0
 71
    10
  0
VERTEX
  8
0
 10
15.71117
 20
41.362415
 30
0.0
  0
VERTEX
  8
0
 10
16.340025
 20
41.770168
 30
0.0
  0
VERTEX
  8
0
 10
16.884001
 20
42.216755
 30
0.0
  0
VERTEX
  8
0
 10
17.335955
 20
42.696304
 30
0.0
  0
VERTEX
  8
0
 10
17.689949
 20
43.202522
 30
0.0
  0
VERTEX
  8
0
 10
17.941341
 20
43.728764
 30
0.0
  0
VERTEX
  8
0
 10
18.086824
 20
44.268116
 30
0.0
  0
VERTEX
  8
0
 10
18.124493
 20
44.813499
 30
0.0
  0
VERTEX
  8
0
 10
18.053848
 20
45.35775
 30
0.0
  0
VERTEX
  8
0
 10
17.87582
 20
45.893726
 30
0.0
  0
SEQEND
  8
0
  0
LINE
  8
0
 62
     7
 10
9.957927
 20
23.131074
 30
0.0
 11
9.968775
 21
2.697403
 31
0.0
210
0.0
220
0.0
230
1.0
  0
LINE
  8
0
 62
     7
 10
-9.988593
 20
34.633088
 30
0.0
 11
-8.292056
 21
35.613786
 31
0.0
210
0.0
220
0.0
230
1.0
  0
LINE
  8
0
 62
     7
 10
-9.977745
 20
14.199417
 30
0.0
 11
-9.988593
 21
34.633088
 31
0.0
210
0.0
220
0.0
230
1.0
  0
POLYLINE
  8
0
 62
     7
 66
     1
 10
0.0
 20
0.0
 30
0.0
 71
    10
  0
VERTEX
  8
0
 10
3.85979
 20
0.016087
 30
0.0
  0
VERTEX
  8
0
 10
3.857326
 20
0.014591
 30
0.0
  0
VERTEX
  8
0
 10
3.854926
 20
0.012988
 30
0.0
  0
VERTEX
  8
0
 10
3.852592
 20
0.011279
 30
0.0
  0
VERTEX
  8
0
 10
3.850324
 20
0.009465
 30
0.0
  0
VERTEX
  8
0
 10
3.848124
 20
0.007547
 30
0.0
  0
VERTEX
  8
0
 10
3.845994
 20
0.005527
 30
0.0
  0
VERTEX
  8
0
 10
3.843936
 20
0.003406
 30
0.0
  0
VERTEX
  8
0
 10
3.841949
 20
0.001184
 30
0.0
  0
VERTEX
  8
0
 10
3.840036
 20
-0.001136
 30
0.0
  0
SEQEND
  8
0
  0
POLYLINE
  8
0
 62
     7
 66
     1
 10
0.0
 20
0.0
 30
0.0
 71
    10
  0
VERTEX
  8
0
 10
3.884574
 20
0.02461
 30
0.0
  0
VERTEX
  8
0
 10
3.881608
 20
0.02411
 30
0.0
  0
VERTEX
  8
0
 10
3.878692
 20
0.023497
 30
0.0
  0
VERTEX
  8
0
 10
3.875826
 20
0.022771
 30
0.0
  0
VERTEX
  8
0
 10
3.873012
 20
0.021934
 30
0.0
  0
VERTEX
  8
0
 10
3.870253
 20
0.020985
 30
0.0
  0
VERTEX
  8
0
 10
3.867549
 20
0.019925
 30
0.0
  0
VERTEX
  8
0
 10
3.864903
 20
0.018755
 30
0.0
  0
VERTEX
  8
0
 10
3.862316
 20
0.017476
 30
0.0
  0
VERTEX
  8
0
 10
3.85979
 20
0.016087
 30
0.0
  0
SEQEND
  8
0
  0
LINE
  8
0
 62
     7
 10
-3.842386
 20
4.428876
 30
0.0
 11
-3.759708
 21
4.476669
 31
0.0
210
0.0
220
0.0
230
1.0
  0
POLYLINE
  8
0
 62
     7
 66
     1
 10
0.0
 20
0.0
 30
0.0
 71
    10
  0
VERTEX
  8
0
 10
-3.842386
 20
4.428876
 30
0.0
  0
VERTEX
  8
0
 10
-3.846294
 20
4.43792
 30
0.0
  0
VERTEX
  8
0
 10
-3.850489
 20
4.446897
 30
0.0
  0
VERTEX
  8
0
 10
-3.854963
 20
4.455784
 30
0.0
  0
VERTEX
  8
0
 10
-3.859704
 20
4.46456
 30
0.0
  0
VERTEX
  8
0
 10
-3.8647
 20
4.473203
 30
0.0
  0
VERTEX
  8
0
 10
-3.869939
 20
4.481691
 30
0.0
  0
VERTEX
  8
0
 10
-3.875408
 20
4.490004
 30
0.0
  0
VERTEX
  8
0
 10
-3.881093
 20
4.498119
 30
0.0
  0
VERTEX
  8
0
 10
-3.886979
 20
4.506019
 30
0.0
  0
SEQEND
  8
0
  0
LINE
  8
0
 62
     7
 10
2.800513
 20
-0.396201
 30
0.0
 11
2.405426
 21
-0.624584
 31
0.0
210
0.0
220
0.0
230
1.0
  0
POLYLINE
  8
0
 62
     7
 66
     1
 10
0.0
 20
0.0
 30
0.0
 71
    10
  0
VERTEX
  8
0
 10
2.405426
 20
-0.624584
 30
0.0
  0
VERTEX
  8
0
 10
2.506728
 20
-0.609069
 30
0.0
  0
VERTEX
  8
0
 10
2.606324
 20
-0.589546
 30
0.0
  0
VERTEX
  8
0
 10
2.704146
 20
-0.566028
 30
0.0
  0
VERTEX
  8
0
 10
2.800127
 20
-0.538531
 30
0.0
  0
VERTEX
  8
0
 10
2.894202
 20
-0.507073
 30
0.0
  0
VERTEX
  8
0
 10
2.986307
 20
-0.471676
 30
0.0
  0
VERTEX
  8
0
 10
3.076379
 20
-0.432364
 30
0.0
  0
VERTEX
  8
0
 10
3.164357
 20
-0.389164
 30
0.0
  0
VERTEX
  8
0
 10
3.250182
 20
-0.342106
 30
0.0
  0
SEQEND
  8
0
  0
LINE
  8
0
 62
     7
 10
3.250182
 20
-0.342106
 30
0.0
 11
3.840036
 21
-0.001136
 31
0.0
210
0.0
220
0.0
230
1.0
  0
LINE
  8
0
 62
     7
 10
1.68439
 20
-0.56893
 30
0.0
 11
1.606773
 21
-0.613797
 31
0.0
210
0.0
220
0.0
230
1.0
  0
LINE
  8
0
 62
     7
 10
1.606773
 20
-0.613797
 30
0.0
 11
2.405426
 21
-0.624584
 31
0.0
210
0.0
220
0.0
230
1.0
  0
LINE
  8
0
 62
     7
 10
0.440029
 20
-0.227359
 30
0.0
 11
0.417183
 21
-0.240566
 31
0.0
210
0.0
220
0.0
230
1.0
  0
POLYLINE
  8
0
 62
     7
 66
     1
 10
0.0
 20
0.0
 30
0.0
 71
    10
  0
VERTEX
  8
0
 10
0.417183
 20
-0.240565
 30
0.0
  0
VERTEX
  8
0
 10
0.552393
 20
-0.301986
 30
0.0
  0
VERTEX
  8
0
 10
0.687118
 20
-0.358519
 30
0.0
  0
VERTEX
  8
0
 10
0.821239
 20
-0.410114
 30
0.0
  0
VERTEX
  8
0
 10
0.95464
 20
-0.456728
 30
0.0
  0
VERTEX
  8
0
 10
1.087203
 20
-0.49832
 30
0.0
  0
VERTEX
  8
0
 10
1.218812
 20
-0.534852
 30
0.0
  0
VERTEX
  8
0
 10
1.349353
 20
-0.566293
 30
0.0
  0
VERTEX
  8
0
 10
1.478711
 20
-0.592616
 30
0.0
  0
VERTEX
  8
0
 10
1.606773
 20
-0.613797
 30
0.0
  0
SEQEND
  8
0
  0
LINE
  8
0
 62
     7
 10
-0.398459
 20
0.251389
 30
0.0
 11
-0.417183
 21
0.240566
 31
0.0
210
0.0
220
0.0
230
1.0
  0
LINE
  8
0
 62
     7
 10
-0.417183
 20
0.240566
 30
0.0
 11
0.417183
 21
-0.240566
 31
0.0
210
0.0
220
0.0
230
1.0
  0
LINE
  8
0
 62
     7
 10
-1.57509
 20
1.257968
 30
0.0
 11
-1.607105
 21
1.239462
 31
0.0
210
0.0
220
0.0
230
1.0
  0
POLYLINE
  8
0
 62
     7
 66
     1
 10
0.0
 20
0.0
 30
0.0
 71
    10
  0
VERTEX
  8
0
 10
-1.607105
 20
1.239462
 30
0.0
  0
VERTEX
  8
0
 10
-1.478987
 20
1.112919
 30
0.0
  0
VERTEX
  8
0
 10
-1.349578
 20
0.990025
 30
0.0
  0
VERTEX
  8
0
 10
-1.21899
 20
0.870889
 30
0.0
  0
VERTEX
  8
0
 10
-1.087339
 20
0.755613
 30
0.0
  0
VERTEX
  8
0
 10
-0.954739
 20
0.644301
 30
0.0
  0
VERTEX
  8
0
 10
-0.821307
 20
0.537047
 30
0.0
  0
VERTEX
  8
0
 10
-0.687158
 20
0.433948
 30
0.0
  0
VERTEX
  8
0
 10
-0.552411
 20
0.335092
 30
0.0
  0
VERTEX
  8
0
 10
-0.417183
 20
0.240566
 30
0.0
  0
SEQEND
  8
0
  0
LINE
  8
0
 62
     7
 10
-2.354362
 20
2.18001
 30
0.0
 11
-2.406235
 21
2.150025
 31
0.0
210
0.0
220
0.0
230
1.0
  0
LINE
  8
0
 62
     7
 10
-2.406235
 20
2.150025
 30
0.0
 11
-1.607105
 21
1.239462
 31
0.0
210
0.0
220
0.0
230
1.0
  0
LINE
  8
0
 62
     7
 10
-3.169131
 20
3.455012
 30
0.0
 11
-3.251809
 21
3.40722
 31
0.0
210
0.0
220
0.0
230
1.0
  0
POLYLINE
  8
0
 62
     7
 66
     1
 10
0.0
 20
0.0
 30
0.0
 71
    10
  0
VERTEX
  8
0
 10
-3.251809
 20
3.40722
 30
0.0
  0
VERTEX
  8
0
 10
-3.165882
 20
3.261122
 30
0.0
  0
VERTEX
  8
0
 10
-3.077804
 20
3.1164
 30
0.0
  0
VERTEX
  8
0
 10
-2.987635
 20
2.973154
 30
0.0
  0
VERTEX
  8
0
 10
-2.895436
 20
2.831479
 30
0.0
  0
VERTEX
  8
0
 10
-2.80127
 20
2.691474
 30
0.0
  0
VERTEX
  8
0
 10
-2.705201
 20
2.553232
 30
0.0
  0
VERTEX
  8
0
 10
-2.607295
 20
2.416849
 30
0.0
  0
VERTEX
  8
0
 10
-2.507617
 20
2.282416
 30
0.0
  0
VERTEX
  8
0
 10
-2.406235
 20
2.150025
 30
0.0
  0
SEQEND
  8
0
  0
LINE
  8
0
 62
     7
 10
-3.251809
 20
3.40722
 30
0.0
 11
-3.611938
 21
4.030217
 31
0.0
210
0.0
220
0.0
230
1.0
  0
LINE
  8
0
 62
     7
 10
-3.842386
 20
4.428876
 30
0.0
 11
-3.611938
 21
4.030217
 31
0.0
210
0.0
220
0.0
230
1.0
  0
LINE
  8
0
 62
     7
 10
6.522034
 20
35.233814
 30
0.0
 11
26.314953
 21
46.675275
 31
0.0
210
0.0
220
0.0
230
1.0
  0
LINE
  8
0
 62
     7
 10
13.22947
 20
54.220922
 30
0.0
 11
26.314953
 21
46.675275
 31
0.0
210
0.0
220
0.0
230
1.0
  0
LINE
  8
0
 62
     7
 10
-6.563449
 20
42.779461
 30
0.0
 11
1.874201
 21
47.656915
 31
0.0
210
0.0
220
0.0
230
1.0
  0
LINE
  8
0
 62
     7
 10
11.28534
 20
53.097102
 30
0.0
 11
13.22947
 21
54.220922
 31
0.0
210
0.0
220
0.0
230
1.0
  0
LINE
  8
0
 62
     7
 10
-6.563449
 20
42.779461
 30
0.0
 11
6.522034
 21
35.233814
 31
0.0
210
0.0
220
0.0
230
1.0
  0
LINE
  8
0
 62
     7
 10
8.996156
 20
32.889198
 30
0.0
 11
28.789075
 21
44.330659
 31
0.0
210
0.0
220
0.0
230
1.0
  0
POLYLINE
  8
0
 62
     7
 66
     1
 10
0.0
 20
0.0
 30
0.0
 71
    10
  0
VERTEX
  8
0
 10
28.789074
 20
44.330658
 30
0.0
  0
VERTEX
  8
0
 10
28.54483
 20
44.659195
 30
0.0
  0
VERTEX
  8
0
 10
28.289944
 20
44.973957
 30
0.0
  0
VERTEX
  8
0
 10
28.025633
 20
45.273438
 30
0.0
  0
VERTEX
  8
0
 10
27.75316
 20
45.55621
 30
0.0
  0
VERTEX
  8
0
 10
27.473827
 20
45.820923
 30
0.0
  0
VERTEX
  8
0
 10
27.188971
 20
46.066307
 30
0.0
  0
VERTEX
  8
0
 10
26.899948
 20
46.291191
 30
0.0
  0
VERTEX
  8
0
 10
26.608145
 20
46.494507
 30
0.0
  0
VERTEX
  8
0
 10
26.314951
 20
46.675274
 30
0.0
  0
SEQEND
  8
0
  0
POLYLINE
  8
0
 62
     7
 66
     1
 10
0.0
 20
0.0
 30
0.0
 71
    10
  0
VERTEX
  8
0
 10
8.996157
 20
32.889198
 30
0.0
  0
VERTEX
  8
0
 10
8.751912
 20
33.217735
 30
0.0
  0
VERTEX
  8
0
 10
8.497025
 20
33.532497
 30
0.0
  0
VERTEX
  8
0
 10
8.232714
 20
33.831978
 30
0.0
  0
VERTEX
  8
0
 10
7.960241
 20
34.11475
 30
0.0
  0
VERTEX
  8
0
 10
7.680909
 20
34.379463
 30
0.0
  0
VERTEX
  8
0
 10
7.396051
 20
34.624847
 30
0.0
  0
VERTEX
  8
0
 10
7.10703
 20
34.849731
 30
0.0
  0
VERTEX
  8
0
 10
6.815226
 20
35.053047
 30
0.0
  0
VERTEX
  8
0
 10
6.522034
 20
35.233814
 30
0.0
  0
SEQEND
  8
0
  0
POLYLINE
  8
0
 62
     7
 66
     1
 10
0.0
 20
0.0
 30
0.0
 71
    10
  0
VERTEX
  8
0
 10
13.229469
 20
54.220924
 30
0.0
  0
VERTEX
  8
0
 10
12.936289
 20
54.378284
 30
0.0
  0
VERTEX
  8
0
 10
12.644522
 20
54.511482
 30
0.0
  0
VERTEX
  8
0
 10
12.355563
 20
54.619884
 30
0.0
  0
VERTEX
  8
0
 10
12.070791
 20
54.702972
 30
0.0
  0
VERTEX
  8
0
 10
11.791569
 20
54.760349
 30
0.0
  0
VERTEX
  8
0
 10
11.51923
 20
54.791737
 30
0.0
  0
VERTEX
  8
0
 10
11.255075
 20
54.796989
 30
0.0
  0
VERTEX
  8
0
 10
11.000366
 20
54.776085
 30
0.0
  0
VERTEX
  8
0
 10
10.756322
 20
54.729115
 30
0.0
  0
SEQEND
  8
0
  0
LINE
  8
0
 62
     7
 10
-9.036597
 20
43.287652
 30
0.0
 11
2.233519
 21
49.802436
 31
0.0
210
0.0
220
0.0
230
1.0
  0
LINE
  8
0
 62
     7
 10
7.761789
 20
52.998099
 30
0.0
 11
10.756322
 21
54.729113
 31
0.0
210
0.0
220
0.0
230
1.0
  0
POLYLINE
  8
0
 62
     7
 66
     1
 10
0.0
 20
0.0
 30
0.0
 71
    10
  0
VERTEX
  8
0
 10
-6.563449
 20
42.779461
 30
0.0
  0
VERTEX
  8
0
 10
-6.85663
 20
42.936821
 30
0.0
  0
VERTEX
  8
0
 10
-7.148396
 20
43.070019
 30
0.0
  0
VERTEX
  8
0
 10
-7.437356
 20
43.178421
 30
0.0
  0
VERTEX
  8
0
 10
-7.722127
 20
43.261509
 30
0.0
  0
VERTEX
  8
0
 10
-8.001349
 20
43.318886
 30
0.0
  0
VERTEX
  8
0
 10
-8.273689
 20
43.350273
 30
0.0
  0
VERTEX
  8
0
 10
-8.537844
 20
43.355526
 30
0.0
  0
VERTEX
  8
0
 10
-8.792552
 20
43.334621
 30
0.0
  0
VERTEX
  8
0
 10
-9.036597
 20
43.287651
 30
0.0
  0
SEQEND
  8
0
  0
LINE
  8
0
 62
     7
 10
10.321472
 20
31.028392
 30
0.0
 11
30.114391
 21
42.469853
 31
0.0
210
0.0
220
0.0
230
1.0
  0
LINE
  8
0
 62
     7
 10
28.789075
 20
44.330659
 30
0.0
 11
30.114391
 21
42.469853
 31
0.0
210
0.0
220
0.0
230
1.0
  0
LINE
  8
0
 62
     7
 10
8.996156
 20
32.889198
 30
0.0
 11
10.321472
 21
31.028392
 31
0.0
210
0.0
220
0.0
230
1.0
  0
LINE
  8
0
 62
     7
 10
-13.442398
 20
13.877583
 30
0.0
 11
-13.455084
 21
37.77476
 31
0.0
210
0.0
220
0.0
230
1.0
  0
LINE
  8
0
 62
     7
 10
-10.360748
 20
42.954642
 30
0.0
 11
2.747744
 21
50.532115
 31
0.0
210
0.0
220
0.0
230
1.0
  0
LINE
  8
0
 62
     7
 10
6.531272
 20
52.719215
 30
0.0
 11
9.432171
 21
54.396103
 31
0.0
210
0.0
220
0.0
230
1.0
  0
POLYLINE
  8
0
 62
     7
 66
     1
 10
0.0
 20
0.0
 30
0.0
 71
    10
  0
VERTEX
  8
0
 10
9.432171
 20
54.396103
 30
0.0
  0
VERTEX
  8
0
 10
9.323524
 20
54.367043
 30
0.0
  0
VERTEX
  8
0
 10
9.216338
 20
54.334885
 30
0.0
  0
VERTEX
  8
0
 10
9.110647
 20
54.299637
 30
0.0
  0
VERTEX
  8
0
 10
9.006485
 20
54.261311
 30
0.0
  0
VERTEX
  8
0
 10
8.903888
 20
54.219917
 30
0.0
  0
VERTEX
  8
0
 10
8.802888
 20
54.175476
 30
0.0
  0
VERTEX
  8
0
 10
8.703519
 20
54.127991
 30
0.0
  0
VERTEX
  8
0
 10
8.605814
 20
54.077484
 30
0.0
  0
VERTEX
  8
0
 10
8.509804
 20
54.023975
 30
0.0
  0
SEQEND
  8
0
  0
POLYLINE
  8
0
 62
     7
 66
     1
 10
0.0
 20
0.0
 30
0.0
 71
    10
  0
VERTEX
  8
0
 10
-11.283115
 20
42.582516
 30
0.0
  0
VERTEX
  8
0
 10
-11.720528
 20
42.283497
 30
0.0
  0
VERTEX
  8
0
 10
-12.114619
 20
41.917576
 30
0.0
  0
VERTEX
  8
0
 10
-12.462392
 20
41.487534
 30
0.0
  0
VERTEX
  8
0
 10
-12.761199
 20
40.996643
 30
0.0
  0
VERTEX
  8
0
 10
-13.008766
 20
40.448639
 30
0.0
  0
VERTEX
  8
0
 10
-13.203209
 20
39.847698
 30
0.0
  0
VERTEX
  8
0
 10
-13.343049
 20
39.198387
 30
0.0
  0
VERTEX
  8
0
 10
-13.427221
 20
38.505653
 30
0.0
  0
VERTEX
  8
0
 10
-13.455084
 20
37.774761
 30
0.0
  0
SEQEND
  8
0
  0
POLYLINE
  8
0
 62
     7
 66
     1
 10
0.0
 20
0.0
 30
0.0
 71
    10
  0
VERTEX
  8
0
 10
-10.360748
 20
42.954643
 30
0.0
  0
VERTEX
  8
0
 10
-10.469395
 20
42.925583
 30
0.0
  0
VERTEX
  8
0
 10
-10.576581
 20
42.893425
 30
0.0
  0
VERTEX
  8
0
 10
-10.682272
 20
42.858177
 30
0.0
  0
VERTEX
  8
0
 10
-10.786434
 20
42.819851
 30
0.0
  0
VERTEX
  8
0
 10
-10.889031
 20
42.778458
 30
0.0
  0
VERTEX
  8
0
 10
-10.990031
 20
42.734016
 30
0.0
  0
VERTEX
  8
0
 10
-11.0894
 20
42.686531
 30
0.0
  0
VERTEX
  8
0
 10
-11.187105
 20
42.636024
 30
0.0
  0
VERTEX
  8
0
 10
-11.283115
 20
42.582516
 30
0.0
  0
SEQEND
  8
0
  0
LINE
  8
0
 62
     7
 10
9.432171
 20
54.396103
 30
0.0
 11
10.756322
 21
54.729113
 31
0.0
210
0.0
220
0.0
230
1.0
  0
LINE
  8
0
 62
     7
 10
-10.360748
 20
42.954642
 30
0.0
 11
-9.036597
 21
43.287652
 31
0.0
210
0.0
220
0.0
230
1.0
  0
LINE
  8
0
 62
     7
 10
13.423205
 20
22.275592
 30
0.0
 11
33.216124
 21
33.717053
 31
0.0
210
0.0
220
0.0
230
1.0
  0
POLYLINE
  8
0
 62
     7
 66
     1
 10
0.0
 20
0.0
 30
0.0
 71
    10
  0
VERTEX
  8
0
 10
33.216125
 20
33.717052
 30
0.0
  0
VERTEX
  8
0
 10
33.174435
 20
34.642712
 30
0.0
  0
VERTEX
  8
0
 10
33.050785
 20
35.605629
 30
0.0
  0
VERTEX
  8
0
 10
32.84655
 20
36.595112
 30
0.0
  0
VERTEX
  8
0
 10
32.563995
 20
37.600182
 30
0.0
  0
VERTEX
  8
0
 10
32.206257
 20
38.609688
 30
0.0
  0
VERTEX
  8
0
 10
31.777306
 20
39.612427
 30
0.0
  0
VERTEX
  8
0
 10
31.281898
 20
40.597263
 30
0.0
  0
VERTEX
  8
0
 10
30.725536
 20
41.553276
 30
0.0
  0
VERTEX
  8
0
 10
30.114391
 20
42.469852
 30
0.0
  0
SEQEND
  8
0
  0
POLYLINE
  8
0
 62
     7
 66
     1
 10
0.0
 20
0.0
 30
0.0
 71
    10
  0
VERTEX
  8
0
 10
13.423204
 20
22.275593
 30
0.0
  0
VERTEX
  8
0
 10
13.381516
 20
23.201254
 30
0.0
  0
VERTEX
  8
0
 10
13.257868
 20
24.164167
 30
0.0
  0
VERTEX
  8
0
 10
13.053633
 20
25.153652
 30
0.0
  0
VERTEX
  8
0
 10
12.771078
 20
26.158724
 30
0.0
  0
VERTEX
  8
0
 10
12.41334
 20
27.16823
 30
0.0
  0
VERTEX
  8
0
 10
11.984386
 20
28.170965
 30
0.0
  0
VERTEX
  8
0
 10
11.488979
 20
29.155804
 30
0.0
  0
VERTEX
  8
0
 10
10.932617
 20
30.111816
 30
0.0
  0
VERTEX
  8
0
 10
10.321472
 20
31.028393
 30
0.0
  0
SEQEND
  8
0
  0
LINE
  8
0
 62
     7
 10
13.435891
 20
-1.621585
 30
0.0
 11
33.22881
 21
9.819876
 31
0.0
210
0.0
220
0.0
230
1.0
  0
LINE
  8
0
 62
     7
 10
33.216124
 20
33.717053
 30
0.0
 11
33.22881
 21
9.819876
 31
0.0
210
0.0
220
0.0
230
1.0
  0
LINE
  8
0
 62
     7
 10
13.423205
 20
22.275592
 30
0.0
 11
13.435891
 21
-1.621585
 31
0.0
210
0.0
220
0.0
230
1.0
  0
POLYLINE
  8
0
 62
     7
 66
     1
 10
0.0
 20
0.0
 30
0.0
 71
    10
  0
VERTEX
  8
0
 10
31.5739
 20
6.15678
 30
0.0
  0
VERTEX
  8
0
 10
31.907181
 20
6.384599
 30
0.0
  0
VERTEX
  8
0
 10
32.207455
 20
6.663395
 30
0.0
  0
VERTEX
  8
0
 10
32.472435
 20
6.991047
 30
0.0
  0
VERTEX
  8
0
 10
32.700111
 20
7.365062
 30
0.0
  0
VERTEX
  8
0
 10
32.888741
 20
7.782592
 30
0.0
  0
VERTEX
  8
0
 10
33.036896
 20
8.240461
 30
0.0
  0
VERTEX
  8
0
 10
33.143444
 20
8.735184
 30
0.0
  0
VERTEX
  8
0
 10
33.207581
 20
9.262994
 30
0.0
  0
VERTEX
  8
0
 10
33.228809
 20
9.819877
 30
0.0
  0
SEQEND
  8
0
  0
POLYLINE
  8
0
 62
     7
 66
     1
 10
0.0
 20
0.0
 30
0.0
 71
    10
  0
VERTEX
  8
0
 10
11.780981
 20
-5.284681
 30
0.0
  0
VERTEX
  8
0
 10
12.114263
 20
-5.056863
 30
0.0
  0
VERTEX
  8
0
 10
12.414536
 20
-4.778067
 30
0.0
  0
VERTEX
  8
0
 10
12.679518
 20
-4.450414
 30
0.0
  0
VERTEX
  8
0
 10
12.907191
 20
-4.0764
 30
0.0
  0
VERTEX
  8
0
 10
13.095823
 20
-3.658869
 30
0.0
  0
VERTEX
  8
0
 10
13.243977
 20
-3.201
 30
0.0
  0
VERTEX
  8
0
 10
13.350527
 20
-2.706278
 30
0.0
  0
VERTEX
  8
0
 10
13.414661
 20
-2.178467
 30
0.0
  0
VERTEX
  8
0
 10
13.435892
 20
-1.621585
 30
0.0
  0
SEQEND
  8
0
  0
POLYLINE
  8
0
 62
     7
 66
     1
 10
0.0
 20
0.0
 30
0.0
 71
    10
  0
VERTEX
  8
0
 10
10.609601
 20
-5.646947
 30
0.0
  0
VERTEX
  8
0
 10
10.750881
 20
-5.631062
 30
0.0
  0
VERTEX
  8
0
 10
10.889646
 20
-5.609023
 30
0.0
  0
VERTEX
  8
0
 10
11.025777
 20
-5.580851
 30
0.0
  0
VERTEX
  8
0
 10
11.15916
 20
-5.546567
 30
0.0
  0
VERTEX
  8
0
 10
11.28968
 20
-5.506201
 30
0.0
  0
VERTEX
  8
0
 10
11.417231
 20
-5.459788
 30
0.0
  0
VERTEX
  8
0
 10
11.5417
 20
-5.407367
 30
0.0
  0
VERTEX
  8
0
 10
11.662985
 20
-5.348981
 30
0.0
  0
VERTEX
  8
0
 10
11.780981
 20
-5.284681
 30
0.0
  0
SEQEND
  8
0
  0
LINE
  8
0
 62
     7
 10
10.609601
 20
-5.646947
 30
0.0
 11
4.245943
 21
-6.218732
 31
0.0
210
0.0
220
0.0
230
1.0
  0
POLYLINE
  8
0
 62
     7
 66
     1
 10
0.0
 20
0.0
 30
0.0
 71
    10
  0
VERTEX
  8
0
 10
-4.241938
 20
-1.324257
 30
0.0
  0
VERTEX
  8
0
 10
-3.359604
 20
-2.344255
 30
0.0
  0
VERTEX
  8
0
 10
-2.431871
 20
-3.268804
 30
0.0
  0
VERTEX
  8
0
 10
-1.471285
 20
-4.085403
 30
0.0
  0
VERTEX
  8
0
 10
-0.490836
 20
-4.783007
 30
0.0
  0
VERTEX
  8
0
 10
0.496217
 20
-5.352184
 30
0.0
  0
VERTEX
  8
0
 10
1.476525
 20
-5.785236
 30
0.0
  0
VERTEX
  8
0
 10
2.436832
 20
-6.076306
 30
0.0
  0
VERTEX
  8
0
 10
3.364151
 20
-6.221459
 30
0.0
  0
VERTEX
  8
0
 10
4.245943
 20
-6.218731
 30
0.0
  0
SEQEND
  8
0
  0
LINE
  8
0
 62
     7
 10
-4.241938
 20
-1.324258
 30
0.0
 11
-10.610101
 21
6.589238
 31
0.0
210
0.0
220
0.0
230
1.0
  0
POLYLINE
  8
0
 62
     7
 66
     1
 10
0.0
 20
0.0
 30
0.0
 71
    10
  0
VERTEX
  8
0
 10
-13.442398
 20
13.877583
 30
0.0
  0
VERTEX
  8
0
 10
-13.403734
 20
13.097204
 30
0.0
  0
VERTEX
  8
0
 10
-13.28907
 20
12.283253
 30
0.0
  0
VERTEX
  8
0
 10
-13.099957
 20
11.446735
 30
0.0
  0
VERTEX
  8
0
 10
-12.838953
 20
10.598965
 30
0.0
  0
VERTEX
  8
0
 10
-12.509586
 20
9.751406
 30
0.0
  0
VERTEX
  8
0
 10
-12.116311
 20
8.91552
 30
0.0
  0
VERTEX
  8
0
 10
-11.664447
 20
8.102611
 30
0.0
  0
VERTEX
  8
0
 10
-11.160103
 20
7.323672
 30
0.0
  0
VERTEX
  8
0
 10
-10.610102
 20
6.589238
 30
0.0
  0
SEQEND
  8
0
  0
POLYLINE
  8
0
 62
     7
 66
     1
 10
0.0
 20
0.0
 30
0.0
 71
    12
  0
VERTEX
  8
0
 10
9.957928
 20
23.131073
 30
0.0
  0
VERTEX
  8
0
 10
9.9405
 20
23.419916
 30
0.0
  0
VERTEX
  8
0
 10
9.88887
 20
23.722807
 30
0.0
  0
VERTEX
  8
0
 10
9.804089
 20
24.033577
 30
0.0
  0
VERTEX
  8
0
 10
9.687881
 20
24.345905
 30
0.0
  0
VERTEX
  8
0
 10
9.542612
 20
24.653429
 30
0.0
  0
VERTEX
  8
0
 10
9.371241
 20
24.949888
 30
0.0
  0
VERTEX
  8
0
 10
9.177255
 20
25.229252
 30
0.0
  0
VERTEX
  8
0
 10
8.964603
 20
25.485828
 30
0.0
  0
VERTEX
  8
0
 10
8.737616
 20
25.714396
 30
0.0
  0
VERTEX
  8
0
 10
8.500912
 20
25.910303
 30
0.0
  0
VERTEX
  8
0
 10
8.259311
 20
26.069559
 30
0.0
  0
SEQEND
  8
0
  0
LINE
  8
0
 62
     7
 10
8.259311
 20
26.069561
 30
0.0
 11
-8.292057
 21
35.613785
 31
0.0
210
0.0
220
0.0
230
1.0
  0
POLYLINE
  8
0
 62
     7
 66
     1
 10
0.0
 20
0.0
 30
0.0
 71
    10
  0
VERTEX
  8
0
 10
-8.292057
 20
35.613785
 30
0.0
  0
VERTEX
  8
0
 10
-8.440006
 20
35.691647
 30
0.0
  0
VERTEX
  8
0
 10
-8.586823
 20
35.753998
 30
0.0
  0
VERTEX
  8
0
 10
-8.731386
 20
35.800369
 30
0.0
  0
VERTEX
  8
0
 10
-8.8726
 20
35.83041
 30
0.0
  0
VERTEX
  8
0
 10
-9.009386
 20
35.843887
 30
0.0
  0
VERTEX
  8
0
 10
-9.140705
 20
35.840698
 30
0.0
  0
VERTEX
  8
0
 10
-9.265558
 20
35.820869
 30
0.0
  0
VERTEX
  8
0
 10
-9.382995
 20
35.78455
 30
0.0
  0
VERTEX
  8
0
 10
-9.49212
 20
35.732018
 30
0.0
  0
SEQEND
  8
0
  0
POLYLINE
  8
0
 62
     7
 66
     1
 10
0.0
 20
0.0
 30
0.0
 71
    10
  0
VERTEX
  8
0
 10
-9.49212
 20
35.732018
 30
0.0
  0
VERTEX
  8
0
 10
-9.592104
 20
35.663673
 30
0.0
  0
VERTEX
  8
0
 10
-9.682186
 20
35.580032
 30
0.0
  0
VERTEX
  8
0
 10
-9.761681
 20
35.481739
 30
0.0
  0
VERTEX
  8
0
 10
-9.829983
 20
35.369534
 30
0.0
  0
VERTEX
  8
0
 10
-9.886572
 20
35.244274
 30
0.0
  0
VERTEX
  8
0
 10
-9.931019
 20
35.106915
 30
0.0
  0
VERTEX
  8
0
 10
-9.962983
 20
34.958496
 30
0.0
  0
VERTEX
  8
0
 10
-9.982224
 20
34.800152
 30
0.0
  0
VERTEX
  8
0
 10
-9.988593
 20
34.633087
 30
0.0
  0
SEQEND
  8
0
  0
LINE
  8
0
 62
     7
 10
3.85979
 20
0.016087
 30
0.0
 11
5.505477
 21
0.967391
 31
0.0
210
0.0
220
0.0
230
1.0
  0
LINE
  8
0
 62
     7
 10
-11.283116
 20
42.582516
 30
0.0
 11
3.116857
 21
50.906539
 31
0.0
210
0.0
220
0.0
230
1.0
  0
LINE
  8
0
 62
     7
 10
5.897145
 20
52.513708
 30
0.0
 11
8.509803
 21
54.023977
 31
0.0
210
0.0
220
0.0
230
1.0
  0
LINE
  8
0
 62
     7
 10
11.780982
 20
-5.284681
 30
0.0
 11
31.573901
 21
6.15678
 31
0.0
210
0.0
220
0.0
230
1.0
  0
LINE
  8
0
 62
     7
 10
13.150795
 20
50.738332
 30
0.0
 11
13.152784
 21
46.991899
 31
0.0
210
0.0
220
0.0
230
1.0
  0
POLYLINE
  8
0
 62
     7
 66
     1
 10
0.0
 20
0.0
 30
0.0
 71
    26
  0
VERTEX
  8
0
 10
13.150795
 20
50.738331
 30
0.0
  0
VERTEX
  8
0
 10
12.93926
 20
50.684799
 30
0.0
  0
VERTEX
  8
0
 10
12.736643
 20
50.639896
 30
0.0
  0
VERTEX
  8
0
 10
12.54173
 20
50.602928
 30
0.0
  0
VERTEX
  8
0
 10
12.353521
 20
50.573349
 30
0.0
  0
VERTEX
  8
0
 10
12.17113
 20
50.550724
 30
0.0
  0
VERTEX
  8
0
 10
11.981117
 20
50.53381
 30
0.0
  0
VERTEX
  8
0
 10
11.795916
 20
50.524117
 30
0.0
  0
VERTEX
  8
0
 10
11.614627
 20
50.521362
 30
0.0
  0
VERTEX
  8
0
 10
11.436353
 20
50.525322
 30
0.0
  0
VERTEX
  8
0
 10
11.260221
 20
50.535866
 30
0.0
  0
VERTEX
  8
0
 10
11.085413
 20
50.552929
 30
0.0
  0
VERTEX
  8
0
 10
10.911197
 20
50.576519
 30
0.0
  0
VERTEX
  8
0
 10
10.748714
 20
50.604458
 30
0.0
  0
VERTEX
  8
0
 10
10.58561
 20
50.638256
 30
0.0
  0
VERTEX
  8
0
 10
10.421287
 20
50.678093
 30
0.0
  0
VERTEX
  8
0
 10
10.255143
 20
50.724209
 30
0.0
  0
VERTEX
  8
0
 10
10.086604
 20
50.776886
 30
0.0
  0
VERTEX
  8
0
 10
9.915096
 20
50.836452
 30
0.0
  0
VERTEX
  8
0
 10
9.740041
 20
50.903278
 30
0.0
  0
VERTEX
  8
0
 10
9.560606
 20
50.977879
 30
0.0
  0
VERTEX
  8
0
 10
9.375817
 20
51.060879
 30
0.0
  0
VERTEX
  8
0
 10
9.184664
 20
51.152981
 30
0.0
  0
VERTEX
  8
0
 10
9.019775
 20
51.237278
 30
0.0
  0
VERTEX
  8
0
 10
8.849221
 20
51.328972
 30
0.0
  0
VERTEX
  8
0
 10
8.672277
 20
51.428726
 30
0.0
  0
SEQEND
  8
0
  0
LINE
  8
0
 62
     7
 10
8.672277
 20
51.428727
 30
0.0
 11
8.675022
 21
46.257804
 31
0.0
210
0.0
220
0.0
230
1.0
  0
POLYLINE
  8
0
 62
     7
 66
     1
 10
0.0
 20
0.0
 30
0.0
 71
    25
  0
VERTEX
  8
0
 10
8.672277
 20
51.428726
 30
0.0
  0
VERTEX
  8
0
 10
8.479245
 20
51.210712
 30
0.0
  0
VERTEX
  8
0
 10
8.296536
 20
51.014214
 30
0.0
  0
VERTEX
  8
0
 10
8.122534
 20
50.836647
 30
0.0
  0
VERTEX
  8
0
 10
7.955637
 20
50.675728
 30
0.0
  0
VERTEX
  8
0
 10
7.794333
 20
50.529491
 30
0.0
  0
VERTEX
  8
0
 10
7.637257
 20
50.396309
 30
0.0
  0
VERTEX
  8
0
 10
7.483265
 20
50.274899
 30
0.0
  0
VERTEX
  8
0
 10
7.331502
 20
50.164349
 30
0.0
  0
VERTEX
  8
0
 10
7.182055
 20
50.06448
 30
0.0
  0
VERTEX
  8
0
 10
7.033427
 20
49.974113
 30
0.0
  0
VERTEX
  8
0
 10
6.884759
 20
49.892685
 30
0.0
  0
VERTEX
  8
0
 10
6.810143
 20
49.85519
 30
0.0
  0
VERTEX
  8
0
 10
6.735195
 20
49.819782
 30
0.0
  0
VERTEX
  8
0
 10
6.634569
 20
49.77578
 30
0.0
  0
VERTEX
  8
0
 10
6.532919
 20
49.73539
 30
0.0
  0
VERTEX
  8
0
 10
6.430003
 20
49.698597
 30
0.0
  0
VERTEX
  8
0
 10
6.3045
 20
49.659191
 30
0.0
  0
VERTEX
  8
0
 10
6.176373
 20
49.624992
 30
0.0
  0
VERTEX
  8
0
 10
6.045018
 20
49.596039
 30
0.0
  0
VERTEX
  8
0
 10
5.909733
 20
49.572392
 30
0.0
  0
VERTEX
  8
0
 10
5.769794
 20
49.554188
 30
0.0
  0
VERTEX
  8
0
 10
5.649207
 20
49.543346
 30
0.0
  0
VERTEX
  8
0
 10
5.524476
 20
49.53664
 30
0.0
  0
VERTEX
  8
0
 10
5.395049
 20
49.534298
 30
0.0
  0
SEQEND
  8
0
  0
POLYLINE
  8
0
 62
     7
 66
     1
 10
0.0
 20
0.0
 30
0.0
 71
    20
  0
VERTEX
  8
0
 10
5.395049
 20
49.534298
 30
0.0
  0
VERTEX
  8
0
 10
5.492288
 20
49.181904
 30
0.0
  0
VERTEX
  8
0
 10
5.590104
 20
48.848328
 30
0.0
  0
VERTEX
  8
0
 10
5.687698
 20
48.538647
 30
0.0
  0
VERTEX
  8
0
 10
5.773934
 20
48.286129
 30
0.0
  0
VERTEX
  8
0
 10
5.86008
 20
48.054905
 30
0.0
  0
VERTEX
  8
0
 10
5.903125
 20
47.947521
 30
0.0
  0
VERTEX
  8
0
 10
5.946156
 20
47.845695
 30
0.0
  0
VERTEX
  8
0
 10
6.010687
 20
47.703438
 30
0.0
  0
VERTEX
  8
0
 10
6.075216
 20
47.573727
 30
0.0
  0
VERTEX
  8
0
 10
6.139757
 20
47.456448
 30
0.0
  0
VERTEX
  8
0
 10
6.204319
 20
47.351383
 30
0.0
  0
VERTEX
  8
0
 10
6.273545
 20
47.251972
 30
0.0
  0
VERTEX
  8
0
 10
6.308083
 20
47.207325
 30
0.0
  0
VERTEX
  8
0
 10
6.342592
 20
47.165916
 30
0.0
  0
VERTEX
  8
0
 10
6.388626
 20
47.115479
 30
0.0
  0
VERTEX
  8
0
 10
6.43475
 20
47.070206
 30
0.0
  0
VERTEX
  8
0
 10
6.480956
 20
47.029846
 30
0.0
  0
VERTEX
  8
0
 10
6.538716
 20
46.986088
 30
0.0
  0
VERTEX
  8
0
 10
6.596338
 20
46.949474
 30
0.0
  0
SEQEND
  8
0
  0
POLYLINE
  8
0
 62
     7
 66
     1
 10
0.0
 20
0.0
 30
0.0
 71
    13
  0
VERTEX
  8
0
 10
12.917672
 20
46.82552
 30
0.0
  0
VERTEX
  8
0
 10
13.039155
 20
46.908737
 30
0.0
  0
VERTEX
  8
0
 10
13.160667
 20
46.997868
 30
0.0
  0
VERTEX
  8
0
 10
13.282215
 20
47.092823
 30
0.0
  0
VERTEX
  8
0
 10
13.408204
 20
47.197247
 30
0.0
  0
VERTEX
  8
0
 10
13.53396
 20
47.307411
 30
0.0
  0
VERTEX
  8
0
 10
13.65954
 20
47.423153
 30
0.0
  0
VERTEX
  8
0
 10
13.749795
 20
47.509762
 30
0.0
  0
VERTEX
  8
0
 10
13.84016
 20
47.599232
 30
0.0
  0
VERTEX
  8
0
 10
13.9386
 20
47.699707
 30
0.0
  0
VERTEX
  8
0
 10
14.037156
 20
47.803322
 30
0.0
  0
VERTEX
  8
0
 10
14.194805
 20
47.975094
 30
0.0
  0
VERTEX
  8
0
 10
14.352084
 20
48.153507
 30
0.0
  0
SEQEND
  8
0
  0
POLYLINE
  8
0
 62
     7
 66
     1
 10
0.0
 20
0.0
 30
0.0
 71
    21
  0
VERTEX
  8
0
 10
14.352084
 20
48.153507
 30
0.0
  0
VERTEX
  8
0
 10
14.288522
 20
48.194283
 30
0.0
  0
VERTEX
  8
0
 10
14.227921
 20
48.24118
 30
0.0
  0
VERTEX
  8
0
 10
14.16979
 20
48.29398
 30
0.0
  0
VERTEX
  8
0
 10
14.113768
 20
48.352531
 30
0.0
  0
VERTEX
  8
0
 10
14.078953
 20
48.392902
 30
0.0
  0
VERTEX
  8
0
 10
14.044811
 20
48.435585
 30
0.0
  0
VERTEX
  8
0
 10
14.008365
 20
48.484646
 30
0.0
  0
VERTEX
  8
0
 10
13.972537
 20
48.536495
 30
0.0
  0
VERTEX
  8
0
 10
13.905149
 20
48.64399
 30
0.0
  0
VERTEX
  8
0
 10
13.83897
 20
48.762547
 30
0.0
  0
VERTEX
  8
0
 10
13.773417
 20
48.892876
 30
0.0
  0
VERTEX
  8
0
 10
13.707979
 20
49.035847
 30
0.0
  0
VERTEX
  8
0
 10
13.664375
 20
49.138241
 30
0.0
  0
VERTEX
  8
0
 10
13.620469
 20
49.247066
 30
0.0
  0
VERTEX
  8
0
 10
13.575714
 20
49.363846
 30
0.0
  0
VERTEX
  8
0
 10
13.530347
 20
49.488171
 30
0.0
  0
VERTEX
  8
0
 10
13.443035
 20
49.743771
 30
0.0
  0
VERTEX
  8
0
 10
13.352151
 20
50.031528
 30
0.0
  0
VERTEX
  8
0
 10
13.255543
 20
50.359573
 30
0.0
  0
VERTEX
  8
0
 10
13.150795
 20
50.738331
 30
0.0
  0
SEQEND
  8
0
  0
POLYLINE
  8
0
 62
     7
 66
     1
 10
0.0
 20
0.0
 30
0.0
 71
    33
  0
VERTEX
  8
0
 10
14.352084
 20
48.153507
 30
0.0
  0
VERTEX
  8
0
 10
14.470211
 20
48.496967
 30
0.0
  0
VERTEX
  8
0
 10
14.509689
 20
48.846363
 30
0.0
  0
VERTEX
  8
0
 10
14.469841
 20
49.195717
 30
0.0
  0
VERTEX
  8
0
 10
14.351349
 20
49.539051
 30
0.0
  0
VERTEX
  8
0
 10
14.15624
 20
49.870491
 30
0.0
  0
VERTEX
  8
0
 10
13.887856
 20
50.184368
 30
0.0
  0
VERTEX
  8
0
 10
13.550785
 20
50.475307
 30
0.0
  0
VERTEX
  8
0
 10
13.150795
 20
50.738331
 30
0.0
  0
VERTEX
  8
0
 10
12.694732
 20
50.968945
 30
0.0
  0
VERTEX
  8
0
 10
12.190397
 20
51.163193
 30
0.0
  0
VERTEX
  8
0
 10
11.646421
 20
51.31776
 30
0.0
  0
VERTEX
  8
0
 10
11.072111
 20
51.43
 30
0.0
  0
VERTEX
  8
0
 10
10.477293
 20
51.49799
 30
0.0
  0
VERTEX
  8
0
 10
9.872146
 20
51.520569
 30
0.0
  0
VERTEX
  8
0
 10
9.267022
 20
51.497349
 30
0.0
  0
VERTEX
  8
0
 10
8.672277
 20
51.428726
 30
0.0
  0
VERTEX
  8
0
 10
8.098086
 20
51.31588
 30
0.0
  0
VERTEX
  8
0
 10
7.554275
 20
51.160732
 30
0.0
  0
VERTEX
  8
0
 10
7.050147
 20
50.965946
 30
0.0
  0
VERTEX
  8
0
 10
6.594329
 20
50.734852
 30
0.0
  0
VERTEX
  8
0
 10
6.194619
 20
50.471401
 30
0.0
  0
VERTEX
  8
0
 10
5.857857
 20
50.180103
 30
0.0
  0
VERTEX
  8
0
 10
5.589805
 20
49.865944
 30
0.0
  0
VERTEX
  8
0
 10
5.395049
 20
49.534298
 30
0.0
  0
VERTEX
  8
0
 10
5.276922
 20
49.190838
 30
0.0
  0
VERTEX
  8
0
 10
5.237444
 20
48.841442
 30
0.0
  0
VERTEX
  8
0
 10
5.277293
 20
48.492088
 30
0.0
  0
VERTEX
  8
0
 10
5.395784
 20
48.148754
 30
0.0
  0
VERTEX
  8
0
 10
5.590892
 20
47.817314
 30
0.0
  0
VERTEX
  8
0
 10
5.859278
 20
47.503437
 30
0.0
  0
VERTEX
  8
0
 10
6.196349
 20
47.212498
 30
0.0
  0
VERTEX
  8
0
 10
6.596338
 20
46.949474
 30
0.0
  0
SEQEND
  8
0
  0
POLYLINE
  8
0
 62
     7
 66
     1
 10
0.0
 20
0.0
 30
0.0
 71
    12
  0
VERTEX
  8
0
 10
6.596338
 20
46.949474
 30
0.0
  0
VERTEX
  8
0
 10
7.096375
 20
46.699646
 30
0.0
  0
VERTEX
  8
0
 10
7.652947
 20
46.493473
 30
0.0
  0
VERTEX
  8
0
 10
8.254725
 20
46.335144
 30
0.0
  0
VERTEX
  8
0
 10
8.889456
 20
46.227886
 30
0.0
  0
VERTEX
  8
0
 10
9.54422
 20
46.173882
 30
0.0
  0
VERTEX
  8
0
 10
10.205689
 20
46.174229
 30
0.0
  0
VERTEX
  8
0
 10
10.860397
 20
46.228924
 30
0.0
  0
VERTEX
  8
0
 10
11.495016
 20
46.336853
 30
0.0
  0
VERTEX
  8
0
 10
12.096628
 20
46.495815
 30
0.0
  0
VERTEX
  8
0
 10
12.652986
 20
46.702576
 30
0.0
  0
VERTEX
  8
0
 10
13.152763
 20
46.95293
 30
0.0
  0
SEQEND
  8
0
  0
POLYLINE
  8
0
 62
     7
 66
     1
 10
0.0
 20
0.0
 30
0.0
 71
    10
  0
VERTEX
  8
0
 10
13.152763
 20
46.95293
 30
0.0
  0
VERTEX
  8
0
 10
13.337776
 20
47.06628
 30
0.0
  0
VERTEX
  8
0
 10
13.511066
 20
47.18565
 30
0.0
  0
VERTEX
  8
0
 10
13.672049
 20
47.310627
 30
0.0
  0
VERTEX
  8
0
 10
13.820176
 20
47.440796
 30
0.0
  0
VERTEX
  8
0
 10
13.95495
 20
47.57571
 30
0.0
  0
VERTEX
  8
0
 10
14.075912
 20
47.714916
 30
0.0
  0
VERTEX
  8
0
 10
14.182655
 20
47.857941
 30
0.0
  0
VERTEX
  8
0
 10
14.274817
 20
48.004303
 30
0.0
  0
VERTEX
  8
0
 10
14.352084
 20
48.153507
 30
0.0
  0
SEQEND
  8
0
  0
POLYLINE
  8
0
 62
     7
 66
     1
 10
0.0
 20
0.0
 30
0.0
 71
    24
  0
VERTEX
  8
0
 10
4.571892
 20
45.779224
 30
0.0
  0
VERTEX
  8
0
 10
5.343626
 20
45.391232
 30
0.0
  0
VERTEX
  8
0
 10
6.199744
 20
45.067551
 30
0.0
  0
VERTEX
  8
0
 10
7.124299
 20
44.81422
 30
0.0
  0
VERTEX
  8
0
 10
8.100067
 20
44.635952
 30
0.0
  0
VERTEX
  8
0
 10
9.108872
 20
44.536072
 30
0.0
  0
VERTEX
  8
0
 10
10.131923
 20
44.516438
 30
0.0
  0
VERTEX
  8
0
 10
11.15016
 20
44.577415
 30
0.0
  0
VERTEX
  8
0
 10
12.144616
 20
44.717869
 30
0.0
  0
VERTEX
  8
0
 10
13.096767
 20
44.935184
 30
0.0
  0
VERTEX
  8
0
 10
13.988877
 20
45.225311
 30
0.0
  0
VERTEX
  8
0
 10
14.804326
 20
45.582848
 30
0.0
  0
VERTEX
  8
0
 10
15.527924
 20
46.001129
 30
0.0
  0
VERTEX
  8
0
 10
16.146193
 20
46.472366
 30
0.0
  0
VERTEX
  8
0
 10
16.647614
 20
46.987782
 30
0.0
  0
VERTEX
  8
0
 10
17.022846
 20
47.537773
 30
0.0
  0
VERTEX
  8
0
 10
17.264902
 20
48.112091
 30
0.0
  0
VERTEX
  8
0
 10
17.369272
 20
48.700047
 30
0.0
  0
VERTEX
  8
0
 10
17.334011
 20
49.29068
 30
0.0
  0
VERTEX
  8
0
 10
17.159775
 20
49.87299
 30
0.0
  0
VERTEX
  8
0
 10
16.849812
 20
50.436131
 30
0.0
  0
VERTEX
  8
0
 10
16.409893
 20
50.969612
 30
0.0
  0
VERTEX
  8
0
 10
15.848215
 20
51.463493
 30
0.0
  0
VERTEX
  8
0
 10
15.175241
 20
51.908581
 30
0.0
  0
SEQEND
  8
0
  0
POLYLINE
  8
0
 62
     7
 66
     1
 10
0.0
 20
0.0
 30
0.0
 71
    12
  0
VERTEX
  8
0
 10
15.175241
 20
51.908581
 30
0.0
  0
VERTEX
  8
0
 10
14.366308
 20
52.312733
 30
0.0
  0
VERTEX
  8
0
 10
13.465916
 20
52.646271
 30
0.0
  0
VERTEX
  8
0
 10
12.492393
 20
52.902405
 30
0.0
  0
VERTEX
  8
0
 10
11.46556
 20
53.07592
 30
0.0
  0
VERTEX
  8
0
 10
10.406318
 20
53.16328
 30
0.0
  0
VERTEX
  8
0
 10
9.33623
 20
53.162712
 30
0.0
  0
VERTEX
  8
0
 10
8.277081
 20
53.074226
 30
0.0
  0
VERTEX
  8
0
 10
7.250432
 20
52.89962
 30
0.0
  0
VERTEX
  8
0
 10
6.277183
 20
52.642456
 30
0.0
  0
VERTEX
  8
0
 10
5.377144
 20
52.307961
 30
0.0
  0
VERTEX
  8
0
 10
4.568641
 20
51.90295
 30
0.0
  0
SEQEND
  8
0
  0
POLYLINE
  8
0
 62
     7
 66
     1
 10
0.0
 20
0.0
 30
0.0
 71
    12
  0
VERTEX
  8
0
 10
4.568641
 20
51.90295
 30
0.0
  0
VERTEX
  8
0
 10
3.868131
 20
51.435661
 30
0.0
  0
VERTEX
  8
0
 10
3.289874
 20
50.915615
 30
0.0
  0
VERTEX
  8
0
 10
2.845641
 20
50.353397
 30
0.0
  0
VERTEX
  8
0
 10
2.544477
 20
49.760448
 30
0.0
  0
VERTEX
  8
0
 10
2.392513
 20
49.148838
 30
0.0
  0
VERTEX
  8
0
 10
2.392841
 20
48.531025
 30
0.0
  0
VERTEX
  8
0
 10
2.545455
 20
47.919579
 30
0.0
  0
VERTEX
  8
0
 10
2.847248
 20
47.326946
 30
0.0
  0
VERTEX
  8
0
 10
3.292077
 20
46.765198
 30
0.0
  0
VERTEX
  8
0
 10
3.870886
 20
46.245766
 30
0.0
  0
VERTEX
  8
0
 10
4.571892
 20
45.779224
 30
0.0
  0
SEQEND
  8
0
  0
LINE
  8
0
 62
     7
 10
15.175241
 20
51.90858
 30
0.0
 11
15.528903
 21
51.704643
 31
0.0
210
0.0
220
0.0
230
1.0
  0
POLYLINE
  8
0
 62
     7
 66
     1
 10
0.0
 20
0.0
 30
0.0
 71
    10
  0
VERTEX
  8
0
 10
17.873783
 20
48.439899
 30
0.0
  0
VERTEX
  8
0
 10
17.843126
 20
48.842438
 30
0.0
  0
VERTEX
  8
0
 10
17.751818
 20
49.241882
 30
0.0
  0
VERTEX
  8
0
 10
17.600554
 20
49.635189
 30
0.0
  0
VERTEX
  8
0
 10
17.390484
 20
50.019367
 30
0.0
  0
VERTEX
  8
0
 10
17.123207
 20
50.391491
 30
0.0
  0
VERTEX
  8
0
 10
16.800758
 20
50.748734
 30
0.0
  0
VERTEX
  8
0
 10
16.425592
 20
51.088367
 30
0.0
  0
VERTEX
  8
0
 10
16.000561
 20
51.407814
 30
0.0
  0
VERTEX
  8
0
 10
15.528903
 20
51.704643
 30
0.0
  0
SEQEND
  8
0
  0
POLYLINE
  8
0
 62
     7
 66
     1
 10
0.0
 20
0.0
 30
0.0
 71
    10
  0
VERTEX
  8
0
 10
15.532371
 20
45.172672
 30
0.0
  0
VERTEX
  8
0
 10
16.003714
 20
45.469997
 30
0.0
  0
VERTEX
  8
0
 10
16.428406
 20
45.789898
 30
0.0
  0
VERTEX
  8
0
 10
16.803211
 20
46.129932
 30
0.0
  0
VERTEX
  8
0
 10
17.12528
 20
46.487514
 30
0.0
  0
VERTEX
  8
0
 10
17.392162
 20
46.859921
 30
0.0
  0
VERTEX
  8
0
 10
17.601824
 20
47.244324
 30
0.0
  0
VERTEX
  8
0
 10
17.75267
 20
47.637791
 30
0.0
  0
VERTEX
  8
0
 10
17.843554
 20
48.037331
 30
0.0
  0
VERTEX
  8
0
 10
17.873783
 20
48.439899
 30
0.0
  0
SEQEND
  8
0
  0
LINE
  8
0
 62
     7
 10
4.215196
 20
51.698637
 30
0.0
 11
4.568641
 21
51.902949
 31
0.0
210
0.0
220
0.0
230
1.0
  0
POLYLINE
  8
0
 62
     7
 66
     1
 10
0.0
 20
0.0
 30
0.0
 71
    18
  0
VERTEX
  8
0
 10
1.873784
 20
48.431408
 30
0.0
  0
VERTEX
  8
0
 10
1.95084
 20
47.793331
 30
0.0
  0
VERTEX
  8
0
 10
2.17985
 20
47.167572
 30
0.0
  0
VERTEX
  8
0
 10
2.556424
 20
46.566139
 30
0.0
  0
VERTEX
  8
0
 10
3.073338
 20
46.000557
 30
0.0
  0
VERTEX
  8
0
 10
3.720679
 20
45.481682
 30
0.0
  0
VERTEX
  8
0
 10
4.486031
 20
45.019459
 30
0.0
  0
VERTEX
  8
0
 10
5.354715
 20
44.622753
 30
0.0
  0
VERTEX
  8
0
 10
6.310072
 20
44.299179
 30
0.0
  0
VERTEX
  8
0
 10
7.333777
 20
44.054939
 30
0.0
  0
VERTEX
  8
0
 10
8.406198
 20
43.894714
 30
0.0
  0
VERTEX
  8
0
 10
9.506764
 20
43.821587
 30
0.0
  0
VERTEX
  8
0
 10
10.614371
 20
43.836948
 30
0.0
  0
VERTEX
  8
0
 10
11.707774
 20
43.94051
 30
0.0
  0
VERTEX
  8
0
 10
12.766003
 20
44.130283
 30
0.0
  0
VERTEX
  8
0
 10
13.768761
 20
44.402634
 30
0.0
  0
VERTEX
  8
0
 10
14.696816
 20
44.752331
 30
0.0
  0
VERTEX
  8
0
 10
15.532371
 20
45.172672
 30
0.0
  0
SEQEND
  8
0
  0
POLYLINE
  8
0
 62
     7
 66
     1
 10
0.0
 20
0.0
 30
0.0
 71
    10
  0
VERTEX
  8
0
 10
4.215196
 20
51.698635
 30
0.0
  0
VERTEX
  8
0
 10
3.743852
 20
51.40131
 30
0.0
  0
VERTEX
  8
0
 10
3.319161
 20
51.081409
 30
0.0
  0
VERTEX
  8
0
 10
2.944355
 20
50.741375
 30
0.0
  0
VERTEX
  8
0
 10
2.622285
 20
50.383793
 30
0.0
  0
VERTEX
  8
0
 10
2.355404
 20
50.011387
 30
0.0
  0
VERTEX
  8
0
 10
2.145743
 20
49.626984
 30
0.0
  0
VERTEX
  8
0
 10
1.994896
 20
49.233517
 30
0.0
  0
VERTEX
  8
0
 10
1.904013
 20
48.833977
 30
0.0
  0
VERTEX
  8
0
 10
1.873784
 20
48.431408
 30
0.0
  0
SEQEND
  8
0
  0
POLYLINE
  8
0
 62
     7
 66
     1
 10
0.0
 20
0.0
 30
0.0
 71
    12
  0
VERTEX
  8
0
 10
1.884121
 20
28.95911
 30
0.0
  0
VERTEX
  8
0
 10
1.963346
 20
28.312138
 30
0.0
  0
VERTEX
  8
0
 10
2.198772
 20
27.678007
 30
0.0
  0
VERTEX
  8
0
 10
2.585757
 20
27.069225
 30
0.0
  0
VERTEX
  8
0
 10
3.116668
 20
26.497795
 30
0.0
  0
VERTEX
  8
0
 10
3.781036
 20
25.974987
 30
0.0
  0
VERTEX
  8
0
 10
4.56576
 20
25.511112
 30
0.0
  0
VERTEX
  8
0
 10
5.455363
 20
25.115314
 30
0.0
  0
VERTEX
  8
0
 10
6.432304
 20
24.795404
 30
0.0
  0
VERTEX
  8
0
 10
7.477316
 20
24.557686
 30
0.0
  0
VERTEX
  8
0
 10
8.569791
 20
24.406851
 30
0.0
  0
VERTEX
  8
0
 10
9.688186
 20
24.345871
 30
0.0
  0
SEQEND
  8
0
  0
POLYLINE
  8
0
 62
     7
 66
     1
 10
0.0
 20
0.0
 30
0.0
 71
    10
  0
VERTEX
  8
0
 10
1.883904
 20
29.359459
 30
0.0
  0
VERTEX
  8
0
 10
1.877634
 20
29.31505
 30
0.0
  0
VERTEX
  8
0
 10
1.872103
 20
29.270611
 30
0.0
  0
VERTEX
  8
0
 10
1.867311
 20
29.226141
 30
0.0
  0
VERTEX
  8
0
 10
1.86326
 20
29.181648
 30
0.0
  0
VERTEX
  8
0
 10
1.85995
 20
29.137135
 30
0.0
  0
VERTEX
  8
0
 10
1.857381
 20
29.092606
 30
0.0
  0
VERTEX
  8
0
 10
1.855553
 20
29.048065
 30
0.0
  0
VERTEX
  8
0
 10
1.854466
 20
29.003515
 30
0.0
  0
VERTEX
  8
0
 10
1.854121
 20
28.958963
 30
0.0
  0
SEQEND
  8
0
  0
POLYLINE
  8
0
 62
     7
 66
     1
 10
0.0
 20
0.0
 30
0.0
 71
    12
  0
VERTEX
  8
0
 10
1.854121
 20
28.958963
 30
0.0
  0
VERTEX
  8
0
 10
1.933772
 20
28.309174
 30
0.0
  0
VERTEX
  8
0
 10
2.170396
 20
27.672302
 30
0.0
  0
VERTEX
  8
0
 10
2.559323
 20
27.060921
 30
0.0
  0
VERTEX
  8
0
 10
3.092873
 20
26.487101
 30
0.0
  0
VERTEX
  8
0
 10
3.760511
 20
25.962173
 30
0.0
  0
VERTEX
  8
0
 10
4.549057
 20
25.496502
 30
0.0
  0
VERTEX
  8
0
 10
5.442939
 20
25.099281
 30
0.0
  0
VERTEX
  8
0
 10
6.424509
 20
24.778355
 30
0.0
  0
VERTEX
  8
0
 10
7.474387
 20
24.540058
 30
0.0
  0
VERTEX
  8
0
 10
8.571843
 20
24.389097
 30
0.0
  0
VERTEX
  8
0
 10
9.69521
 20
24.328451
 30
0.0
  0
SEQEND
  8
0
  0
POLYLINE
  8
0
 62
     7
 66
     1
 10
0.0
 20
0.0
 30
0.0
 71
    12
  0
VERTEX
  8
0
 10
1.855878
 20
25.651009
 30
0.0
  0
VERTEX
  8
0
 10
1.938914
 20
24.987591
 30
0.0
  0
VERTEX
  8
0
 10
2.185544
 20
24.337919
 30
0.0
  0
VERTEX
  8
0
 10
2.590691
 20
23.71537
 30
0.0
  0
VERTEX
  8
0
 10
3.146013
 20
23.132757
 30
0.0
  0
VERTEX
  8
0
 10
3.84008
 20
22.602076
 30
0.0
  0
VERTEX
  8
0
 10
4.658604
 20
22.134249
 30
0.0
  0
VERTEX
  8
0
 10
5.584735
 20
21.738907
 30
0.0
  0
VERTEX
  8
0
 10
6.599408
 20
21.424187
 30
0.0
  0
VERTEX
  8
0
 10
7.681735
 20
21.196571
 30
0.0
  0
VERTEX
  8
0
 10
8.809435
 20
21.060743
 30
0.0
  0
VERTEX
  8
0
 10
9.959295
 20
21.019501
 30
0.0
  0
SEQEND
  8
0
  0
POLYLINE
  8
0
 62
     7
 66
     1
 10
0.0
 20
0.0
 30
0.0
 71
    12
  0
VERTEX
  8
0
 10
-2.113374
 20
24.240379
 30
0.0
  0
VERTEX
  8
0
 10
-1.989839
 20
23.250755
 30
0.0
  0
VERTEX
  8
0
 10
-1.622705
 20
22.281555
 30
0.0
  0
VERTEX
  8
0
 10
-1.019502
 20
21.352657
 30
0.0
  0
VERTEX
  8
0
 10
-0.192602
 20
20.483116
 30
0.0
  0
VERTEX
  8
0
 10
0.841032
 20
19.690767
 30
0.0
  0
VERTEX
  8
0
 10
2.060201
 20
18.991861
 30
0.0
  0
VERTEX
  8
0
 10
3.439898
 20
18.400734
 30
0.0
  0
VERTEX
  8
0
 10
4.951825
 20
17.92951
 30
0.0
  0
VERTEX
  8
0
 10
6.56497
 20
17.587854
 30
0.0
  0
VERTEX
  8
0
 10
8.246244
 20
17.382776
 30
0.0
  0
VERTEX
  8
0
 10
9.961166
 20
17.31848
 30
0.0
  0
SEQEND
  8
0
  0
POLYLINE
  8
0
 62
     7
 66
     1
 10
0.0
 20
0.0
 30
0.0
 71
    12
  0
VERTEX
  8
0
 10
-2.113905
 20
25.24106
 30
0.0
  0
VERTEX
  8
0
 10
-1.990381
 20
24.251431
 30
0.0
  0
VERTEX
  8
0
 10
-1.623256
 20
23.282225
 30
0.0
  0
VERTEX
  8
0
 10
-1.02006
 20
22.353321
 30
0.0
  0
VERTEX
  8
0
 10
-0.193165
 20
21.483776
 30
0.0
  0
VERTEX
  8
0
 10
0.840468
 20
20.69142
 30
0.0
  0
VERTEX
  8
0
 10
2.059638
 20
19.992508
 30
0.0
  0
VERTEX
  8
0
 10
3.439337
 20
19.401377
 30
0.0
  0
VERTEX
  8
0
 10
4.951268
 20
18.930149
 30
0.0
  0
VERTEX
  8
0
 10
6.564417
 20
18.58849
 30
0.0
  0
VERTEX
  8
0
 10
8.245699
 20
18.383408
 30
0.0
  0
VERTEX
  8
0
 10
9.960627
 20
18.319111
 30
0.0
  0
SEQEND
  8
0
  0
POLYLINE
  8
0
 62
     7
 66
     1
 10
0.0
 20
0.0
 30
0.0
 71
    18
  0
VERTEX
  8
0
 10
1.31064
 20
30.076366
 30
0.0
  0
VERTEX
  8
0
 10
0.352993
 20
29.365704
 30
0.0
  0
VERTEX
  8
0
 10
-0.429439
 20
28.586842
 30
0.0
  0
VERTEX
  8
0
 10
-1.022272
 20
27.754101
 30
0.0
  0
VERTEX
  8
0
 10
-1.414613
 20
26.882786
 30
0.0
  0
VERTEX
  8
0
 10
-1.599249
 20
25.988911
 30
0.0
  0
VERTEX
  8
0
 10
-1.572786
 20
25.088907
 30
0.0
  0
VERTEX
  8
0
 10
-1.335711
 20
24.199314
 30
0.0
  0
VERTEX
  8
0
 10
-0.892383
 20
23.336485
 30
0.0
  0
VERTEX
  8
0
 10
-0.250947
 20
22.516277
 30
0.0
  0
VERTEX
  8
0
 10
0.576804
 20
21.753769
 30
0.0
  0
VERTEX
  8
0
 10
1.575659
 20
21.062971
 30
0.0
  0
VERTEX
  8
0
 10
2.727256
 20
20.456585
 30
0.0
  0
VERTEX
  8
0
 10
4.010429
 20
19.945751
 30
0.0
  0
VERTEX
  8
0
 10
5.401595
 20
19.539864
 30
0.0
  0
VERTEX
  8
0
 10
6.875182
 20
19.24638
 30
0.0
  0
VERTEX
  8
0
 10
8.404106
 20
19.070696
 30
0.0
  0
VERTEX
  8
0
 10
9.960265
 20
19.016041
 30
0.0
  0
SEQEND
  8
0
  0
LINE
  8
0
 62
     7
 10
1.855878
 20
25.651008
 30
0.0
 11
1.854122
 21
28.958963
 31
0.0
210
0.0
220
0.0
230
1.0
  0
POLYLINE
  8
0
 62
     7
 66
     1
 10
0.0
 20
0.0
 30
0.0
 71
    85
  0
VERTEX
  8
0
 10
-2.113374
 20
24.240381
 30
0.0
  0
VERTEX
  8
0
 10
-2.110189
 20
24.076321
 30
0.0
  0
VERTEX
  8
0
 10
-2.100811
 20
23.912582
 30
0.0
  0
VERTEX
  8
0
 10
-2.09176
 20
23.80987
 30
0.0
  0
VERTEX
  8
0
 10
-2.080272
 20
23.707266
 30
0.0
  0
VERTEX
  8
0
 10
-2.066361
 20
23.60486
 30
0.0
  0
VERTEX
  8
0
 10
-2.050022
 20
23.5026
 30
0.0
  0
VERTEX
  8
0
 10
-2.02126
 20
23.350937
 30
0.0
  0
VERTEX
  8
0
 10
-1.987288
 20
23.20026
 30
0.0
  0
VERTEX
  8
0
 10
-1.948095
 20
23.050339
 30
0.0
  0
VERTEX
  8
0
 10
-1.903706
 20
22.901186
 30
0.0
  0
VERTEX
  8
0
 10
-1.850042
 20
22.741222
 30
0.0
  0
VERTEX
  8
0
 10
-1.811887
 20
22.637594
 30
0.0
  0
VERTEX
  8
0
 10
-1.771195
 20
22.53437
 30
0.0
  0
VERTEX
  8
0
 10
-1.728062
 20
22.431767
 30
0.0
  0
VERTEX
  8
0
 10
-1.682424
 20
22.329611
 30
0.0
  0
VERTEX
  8
0
 10
-1.634392
 20
22.228127
 30
0.0
  0
VERTEX
  8
0
 10
-1.583888
 20
22.127132
 30
0.0
  0
VERTEX
  8
0
 10
-1.531037
 20
22.026859
 30
0.0
  0
VERTEX
  8
0
 10
-1.475727
 20
21.927074
 30
0.0
  0
VERTEX
  8
0
 10
-1.406779
 20
21.809103
 30
0.0
  0
VERTEX
  8
0
 10
-1.33488
 20
21.692667
 30
0.0
  0
VERTEX
  8
0
 10
-1.259734
 20
21.577215
 30
0.0
  0
VERTEX
  8
0
 10
-1.181377
 20
21.462776
 30
0.0
  0
VERTEX
  8
0
 10
-1.099845
 20
21.349375
 30
0.0
  0
VERTEX
  8
0
 10
-1.015175
 20
21.237041
 30
0.0
  0
VERTEX
  8
0
 10
-0.927401
 20
21.125797
 30
0.0
  0
VERTEX
  8
0
 10
-0.836559
 20
21.015667
 30
0.0
  0
VERTEX
  8
0
 10
-0.742462
 20
20.90642
 30
0.0
  0
VERTEX
  8
0
 10
-0.645366
 20
20.798349
 30
0.0
  0
VERTEX
  8
0
 10
-0.545297
 20
20.691469
 30
0.0
  0
VERTEX
  8
0
 10
-0.442292
 20
20.585796
 30
0.0
  0
VERTEX
  8
0
 10
-0.336388
 20
20.481356
 30
0.0
  0
VERTEX
  8
0
 10
-0.227621
 20
20.378166
 30
0.0
  0
VERTEX
  8
0
 10
-0.116028
 20
20.276249
 30
0.0
  0
VERTEX
  8
0
 10
-0.001611
 20
20.175594
 30
0.0
  0
VERTEX
  8
0
 10
0.121766
 20
20.071089
 30
0.0
  0
VERTEX
  8
0
 10
0.248242
 20
19.967993
 30
0.0
  0
VERTEX
  8
0
 10
0.433312
 20
19.82387
 30
0.0
  0
VERTEX
  8
0
 10
0.621128
 20
19.685108
 30
0.0
  0
VERTEX
  8
0
 10
0.814819
 20
19.549208
 30
0.0
  0
VERTEX
  8
0
 10
1.008651
 20
19.419876
 30
0.0
  0
VERTEX
  8
0
 10
1.146387
 20
19.331749
 30
0.0
  0
VERTEX
  8
0
 10
1.286536
 20
19.245096
 30
0.0
  0
VERTEX
  8
0
 10
1.429053
 20
19.159935
 30
0.0
  0
VERTEX
  8
0
 10
1.5739
 20
19.076283
 30
0.0
  0
VERTEX
  8
0
 10
1.721034
 20
18.994158
 30
0.0
  0
VERTEX
  8
0
 10
1.870416
 20
18.913578
 30
0.0
  0
VERTEX
  8
0
 10
2.022002
 20
18.834558
 30
0.0
  0
VERTEX
  8
0
 10
2.176438
 20
18.756786
 30
0.0
  0
VERTEX
  8
0
 10
2.354749
 20
18.670237
 30
0.0
  0
VERTEX
  8
0
 10
2.626547
 20
18.544706
 30
0.0
  0
VERTEX
  8
0
 10
2.904178
 20
18.423969
 30
0.0
  0
VERTEX
  8
0
 10
3.187422
 20
18.308104
 30
0.0
  0
VERTEX
  8
0
 10
3.476556
 20
18.196999
 30
0.0
  0
VERTEX
  8
0
 10
3.649787
 20
18.133728
 30
0.0
  0
VERTEX
  8
0
 10
3.822742
 20
18.072931
 30
0.0
  0
VERTEX
  8
0
 10
3.997325
 20
18.013895
 30
0.0
  0
VERTEX
  8
0
 10
4.173571
 20
17.956602
 30
0.0
  0
VERTEX
  8
0
 10
4.351347
 20
17.901094
 30
0.0
  0
VERTEX
  8
0
 10
4.530686
 20
17.847359
 30
0.0
  0
VERTEX
  8
0
 10
4.711461
 20
17.795429
 30
0.0
  0
VERTEX
  8
0
 10
4.893695
 20
17.745302
 30
0.0
  0
VERTEX
  8
0
 10
5.077268
 20
17.697002
 30
0.0
  0
VERTEX
  8
0
 10
5.262196
 20
17.65053
 30
0.0
  0
VERTEX
  8
0
 10
5.448366
 20
17.605906
 30
0.0
  0
VERTEX
  8
0
 10
5.635788
 20
17.563129
 30
0.0
  0
VERTEX
  8
0
 10
5.824354
 20
17.522223
 30
0.0
  0
VERTEX
  8
0
 10
6.014064
 20
17.483185
 30
0.0
  0
VERTEX
  8
0
 10
6.204816
 20
17.446035
 30
0.0
  0
VERTEX
  8
0
 10
6.396605
 20
17.410772
 30
0.0
  0
VERTEX
  8
0
 10
6.589337
 20
17.377415
 30
0.0
  0
VERTEX
  8
0
 10
6.782996
 20
17.345963
 30
0.0
  0
VERTEX
  8
0
 10
6.977491
 20
17.316429
 30
0.0
  0
VERTEX
  8
0
 10
7.172806
 20
17.288818
 30
0.0
  0
VERTEX
  8
0
 10
7.368853
 20
17.263138
 30
0.0
  0
VERTEX
  8
0
 10
7.565609
 20
17.239393
 30
0.0
  0
VERTEX
  8
0
 10
7.762991
 20
17.217592
 30
0.0
  0
VERTEX
  8
0
 10
7.960972
 20
17.197737
 30
0.0
  0
VERTEX
  8
0
 10
8.159473
 20
17.179836
 30
0.0
  0
VERTEX
  8
0
 10
8.55786
 20
17.149908
 30
0.0
  0
VERTEX
  8
0
 10
8.957713
 20
17.127836
 30
0.0
  0
VERTEX
  8
0
 10
9.358591
 20
17.113644
 30
0.0
  0
VERTEX
  8
0
 10
9.760052
 20
17.107344
 30
0.0
  0
VERTEX
  8
0
 10
9.960862
 20
17.107157
 30
0.0
  0
SEQEND
  8
0
  0
LINE
  8
0
 62
     7
 10
-2.113905
 20
25.24106
 30
0.0
 11
-2.113374
 21
24.240381
 31
0.0
210
0.0
220
0.0
230
1.0
  0
POLYLINE
  8
0
 62
     7
 66
     1
 10
0.0
 20
0.0
 30
0.0
 71
    40
  0
VERTEX
  8
0
 10
1.158382
 20
30.163807
 30
0.0
  0
VERTEX
  8
0
 10
0.931848
 20
30.017536
 30
0.0
  0
VERTEX
  8
0
 10
0.712052
 20
29.867323
 30
0.0
  0
VERTEX
  8
0
 10
0.498773
 20
29.712955
 30
0.0
  0
VERTEX
  8
0
 10
0.325972
 20
29.581028
 30
0.0
  0
VERTEX
  8
0
 10
0.205196
 20
29.48484
 30
0.0
  0
VERTEX
  8
0
 10
0.086174
 20
29.386589
 30
0.0
  0
VERTEX
  8
0
 10
-0.030112
 20
29.287035
 30
0.0
  0
VERTEX
  8
0
 10
-0.143645
 20
29.18618
 30
0.0
  0
VERTEX
  8
0
 10
-0.254388
 20
29.084045
 30
0.0
  0
VERTEX
  8
0
 10
-0.362304
 20
28.98065
 30
0.0
  0
VERTEX
  8
0
 10
-0.467358
 20
28.876015
 30
0.0
  0
VERTEX
  8
0
 10
-0.569818
 20
28.769836
 30
0.0
  0
VERTEX
  8
0
 10
-0.652383
 20
28.681049
 30
0.0
  0
VERTEX
  8
0
 10
-0.732889
 20
28.591465
 30
0.0
  0
VERTEX
  8
0
 10
-0.880962
 20
28.418077
 30
0.0
  0
VERTEX
  8
0
 10
-1.02136
 20
28.241856
 30
0.0
  0
VERTEX
  8
0
 10
-1.088664
 20
28.152674
 30
0.0
  0
VERTEX
  8
0
 10
-1.153937
 20
28.062897
 30
0.0
  0
VERTEX
  8
0
 10
-1.217272
 20
27.972389
 30
0.0
  0
VERTEX
  8
0
 10
-1.278543
 20
27.881317
 30
0.0
  0
VERTEX
  8
0
 10
-1.355152
 20
27.762001
 30
0.0
  0
VERTEX
  8
0
 10
-1.428795
 20
27.640816
 30
0.0
  0
VERTEX
  8
0
 10
-1.528034
 20
27.465578
 30
0.0
  0
VERTEX
  8
0
 10
-1.619881
 20
27.288378
 30
0.0
  0
VERTEX
  8
0
 10
-1.704229
 20
27.109318
 30
0.0
  0
VERTEX
  8
0
 10
-1.780961
 20
26.928541
 30
0.0
  0
VERTEX
  8
0
 10
-1.833103
 20
26.792849
 30
0.0
  0
VERTEX
  8
0
 10
-1.867694
 20
26.695442
 30
0.0
  0
VERTEX
  8
0
 10
-1.900038
 20
26.597719
 30
0.0
  0
VERTEX
  8
0
 10
-1.930174
 20
26.499548
 30
0.0
  0
VERTEX
  8
0
 10
-1.958045
 20
26.401091
 30
0.0
  0
VERTEX
  8
0
 10
-1.983676
 20
26.30224
 30
0.0
  0
VERTEX
  8
0
 10
-2.007021
 20
26.203148
 30
0.0
  0
VERTEX
  8
0
 10
-2.028103
 20
26.103701
 30
0.0
  0
VERTEX
  8
0
 10
-2.059409
 20
25.929462
 30
0.0
  0
VERTEX
  8
0
 10
-2.083284
 20
25.757879
 30
0.0
  0
VERTEX
  8
0
 10
-2.100337
 20
25.585899
 30
0.0
  0
VERTEX
  8
0
 10
-2.110553
 20
25.413538
 30
0.0
  0
VERTEX
  8
0
 10
-2.113905
 20
25.24106
 30
0.0
  0
SEQEND
  8
0
  0
ENDBLK
  8
0
  0
ENDSEC
  0
SECTION
  2
ENTITIES
  0
VIEWPORT
  8
0
 62
     0
 67
     1
 68
     1
 10
0.0
 20
0.0
 30
0.0
 40
1000.0
 41
1000.0
 69
     1
1001
ACAD
1000
MVIEW
1002
{
1070
    16
1010
0.0
1020
0.0
1030
0.0
1010
0.0
1020
0.0
1030
1.0
1040
0.0
1040
1000.0
1040
0.0
1040
0.0
1040
50.0
1040
0.0
1040
0.0
1070
     0
1070
   100
1070
     1
1070
     1
1070
     0
1070
     0
1070
     0
1070
     0
1040
0.0
1040
0.0
1040
0.0
1040
1.0
1040
1.0
1040
1.0
1040
1.0
1070
     0
1002
{
1002
}
1002
}
  0
POINT
  8
0
 62
     1
 10
198.199966
 20
285.0
 30
0.0
210
0.0
220
0.0
230
1.0
  0
POINT
  8
0
 62
     1
 10
0.0
 20
285.0
 30
0.0
210
0.0
220
0.0
230
1.0
  0
POINT
  8
0
 62
     1
 10
0.0
 20
0.0
 30
0.0
210
0.0
220
0.0
230
1.0
  0
POINT
  8
0
 62
     1
 10
198.099976
 20
0.1
 30
0.0
210
0.0
220
0.0
230
1.0
  0
POINT
  8
0
 62
     7
 10
194.099976
 20
4.1
 30
0.0
210
0.0
220
0.0
230
1.0
  0
LINE
  8
1
 62
     8
 10
198.099971
 20
0.1
 30
0.0
 11
198.099971
 21
284.9
 31
0.0
210
0.0
220
0.0
230
1.0
  0
LINE
  8
1
 62
     8
 10
0.1
 20
0.1
 30
0.0
 11
198.099971
 21
0.1
 31
0.0
210
0.0
220
0.0
230
1.0
  0
LINE
  8
1
 62
     8
 10
0.1
 20
284.9
 30
0.0
 11
198.099971
 21
284.9
 31
0.0
210
0.0
220
0.0
230
1.0
  0
LINE
  8
0
 62
     1
 10
194.099971
 20
4.1
 30
0.0
 11
194.099971
 21
280.9
 31
0.0
210
0.0
220
0.0
230
1.0
  0
LINE
  8
0
 62
     1
 10
4.1
 20
4.1
 30
0.0
 11
194.099971
 21
4.1
 31
0.0
210
0.0
220
0.0
230
1.0
  0
LINE
  8
0
 62
     1
 10
4.1
 20
280.9
 30
0.0
 11
194.099971
 21
280.9
 31
0.0
210
0.0
220
0.0
230
1.0
  0
LINE
  8
1
 62
     8
 10
194.099971
 20
50.233333
 30
0.0
 11
198.099971
 21
50.233333
 31
0.0
210
0.0
220
0.0
230
1.0
  0
LINE
  8
1
 62
     8
 10
194.099971
 20
96.366667
 30
0.0
 11
198.099971
 21
96.366667
 31
0.0
210
0.0
220
0.0
230
1.0
  0
LINE
  8
1
 62
     8
 10
194.099971
 20
142.5
 30
0.0
 11
198.099971
 21
142.5
 31
0.0
210
0.0
220
0.0
230
1.0
  0
LINE
  8
1
 62
     8
 10
194.099971
 20
188.633333
 30
0.0
 11
198.099971
 21
188.633333
 31
0.0
210
0.0
220
0.0
230
1.0
  0
LINE
  8
1
 62
     8
 10
194.099971
 20
234.766667
 30
0.0
 11
198.099971
 21
234.766667
 31
0.0
210
0.0
220
0.0
230
1.0
  0
LINE
  8
1
 62
     8
 10
51.599993
 20
0.1
 30
0.0
 11
51.599993
 21
4.1
 31
0.0
210
0.0
220
0.0
230
1.0
  0
LINE
  8
1
 62
     8
 10
99.099986
 20
0.1
 30
0.0
 11
99.099986
 21
4.1
 31
0.0
210
0.0
220
0.0
230
1.0
  0
LINE
  8
1
 62
     8
 10
146.599979
 20
0.1
 30
0.0
 11
146.599979
 21
4.1
 31
0.0
210
0.0
220
0.0
230
1.0
  0
LINE
  8
1
 62
     8
 10
146.599979
 20
280.9
 30
0.0
 11
146.599979
 21
284.9
 31
0.0
210
0.0
220
0.0
230
1.0
  0
LINE
  8
1
 62
     8
 10
99.099986
 20
280.9
 30
0.0
 11
99.099986
 21
284.9
 31
0.0
210
0.0
220
0.0
230
1.0
  0
LINE
  8
1
 62
     8
 10
51.599993
 20
280.9
 30
0.0
 11
51.599993
 21
284.9
 31
0.0
210
0.0
220
0.0
230
1.0
  0
LINE
  8
0
 62
     1
 10
4.1
 20
4.1
 30
0.0
 11
4.1
 21
280.9
 31
0.0
210
0.0
220
0.0
230
1.0
  0
LINE
  8
1
 62
     8
 10
0.1
 20
0.1
 30
0.0
 11
0.1
 21
284.9
 31
0.0
210
0.0
220
0.0
230
1.0
  0
LINE
  8
1
 62
     8
 10
0.1
 20
50.233333
 30
0.0
 11
4.1
 21
50.233333
 31
0.0
210
0.0
220
0.0
230
1.0
  0
LINE
  8
1
 62
     8
 10
0.1
 20
96.366667
 30
0.0
 11
4.1
 21
96.366667
 31
0.0
210
0.0
220
0.0
230
1.0
  0
LINE
  8
1
 62
     8
 10
-0.9
 20
142.5
 30
0.0
 11
4.1
 21
142.5
 31
0.0
210
0.0
220
0.0
230
1.0
  0
LINE
  8
1
 62
     8
 10
0.1
 20
188.633333
 30
0.0
 11
4.1
 21
188.633333
 31
0.0
210
0.0
220
0.0
230
1.0
  0
LINE
  8
1
 62
     8
 10
0.1
 20
234.766667
 30
0.0
 11
4.1
 21
234.766667
 31
0.0
210
0.0
220
0.0
230
1.0
  0
LINE
  8
0
 62
     1
 10
4.1
 20
4.2
 30
0.0
 11
4.1
 21
57.1
 31
0.0
210
0.0
220
0.0
230
1.0
  0
LINE
  8
1
 62
     8
 10
4.1
 20
42.1
 30
0.0
 11
194.099971
 21
42.1
 31
0.0
210
0.0
220
0.0
230
1.0
  0
LINE
  8
1
 62
     8
 10
129.099971
 20
35.1
 30
0.0
 11
194.099971
 21
35.1
 31
0.0
210
0.0
220
0.0
230
1.0
  0
LINE
  8
1
 62
     8
 10
129.099971
 20
4.1
 30
0.0
 11
129.099971
 21
57.174454
 31
0.0
210
0.0
220
0.0
230
1.0
  0
LINE
  8
0
 62
     1
 10
4.1
 20
4.2
 30
0.0
 11
4.1
 21
57.174454
 31
0.0
210
0.0
220
0.0
230
1.0
  0
LINE
  8
1
 62
     8
 10
4.1
 20
21.1
 30
0.0
 11
193.587841
 21
21.1
 31
0.0
210
0.0
220
0.0
230
1.0
  0
LINE
  8
1
 62
     1
 10
4.1
 20
57.174454
 30
0.0
 11
194.099971
 21
57.174454
 31
0.0
210
0.0
220
0.0
230
1.0
  0
CIRCLE
  8
1
 62
     7
 10
186.887074
 20
49.804395
 30
0.0
 40
4.158
210
0.0
220
0.0
230
1.0
  0
LINE
  8
1
 62
     7
 10
176.065211
 20
52.29912
 30
0.0
 11
178.513069
 21
52.29912
 31
0.0
210
0.0
220
0.0
230
1.0
  0
LINE
  8
1
 62
     7
 10
179.067031
 20
47.309669
 30
0.0
 11
179.826698
 21
47.309669
 31
0.0
210
0.0
220
0.0
230
1.0
  0
LINE
  8
1
 62
     7
 10
176.065211
 20
47.309669
 30
0.0
 11
176.065211
 21
52.29912
 31
0.0
210
0.0
220
0.0
230
1.0
  0
LINE
  8
1
 62
     7
 10
176.875936
 20
47.309669
 30
0.0
 11
176.875936
 21
49.30545
 31
0.0
210
0.0
220
0.0
230
1.0
  0
LINE
  8
1
 62
     7
 10
176.875936
 20
51.519518
 30
0.0
 11
178.275352
 21
51.519518
 31
0.0
210
0.0
220
0.0
230
1.0
  0
LINE
  8
1
 62
     7
 10
176.875936
 20
50.038275
 30
0.0
 11
178.275352
 21
50.038275
 31
0.0
210
0.0
220
0.0
230
1.0
  0
LINE
  8
1
 62
     7
 10
176.875936
 20
49.30545
 30
0.0
 11
178.242667
 21
49.30545
 31
0.0
210
0.0
220
0.0
230
1.0
  0
ARC
  8
1
 62
     7
 10
178.513069
 20
50.985491
 30
0.0
 40
1.313629
 50
284.960925
 51
450.0
210
0.0
220
0.0
230
1.0
  0
ARC
  8
1
 62
     7
 10
178.275352
 20
50.778897
 30
0.0
 40
0.740621
 50
270.0
 51
450.0
210
0.0
220
0.0
230
1.0
  0
LINE
  8
1
 62
     7
 10
179.611182
 20
48.878536
 30
0.0
 11
179.726499
 21
47.560455
 31
0.0
210
0.0
220
0.0
230
1.0
  0
LINE
  8
1
 62
     7
 10
178.863975
 20
48.736126
 30
0.0
 11
178.966832
 21
47.560455
 31
0.0
210
0.0
220
0.0
230
1.0
  0
ARC
  8
1
 62
     7
 10
180.19248
 20
47.601224
 30
0.0
 40
0.467761
 50
185.0
 51
218.55731
210
0.0
220
0.0
230
1.0
  0
LINE
  8
1
 62
     7
 10
176.065211
 20
47.309669
 30
0.0
 11
176.875936
 21
47.309669
 31
0.0
210
0.0
220
0.0
230
1.0
  0
ARC
  8
1
 62
     7
 10
179.432813
 20
47.601224
 30
0.0
 40
0.467761
 50
185.0
 51
218.55731
210
0.0
220
0.0
230
1.0
  0
ARC
  8
1
 62
     7
 10
178.67922
 20
48.797
 30
0.0
 40
0.935522
 50
5.0
 51
79.344823
210
0.0
220
0.0
230
1.0
  0
ARC
  8
1
 62
     7
 10
178.242667
 20
48.681768
 30
0.0
 40
0.623681
 50
5.0
 51
90.0
210
0.0
220
0.0
230
1.0
  0
LINE
  8
1
 62
     7
 10
176.875936
 20
50.038275
 30
0.0
 11
176.875936
 21
51.519518
 31
0.0
210
0.0
220
0.0
230
1.0
  0
LINE
  8
1
 62
     7
 10
171.699443
 20
52.29912
 30
0.0
 11
175.277753
 21
52.29912
 31
0.0
210
0.0
220
0.0
230
1.0
  0
LINE
  8
1
 62
     7
 10
171.699443
 20
47.309669
 30
0.0
 11
175.277753
 21
47.309669
 31
0.0
210
0.0
220
0.0
230
1.0
  0
LINE
  8
1
 62
     7
 10
175.277753
 20
47.309669
 30
0.0
 11
175.277753
 21
48.089271
 31
0.0
210
0.0
220
0.0
230
1.0
  0
LINE
  8
1
 62
     7
 10
171.699443
 20
47.309669
 30
0.0
 11
171.699443
 21
52.29912
 31
0.0
210
0.0
220
0.0
230
1.0
  0
LINE
  8
1
 62
     7
 10
172.510168
 20
48.089271
 30
0.0
 11
172.510168
 21
49.492554
 31
0.0
210
0.0
220
0.0
230
1.0
  0
LINE
  8
1
 62
     7
 10
172.510168
 20
51.519518
 30
0.0
 11
175.277753
 21
51.519518
 31
0.0
210
0.0
220
0.0
230
1.0
  0
LINE
  8
1
 62
     7
 10
172.510168
 20
48.089271
 30
0.0
 11
175.277753
 21
48.089271
 31
0.0
210
0.0
220
0.0
230
1.0
  0
LINE
  8
1
 62
     7
 10
174.965913
 20
49.492554
 30
0.0
 11
174.965913
 21
50.272155
 31
0.0
210
0.0
220
0.0
230
1.0
  0
LINE
  8
1
 62
     7
 10
172.510168
 20
50.272155
 30
0.0
 11
172.510168
 21
51.519518
 31
0.0
210
0.0
220
0.0
230
1.0
  0
LINE
  8
1
 62
     7
 10
175.277753
 20
51.519518
 30
0.0
 11
175.277753
 21
52.29912
 31
0.0
210
0.0
220
0.0
230
1.0
  0
LINE
  8
1
 62
     7
 10
167.567554
 20
52.29912
 30
0.0
 11
168.378279
 21
52.29912
 31
0.0
210
0.0
220
0.0
230
1.0
  0
LINE
  8
1
 62
     7
 10
167.567554
 20
47.309669
 30
0.0
 11
170.911984
 21
47.309669
 31
0.0
210
0.0
220
0.0
230
1.0
  0
LINE
  8
1
 62
     7
 10
172.510168
 20
49.492554
 30
0.0
 11
174.965913
 21
49.492554
 31
0.0
210
0.0
220
0.0
230
1.0
  0
LINE
  8
1
 62
     7
 10
172.510168
 20
50.272155
 30
0.0
 11
174.965913
 21
50.272155
 31
0.0
210
0.0
220
0.0
230
1.0
  0
LINE
  8
1
 62
     7
 10
170.911984
 20
47.309669
 30
0.0
 11
170.911984
 21
48.089271
 31
0.0
210
0.0
220
0.0
230
1.0
  0
LINE
  8
1
 62
     7
 10
167.567554
 20
47.309669
 30
0.0
 11
167.567554
 21
52.29912
 31
0.0
210
0.0
220
0.0
230
1.0
  0
LINE
  8
1
 62
     7
 10
168.378279
 20
48.089271
 30
0.0
 11
168.378279
 21
52.29912
 31
0.0
210
0.0
220
0.0
230
1.0
  0
LINE
  8
1
 62
     7
 10
168.378279
 20
48.089271
 30
0.0
 11
170.911984
 21
48.089271
 31
0.0
210
0.0
220
0.0
230
1.0
  0
LINE
  8
1
 62
     7
 10
161.84367
 20
52.29912
 30
0.0
 11
162.648208
 21
52.29912
 31
0.0
210
0.0
220
0.0
230
1.0
  0
LINE
  8
1
 62
     7
 10
163.435666
 20
52.29912
 30
0.0
 11
164.246391
 21
52.29912
 31
0.0
210
0.0
220
0.0
230
1.0
  0
LINE
  8
1
 62
     7
 10
163.435666
 20
47.309669
 30
0.0
 11
163.435666
 21
52.29912
 31
0.0
210
0.0
220
0.0
230
1.0
  0
LINE
  8
1
 62
     7
 10
164.246391
 20
48.089271
 30
0.0
 11
164.246391
 21
52.29912
 31
0.0
210
0.0
220
0.0
230
1.0
  0
LINE
  8
1
 62
     7
 10
164.246391
 20
48.089271
 30
0.0
 11
166.780096
 21
48.089271
 31
0.0
210
0.0
220
0.0
230
1.0
  0
LINE
  8
1
 62
     7
 10
163.435666
 20
47.309669
 30
0.0
 11
166.780096
 21
47.309669
 31
0.0
210
0.0
220
0.0
230
1.0
  0
LINE
  8
1
 62
     7
 10
166.780096
 20
47.309669
 30
0.0
 11
166.780096
 21
48.089271
 31
0.0
210
0.0
220
0.0
230
1.0
  0
LINE
  8
1
 62
     7
 10
162.648208
 20
48.868873
 30
0.0
 11
162.648208
 21
51.0439
 31
0.0
210
0.0
220
0.0
230
1.0
  0
LINE
  8
1
 62
     7
 10
158.758056
 20
48.868873
 30
0.0
 11
158.758056
 21
51.0439
 31
0.0
210
0.0
220
0.0
230
1.0
  0
LINE
  8
1
 62
     7
 10
159.568781
 20
48.868873
 30
0.0
 11
159.568781
 21
51.0439
 31
0.0
210
0.0
220
0.0
230
1.0
  0
LINE
  8
1
 62
     7
 10
161.837483
 20
48.868873
 30
0.0
 11
161.837483
 21
51.0439
 31
0.0
210
0.0
220
0.0
230
1.0
  0
LINE
  8
1
 62
     7
 10
158.758056
 20
52.29912
 30
0.0
 11
159.580482
 21
52.29912
 31
0.0
210
0.0
220
0.0
230
1.0
  0
LINE
  8
1
 62
     7
 10
156.731092
 20
52.29912
 30
0.0
 11
157.970598
 21
52.29912
 31
0.0
210
0.0
220
0.0
230
1.0
  0
LINE
  8
1
 62
     7
 10
157.077985
 20
47.309669
 30
0.0
 11
157.970598
 21
47.309669
 31
0.0
210
0.0
220
0.0
230
1.0
  0
LINE
  8
1
 62
     7
 10
157.970598
 20
47.309669
 30
0.0
 11
157.970598
 21
52.29912
 31
0.0
210
0.0
220
0.0
230
1.0
  0
LINE
  8
1
 62
     7
 10
157.077985
 20
47.309669
 30
0.0
 11
157.077985
 21
50.930852
 31
0.0
210
0.0
220
0.0
230
1.0
  0
LINE
  8
1
 62
     7
 10
153.082557
 20
47.309669
 30
0.0
 11
153.082557
 21
52.29912
 31
0.0
210
0.0
220
0.0
230
1.0
  0
LINE
  8
1
 62
     7
 10
153.97517
 20
47.309669
 30
0.0
 11
153.97517
 21
50.930852
 31
0.0
210
0.0
220
0.0
230
1.0
  0
LINE
  8
1
 62
     7
 10
155.526578
 20
48.493188
 30
0.0
 11
156.731092
 21
52.29912
 31
0.0
210
0.0
220
0.0
230
1.0
  0
LINE
  8
1
 62
     7
 10
154.322063
 20
52.29912
 30
0.0
 11
155.526578
 21
48.493188
 31
0.0
210
0.0
220
0.0
230
1.0
  0
LINE
  8
1
 62
     7
 10
155.93194
 20
47.309669
 30
0.0
 11
157.077985
 21
50.930852
 31
0.0
210
0.0
220
0.0
230
1.0
  0
LINE
  8
1
 62
     7
 10
153.97517
 20
50.930852
 30
0.0
 11
155.121215
 21
47.309669
 31
0.0
210
0.0
220
0.0
230
1.0
  0
LINE
  8
1
 62
     7
 10
153.082557
 20
52.29912
 30
0.0
 11
154.322063
 21
52.29912
 31
0.0
210
0.0
220
0.0
230
1.0
  0
LINE
  8
1
 62
     7
 10
153.082557
 20
47.309669
 30
0.0
 11
153.97517
 21
47.309669
 31
0.0
210
0.0
220
0.0
230
1.0
  0
LINE
  8
1
 62
     7
 10
155.121215
 20
47.309669
 30
0.0
 11
155.93194
 21
47.309669
 31
0.0
210
0.0
220
0.0
230
1.0
  0
LINE
  8
1
 62
     7
 10
135.673993
 20
48.557032
 30
0.0
 11
135.673993
 21
52.29912
 31
0.0
210
0.0
220
0.0
230
1.0
  0
LINE
  8
1
 62
     7
 10
134.863268
 20
48.557032
 30
0.0
 11
134.863268
 21
52.29912
 31
0.0
210
0.0
220
0.0
230
1.0
  0
LINE
  8
1
 62
     7
 10
133.374168
 20
48.557032
 30
0.0
 11
133.374168
 21
49.336634
 31
0.0
210
0.0
220
0.0
230
1.0
  0
LINE
  8
1
 62
     7
 10
132.563443
 20
48.557032
 30
0.0
 11
132.563443
 21
49.336634
 31
0.0
210
0.0
220
0.0
230
1.0
  0
LINE
  8
1
 62
     7
 10
132.563443
 20
49.336634
 30
0.0
 11
133.374168
 21
49.336634
 31
0.0
210
0.0
220
0.0
230
1.0
  0
LINE
  8
1
 62
     7
 10
134.863268
 20
52.29912
 30
0.0
 11
135.673993
 21
52.29912
 31
0.0
210
0.0
220
0.0
230
1.0
  0
LINE
  8
1
 62
     7
 10
136.461451
 20
47.309669
 30
0.0
 11
136.461451
 21
52.29912
 31
0.0
210
0.0
220
0.0
230
1.0
  0
LINE
  8
1
 62
     7
 10
136.461451
 20
52.29912
 30
0.0
 11
140.039762
 21
52.29912
 31
0.0
210
0.0
220
0.0
230
1.0
  0
LINE
  8
1
 62
     7
 10
140.039762
 20
51.519518
 30
0.0
 11
140.039762
 21
52.29912
 31
0.0
210
0.0
220
0.0
230
1.0
  0
LINE
  8
1
 62
     7
 10
137.272176
 20
51.519518
 30
0.0
 11
140.039762
 21
51.519518
 31
0.0
210
0.0
220
0.0
230
1.0
  0
LINE
  8
1
 62
     7
 10
137.272176
 20
50.272155
 30
0.0
 11
137.272176
 21
51.519518
 31
0.0
210
0.0
220
0.0
230
1.0
  0
LINE
  8
1
 62
     7
 10
137.272176
 20
50.272155
 30
0.0
 11
139.727921
 21
50.272155
 31
0.0
210
0.0
220
0.0
230
1.0
  0
LINE
  8
1
 62
     7
 10
139.727921
 20
49.492554
 30
0.0
 11
139.727921
 21
50.272155
 31
0.0
210
0.0
220
0.0
230
1.0
  0
LINE
  8
1
 62
     7
 10
137.272176
 20
49.492554
 30
0.0
 11
139.727921
 21
49.492554
 31
0.0
210
0.0
220
0.0
230
1.0
  0
LINE
  8
1
 62
     7
 10
137.272176
 20
48.089271
 30
0.0
 11
137.272176
 21
49.492554
 31
0.0
210
0.0
220
0.0
230
1.0
  0
LINE
  8
1
 62
     7
 10
137.272176
 20
48.089271
 30
0.0
 11
140.039762
 21
48.089271
 31
0.0
210
0.0
220
0.0
230
1.0
  0
LINE
  8
1
 62
     7
 10
140.039762
 20
47.309669
 30
0.0
 11
140.039762
 21
48.089271
 31
0.0
210
0.0
220
0.0
230
1.0
  0
LINE
  8
1
 62
     7
 10
136.461451
 20
47.309669
 30
0.0
 11
140.039762
 21
47.309669
 31
0.0
210
0.0
220
0.0
230
1.0
  0
LINE
  8
1
 62
     7
 10
144.442095
 20
47.309669
 30
0.0
 11
145.185132
 21
47.309669
 31
0.0
210
0.0
220
0.0
230
1.0
  0
LINE
  8
1
 62
     7
 10
143.470009
 20
52.29912
 30
0.0
 11
145.185132
 21
47.309669
 31
0.0
210
0.0
220
0.0
230
1.0
  0
LINE
  8
1
 62
     7
 10
140.82722
 20
47.309669
 30
0.0
 11
142.542344
 21
52.29912
 31
0.0
210
0.0
220
0.0
230
1.0
  0
LINE
  8
1
 62
     7
 10
142.542344
 20
52.29912
 30
0.0
 11
143.470009
 21
52.29912
 31
0.0
210
0.0
220
0.0
230
1.0
  0
LINE
  8
1
 62
     7
 10
144.066912
 20
48.401112
 30
0.0
 11
144.442095
 21
47.309669
 31
0.0
210
0.0
220
0.0
230
1.0
  0
LINE
  8
1
 62
     7
 10
141.570257
 20
47.309669
 30
0.0
 11
141.94544
 21
48.401112
 31
0.0
210
0.0
220
0.0
230
1.0
  0
LINE
  8
1
 62
     7
 10
141.94544
 20
48.401112
 30
0.0
 11
144.066912
 21
48.401112
 31
0.0
210
0.0
220
0.0
230
1.0
  0
LINE
  8
1
 62
     7
 10
142.200351
 20
49.142669
 30
0.0
 11
143.812002
 21
49.142669
 31
0.0
210
0.0
220
0.0
230
1.0
  0
LINE
  8
1
 62
     7
 10
142.200351
 20
49.142669
 30
0.0
 11
143.006176
 21
51.486889
 31
0.0
210
0.0
220
0.0
230
1.0
  0
LINE
  8
1
 62
     7
 10
143.006176
 20
51.486889
 30
0.0
 11
143.812002
 21
49.142669
 31
0.0
210
0.0
220
0.0
230
1.0
  0
LINE
  8
1
 62
     7
 10
140.82722
 20
47.309669
 30
0.0
 11
141.570257
 21
47.309669
 31
0.0
210
0.0
220
0.0
230
1.0
  0
LINE
  8
1
 62
     7
 10
145.972591
 20
47.309669
 30
0.0
 11
145.972591
 21
52.29912
 31
0.0
210
0.0
220
0.0
230
1.0
  0
LINE
  8
1
 62
     7
 10
150.018662
 20
47.309669
 30
0.0
 11
150.018662
 21
52.29912
 31
0.0
210
0.0
220
0.0
230
1.0
  0
LINE
  8
1
 62
     7
 10
149.207937
 20
48.270598
 30
0.0
 11
149.207937
 21
52.29912
 31
0.0
210
0.0
220
0.0
230
1.0
  0
LINE
  8
1
 62
     7
 10
146.783316
 20
47.309669
 30
0.0
 11
146.783316
 21
51.338191
 31
0.0
210
0.0
220
0.0
230
1.0
  0
LINE
  8
1
 62
     7
 10
145.972591
 20
52.29912
 30
0.0
 11
146.947032
 21
52.29912
 31
0.0
210
0.0
220
0.0
230
1.0
  0
LINE
  8
1
 62
     7
 10
145.972591
 20
47.309669
 30
0.0
 11
146.783316
 21
47.309669
 31
0.0
210
0.0
220
0.0
230
1.0
  0
LINE
  8
1
 62
     7
 10
149.044221
 20
47.309669
 30
0.0
 11
150.018662
 21
47.309669
 31
0.0
210
0.0
220
0.0
230
1.0
  0
LINE
  8
1
 62
     7
 10
149.207937
 20
52.29912
 30
0.0
 11
150.018662
 21
52.29912
 31
0.0
210
0.0
220
0.0
230
1.0
  0
LINE
  8
1
 62
     7
 10
146.947032
 20
52.29912
 30
0.0
 11
149.207937
 21
48.270598
 31
0.0
210
0.0
220
0.0
230
1.0
  0
LINE
  8
1
 62
     7
 10
146.783316
 20
51.338191
 30
0.0
 11
149.044221
 21
47.309669
 31
0.0
210
0.0
220
0.0
230
1.0
  0
LINE
  8
1
 62
     7
 10
158.758056
 20
51.769112
 30
0.0
 11
159.580482
 21
51.769112
 31
0.0
210
0.0
220
0.0
230
1.0
  0
LINE
  8
1
 62
     7
 10
161.84367
 20
51.769112
 30
0.0
 11
162.648208
 21
51.769112
 31
0.0
210
0.0
220
0.0
230
1.0
  0
LINE
  8
1
 62
     7
 10
161.837483
 20
51.0439
 30
0.0
 11
162.648208
 21
51.0439
 31
0.0
210
0.0
220
0.0
230
1.0
  0
LINE
  8
1
 62
     7
 10
158.758056
 20
51.0439
 30
0.0
 11
159.568781
 21
51.0439
 31
0.0
210
0.0
220
0.0
230
1.0
  0
LINE
  8
1
 62
     7
 10
158.758056
 20
51.769112
 30
0.0
 11
158.758056
 21
52.29912
 31
0.0
210
0.0
220
0.0
230
1.0
  0
LINE
  8
1
 62
     7
 10
161.84367
 20
51.769112
 30
0.0
 11
161.84367
 21
52.29912
 31
0.0
210
0.0
220
0.0
230
1.0
  0
LINE
  8
1
 62
     7
 10
162.648208
 20
51.769112
 30
0.0
 11
162.648208
 21
52.29912
 31
0.0
210
0.0
220
0.0
230
1.0
  0
CIRCLE
  8
1
 62
     7
 10
186.887074
 20
49.804395
 30
0.0
 40
3.166449
210
0.0
220
0.0
230
1.0
  0
LINE
  8
1
 62
     7
 10
188.249644
 20
52.114704
 30
0.0
 11
189.259432
 21
48.346121
 31
0.0
210
0.0
220
0.0
230
1.0
  0
LINE
  8
1
 62
     7
 10
188.687282
 20
47.711557
 30
0.0
 11
189.259432
 21
48.346121
 31
0.0
210
0.0
220
0.0
230
1.0
  0
LINE
  8
1
 62
     7
 10
187.878553
 20
50.729776
 30
0.0
 11
188.687282
 21
47.711557
 31
0.0
210
0.0
220
0.0
230
1.0
  0
LINE
  8
1
 62
     7
 10
187.24552
 20
50.096743
 30
0.0
 11
187.878553
 21
50.729776
 31
0.0
210
0.0
220
0.0
230
1.0
  0
LINE
  8
1
 62
     7
 10
187.24552
 20
47.049116
 30
0.0
 11
187.24552
 21
50.096743
 31
0.0
210
0.0
220
0.0
230
1.0
  0
LINE
  8
1
 62
     7
 10
186.528628
 20
47.049116
 30
0.0
 11
187.24552
 21
47.049116
 31
0.0
210
0.0
220
0.0
230
1.0
  0
LINE
  8
1
 62
     7
 10
186.528628
 20
47.049116
 30
0.0
 11
186.528628
 21
50.096743
 31
0.0
210
0.0
220
0.0
230
1.0
  0
LINE
  8
1
 62
     7
 10
185.895596
 20
50.729776
 30
0.0
 11
186.528628
 21
50.096743
 31
0.0
210
0.0
220
0.0
230
1.0
  0
LINE
  8
1
 62
     7
 10
185.086866
 20
47.711557
 30
0.0
 11
185.895596
 21
50.729776
 31
0.0
210
0.0
220
0.0
230
1.0
  0
LINE
  8
1
 62
     7
 10
184.514716
 20
48.346121
 30
0.0
 11
185.086866
 21
47.711557
 31
0.0
210
0.0
220
0.0
230
1.0
  0
LINE
  8
1
 62
     7
 10
184.514716
 20
48.346121
 30
0.0
 11
185.524505
 21
52.114704
 31
0.0
210
0.0
220
0.0
230
1.0
  0
LINE
  8
1
 62
     7
 10
185.524505
 20
52.114704
 30
0.0
 11
186.528628
 21
51.110581
 31
0.0
210
0.0
220
0.0
230
1.0
  0
LINE
  8
1
 62
     7
 10
186.528628
 20
51.110581
 30
0.0
 11
186.528628
 21
52.559673
 31
0.0
210
0.0
220
0.0
230
1.0
  0
LINE
  8
1
 62
     7
 10
186.528628
 20
52.559673
 30
0.0
 11
187.24552
 21
52.559673
 31
0.0
210
0.0
220
0.0
230
1.0
  0
LINE
  8
1
 62
     7
 10
187.24552
 20
51.110581
 30
0.0
 11
187.24552
 21
52.559673
 31
0.0
210
0.0
220
0.0
230
1.0
  0
LINE
  8
1
 62
     7
 10
187.24552
 20
51.110581
 30
0.0
 11
188.249644
 21
52.114704
 31
0.0
210
0.0
220
0.0
230
1.0
  0
POLYLINE
  8
1
 62
     7
 66
     1
 10
0.0
 20
0.0
 30
0.0
 71
    46
  0
VERTEX
  8
0
 10
133.374161
 20
48.557034
 30
0.0
  0
VERTEX
  8
0
 10
133.375168
 20
48.524284
 30
0.0
  0
VERTEX
  8
0
 10
133.378174
 20
48.491627
 30
0.0
  0
VERTEX
  8
0
 10
133.390152
 20
48.426857
 30
0.0
  0
VERTEX
  8
0
 10
133.410065
 20
48.363297
 30
0.0
  0
VERTEX
  8
0
 10
133.43782
 20
48.301548
 30
0.0
  0
VERTEX
  8
0
 10
133.473267
 20
48.242226
 30
0.0
  0
VERTEX
  8
0
 10
133.516235
 20
48.185982
 30
0.0
  0
VERTEX
  8
0
 10
133.566422
 20
48.133495
 30
0.0
  0
VERTEX
  8
0
 10
133.623474
 20
48.085464
 30
0.0
  0
VERTEX
  8
0
 10
133.686859
 20
48.04258
 30
0.0
  0
VERTEX
  8
0
 10
133.755966
 20
48.00552
 30
0.0
  0
VERTEX
  8
0
 10
133.830017
 20
47.974903
 30
0.0
  0
VERTEX
  8
0
 10
133.908112
 20
47.951286
 30
0.0
  0
VERTEX
  8
0
 10
133.989227
 20
47.93512
 30
0.0
  0
VERTEX
  8
0
 10
134.072266
 20
47.926723
 30
0.0
  0
VERTEX
  8
0
 10
134.156052
 20
47.926289
 30
0.0
  0
VERTEX
  8
0
 10
134.19783
 20
47.92907
 30
0.0
  0
VERTEX
  8
0
 10
134.239365
 20
47.933842
 30
0.0
  0
VERTEX
  8
0
 10
134.280441
 20
47.940571
 30
0.0
  0
VERTEX
  8
0
 10
134.321014
 20
47.949253
 30
0.0
  0
VERTEX
  8
0
 10
134.360809
 20
47.959812
 30
0.0
  0
VERTEX
  8
0
 10
134.399857
 20
47.972244
 30
0.0
  0
VERTEX
  8
0
 10
134.43782
 20
47.986435
 30
0.0
  0
VERTEX
  8
0
 10
134.474808
 20
48.002399
 30
0.0
  0
VERTEX
  8
0
 10
134.510452
 20
48.01997
 30
0.0
  0
VERTEX
  8
0
 10
134.544907
 20
48.039188
 30
0.0
  0
VERTEX
  8
0
 10
134.577805
 20
48.059834
 30
0.0
  0
VERTEX
  8
0
 10
134.609314
 20
48.081978
 30
0.0
  0
VERTEX
  8
0
 10
134.639099
 20
48.105358
 30
0.0
  0
VERTEX
  8
0
 10
134.667343
 20
48.130077
 30
0.0
  0
VERTEX
  8
0
 10
134.693726
 20
48.155838
 30
0.0
  0
VERTEX
  8
0
 10
134.71843
 20
48.182766
 30
0.0
  0
VERTEX
  8
0
 10
134.741196
 20
48.210533
 30
0.0
  0
VERTEX
  8
0
 10
134.762177
 20
48.239296
 30
0.0
  0
VERTEX
  8
0
 10
134.781143
 20
48.268715
 30
0.0
  0
VERTEX
  8
0
 10
134.798264
 20
48.298946
 30
0.0
  0
VERTEX
  8
0
 10
134.813339
 20
48.329666
 30
0.0
  0
VERTEX
  8
0
 10
134.826492
 20
48.361015
 30
0.0
  0
VERTEX
  8
0
 10
134.837616
 20
48.3927
 30
0.0
  0
VERTEX
  8
0
 10
134.846771
 20
48.424835
 30
0.0
  0
VERTEX
  8
0
 10
134.853897
 20
48.457172
 30
0.0
  0
VERTEX
  8
0
 10
134.859039
 20
48.48978
 30
0.0
  0
VERTEX
  8
0
 10
134.862152
 20
48.522465
 30
0.0
  0
VERTEX
  8
0
 10
134.863266
 20
48.555248
 30
0.0
  0
VERTEX
  8
0
 10
134.863266
 20
48.557034
 30
0.0
  0
SEQEND
  8
0
  0
POLYLINE
  8
1
 62
     7
 66
     1
 10
0.0
 20
0.0
 30
0.0
 71
    64
  0
VERTEX
  8
0
 10
132.563446
 20
48.557034
 30
0.0
  0
VERTEX
  8
0
 10
132.564438
 20
48.512287
 30
0.0
  0
VERTEX
  8
0
 10
132.567444
 20
48.467602
 30
0.0
  0
VERTEX
  8
0
 10
132.579437
 20
48.378571
 30
0.0
  0
VERTEX
  8
0
 10
132.599426
 20
48.290276
 30
0.0
  0
VERTEX
  8
0
 10
132.62738
 20
48.203064
 30
0.0
  0
VERTEX
  8
0
 10
132.663284
 20
48.117306
 30
0.0
  0
VERTEX
  8
0
 10
132.707123
 20
48.033386
 30
0.0
  0
VERTEX
  8
0
 10
132.758835
 20
47.951725
 30
0.0
  0
VERTEX
  8
0
 10
132.818344
 20
47.872761
 30
0.0
  0
VERTEX
  8
0
 10
132.885529
 20
47.796963
 30
0.0
  0
VERTEX
  8
0
 10
132.96019
 20
47.724819
 30
0.0
  0
VERTEX
  8
0
 10
133.042114
 20
47.656834
 30
0.0
  0
VERTEX
  8
0
 10
133.130981
 20
47.593521
 30
0.0
  0
VERTEX
  8
0
 10
133.226395
 20
47.535397
 30
0.0
  0
VERTEX
  8
0
 10
133.327896
 20
47.48296
 30
0.0
  0
VERTEX
  8
0
 10
133.434921
 20
47.436699
 30
0.0
  0
VERTEX
  8
0
 10
133.546844
 20
47.397057
 30
0.0
  0
VERTEX
  8
0
 10
133.662949
 20
47.364433
 30
0.0
  0
VERTEX
  8
0
 10
133.782455
 20
47.339172
 30
0.0
  0
VERTEX
  8
0
 10
133.904526
 20
47.321556
 30
0.0
  0
VERTEX
  8
0
 10
134.028275
 20
47.311779
 30
0.0
  0
VERTEX
  8
0
 10
134.152771
 20
47.309967
 30
0.0
  0
VERTEX
  8
0
 10
134.214996
 20
47.312061
 30
0.0
  0
VERTEX
  8
0
 10
134.277069
 20
47.316151
 30
0.0
  0
VERTEX
  8
0
 10
134.338837
 20
47.322227
 30
0.0
  0
VERTEX
  8
0
 10
134.400253
 20
47.330276
 30
0.0
  0
VERTEX
  8
0
 10
134.461105
 20
47.340271
 30
0.0
  0
VERTEX
  8
0
 10
134.521393
 20
47.352203
 30
0.0
  0
VERTEX
  8
0
 10
134.580872
 20
47.366013
 30
0.0
  0
VERTEX
  8
0
 10
134.639603
 20
47.381706
 30
0.0
  0
VERTEX
  8
0
 10
134.697281
 20
47.399189
 30
0.0
  0
VERTEX
  8
0
 10
134.754044
 20
47.418491
 30
0.0
  0
VERTEX
  8
0
 10
134.80954
 20
47.439472
 30
0.0
  0
VERTEX
  8
0
 10
134.863937
 20
47.462189
 30
0.0
  0
VERTEX
  8
0
 10
134.916885
 20
47.486458
 30
0.0
  0
VERTEX
  8
0
 10
134.968582
 20
47.512371
 30
0.0
  0
VERTEX
  8
0
 10
135.018661
 20
47.5397
 30
0.0
  0
VERTEX
  8
0
 10
135.067352
 20
47.568573
 30
0.0
  0
VERTEX
  8
0
 10
135.114273
 20
47.598713
 30
0.0
  0
VERTEX
  8
0
 10
135.159714
 20
47.630283
 30
0.0
  0
VERTEX
  8
0
 10
135.203247
 20
47.662975
 30
0.0
  0
VERTEX
  8
0
 10
135.245193
 20
47.69698
 30
0.0
  0
VERTEX
  8
0
 10
135.285156
 20
47.731956
 30
0.0
  0
VERTEX
  8
0
 10
135.323425
 20
47.768127
 30
0.0
  0
VERTEX
  8
0
 10
135.359665
 20
47.805119
 30
0.0
  0
VERTEX
  8
0
 10
135.394119
 20
47.843182
 30
0.0
  0
VERTEX
  8
0
 10
135.426514
 20
47.881931
 30
0.0
  0
VERTEX
  8
0
 10
135.457077
 20
47.921627
 30
0.0
  0
VERTEX
  8
0
 10
135.48555
 20
47.96188
 30
0.0
  0
VERTEX
  8
0
 10
135.512131
 20
48.002949
 30
0.0
  0
VERTEX
  8
0
 10
135.536621
 20
48.044464
 30
0.0
  0
VERTEX
  8
0
 10
135.559174
 20
48.08667
 30
0.0
  0
VERTEX
  8
0
 10
135.579651
 20
48.129219
 30
0.0
  0
VERTEX
  8
0
 10
135.598175
 20
48.172337
 30
0.0
  0
VERTEX
  8
0
 10
135.614624
 20
48.215702
 30
0.0
  0
VERTEX
  8
0
 10
135.629105
 20
48.259518
 30
0.0
  0
VERTEX
  8
0
 10
135.641525
 20
48.303501
 30
0.0
  0
VERTEX
  8
0
 10
135.651962
 20
48.347816
 30
0.0
  0
VERTEX
  8
0
 10
135.660355
 20
48.392231
 30
0.0
  0
VERTEX
  8
0
 10
135.666763
 20
48.436859
 30
0.0
  0
VERTEX
  8
0
 10
135.671143
 20
48.481529
 30
0.0
  0
VERTEX
  8
0
 10
135.673523
 20
48.526299
 30
0.0
  0
VERTEX
  8
0
 10
135.673996
 20
48.557034
 30
0.0
  0
SEQEND
  8
0
  0
POLYLINE
  8
1
 62
     7
 66
     1
 10
0.0
 20
0.0
 30
0.0
 71
    53
  0
VERTEX
  8
0
 10
159.568787
 20
48.868874
 30
0.0
  0
VERTEX
  8
0
 10
159.569778
 20
48.832684
 30
0.0
  0
VERTEX
  8
0
 10
159.572784
 20
48.796555
 30
0.0
  0
VERTEX
  8
0
 10
159.584793
 20
48.724655
 30
0.0
  0
VERTEX
  8
0
 10
159.604797
 20
48.653515
 30
0.0
  0
VERTEX
  8
0
 10
159.632828
 20
48.583485
 30
0.0
  0
VERTEX
  8
0
 10
159.668915
 20
48.514973
 30
0.0
  0
VERTEX
  8
0
 10
159.713058
 20
48.448425
 30
0.0
  0
VERTEX
  8
0
 10
159.765213
 20
48.384335
 30
0.0
  0
VERTEX
  8
0
 10
159.825287
 20
48.323257
 30
0.0
  0
VERTEX
  8
0
 10
159.893112
 20
48.265778
 30
0.0
  0
VERTEX
  8
0
 10
159.968384
 20
48.212521
 30
0.0
  0
VERTEX
  8
0
 10
160.05072
 20
48.164127
 30
0.0
  0
VERTEX
  8
0
 10
160.139557
 20
48.121227
 30
0.0
  0
VERTEX
  8
0
 10
160.234222
 20
48.084435
 30
0.0
  0
VERTEX
  8
0
 10
160.333893
 20
48.054298
 30
0.0
  0
VERTEX
  8
0
 10
160.437622
 20
48.031311
 30
0.0
  0
VERTEX
  8
0
 10
160.544373
 20
48.015862
 30
0.0
  0
VERTEX
  8
0
 10
160.652985
 20
48.008224
 30
0.0
  0
VERTEX
  8
0
 10
160.762268
 20
48.008553
 30
0.0
  0
VERTEX
  8
0
 10
160.816772
 20
48.011715
 30
0.0
  0
VERTEX
  8
0
 10
160.871002
 20
48.016869
 30
0.0
  0
VERTEX
  8
0
 10
160.924728
 20
48.023979
 30
0.0
  0
VERTEX
  8
0
 10
160.977951
 20
48.033047
 30
0.0
  0
VERTEX
  8
0
 10
161.030334
 20
48.043999
 30
0.0
  0
VERTEX
  8
0
 10
161.081955
 20
48.056843
 30
0.0
  0
VERTEX
  8
0
 10
161.132431
 20
48.071457
 30
0.0
  0
VERTEX
  8
0
 10
161.181915
 20
48.087883
 30
0.0
  0
VERTEX
  8
0
 10
161.229965
 20
48.105934
 30
0.0
  0
VERTEX
  8
0
 10
161.276855
 20
48.12569
 30
0.0
  0
VERTEX
  8
0
 10
161.322037
 20
48.146908
 30
0.0
  0
VERTEX
  8
0
 10
161.365875
 20
48.169708
 30
0.0
  0
VERTEX
  8
0
 10
161.407822
 20
48.193783
 30
0.0
  0
VERTEX
  8
0
 10
161.448257
 20
48.219311
 30
0.0
  0
VERTEX
  8
0
 10
161.486664
 20
48.245922
 30
0.0
  0
VERTEX
  8
0
 10
161.523422
 20
48.273842
 30
0.0
  0
VERTEX
  8
0
 10
161.55806
 20
48.30265
 30
0.0
  0
VERTEX
  8
0
 10
161.590927
 20
48.332623
 30
0.0
  0
VERTEX
  8
0
 10
161.621613
 20
48.363304
 30
0.0
  0
VERTEX
  8
0
 10
161.650452
 20
48.394997
 30
0.0
  0
VERTEX
  8
0
 10
161.677078
 20
48.427227
 30
0.0
  0
VERTEX
  8
0
 10
161.701813
 20
48.460323
 30
0.0
  0
VERTEX
  8
0
 10
161.724335
 20
48.493809
 30
0.0
  0
VERTEX
  8
0
 10
161.744919
 20
48.528008
 30
0.0
  0
VERTEX
  8
0
 10
161.763306
 20
48.562473
 30
0.0
  0
VERTEX
  8
0
 10
161.779739
 20
48.597511
 30
0.0
  0
VERTEX
  8
0
 10
161.794022
 20
48.632713
 30
0.0
  0
VERTEX
  8
0
 10
161.80632
 20
48.668346
 30
0.0
  0
VERTEX
  8
0
 10
161.816528
 20
48.704067
 30
0.0
  0
VERTEX
  8
0
 10
161.824738
 20
48.740086
 30
0.0
  0
VERTEX
  8
0
 10
161.830887
 20
48.776127
 30
0.0
  0
VERTEX
  8
0
 10
161.835037
 20
48.812336
 30
0.0
  0
VERTEX
  8
0
 10
161.837479
 20
48.868874
 30
0.0
  0
SEQEND
  8
0
  0
POLYLINE
  8
1
 62
     7
 66
     1
 10
0.0
 20
0.0
 30
0.0
 71
    70
  0
VERTEX
  8
0
 10
158.758057
 20
48.868874
 30
0.0
  0
VERTEX
  8
0
 10
158.762054
 20
48.768906
 30
0.0
  0
VERTEX
  8
0
 10
158.774063
 20
48.669292
 30
0.0
  0
VERTEX
  8
0
 10
158.794037
 20
48.570339
 30
0.0
  0
VERTEX
  8
0
 10
158.822006
 20
48.472347
 30
0.0
  0
VERTEX
  8
0
 10
158.857941
 20
48.375641
 30
0.0
  0
VERTEX
  8
0
 10
158.901825
 20
48.280563
 30
0.0
  0
VERTEX
  8
0
 10
158.953629
 20
48.187469
 30
0.0
  0
VERTEX
  8
0
 10
159.013306
 20
48.096737
 30
0.0
  0
VERTEX
  8
0
 10
159.080765
 20
48.008774
 30
0.0
  0
VERTEX
  8
0
 10
159.155899
 20
47.923992
 30
0.0
  0
VERTEX
  8
0
 10
159.238541
 20
47.842838
 30
0.0
  0
VERTEX
  8
0
 10
159.328491
 20
47.765759
 30
0.0
  0
VERTEX
  8
0
 10
159.425491
 20
47.693218
 30
0.0
  0
VERTEX
  8
0
 10
159.52919
 20
47.625675
 30
0.0
  0
VERTEX
  8
0
 10
159.639221
 20
47.563587
 30
0.0
  0
VERTEX
  8
0
 10
159.755127
 20
47.507401
 30
0.0
  0
VERTEX
  8
0
 10
159.876373
 20
47.457531
 30
0.0
  0
VERTEX
  8
0
 10
160.00238
 20
47.414375
 30
0.0
  0
VERTEX
  8
0
 10
160.132492
 20
47.378281
 30
0.0
  0
VERTEX
  8
0
 10
160.266006
 20
47.349556
 30
0.0
  0
VERTEX
  8
0
 10
160.402176
 20
47.328445
 30
0.0
  0
VERTEX
  8
0
 10
160.540207
 20
47.315147
 30
0.0
  0
VERTEX
  8
0
 10
160.679276
 20
47.309788
 30
0.0
  0
VERTEX
  8
0
 10
160.818558
 20
47.312416
 30
0.0
  0
VERTEX
  8
0
 10
160.888
 20
47.316727
 30
0.0
  0
VERTEX
  8
0
 10
160.957214
 20
47.323029
 30
0.0
  0
VERTEX
  8
0
 10
161.026016
 20
47.331303
 30
0.0
  0
VERTEX
  8
0
 10
161.094391
 20
47.341541
 30
0.0
  0
VERTEX
  8
0
 10
161.16214
 20
47.353706
 30
0.0
  0
VERTEX
  8
0
 10
161.229294
 20
47.367802
 30
0.0
  0
VERTEX
  8
0
 10
161.295578
 20
47.383759
 30
0.0
  0
VERTEX
  8
0
 10
161.36113
 20
47.401596
 30
0.0
  0
VERTEX
  8
0
 10
161.425583
 20
47.421211
 30
0.0
  0
VERTEX
  8
0
 10
161.489136
 20
47.442646
 30
0.0
  0
VERTEX
  8
0
 10
161.551422
 20
47.465763
 30
0.0
  0
VERTEX
  8
0
 10
161.61264
 20
47.490631
 30
0.0
  0
VERTEX
  8
0
 10
161.672424
 20
47.517067
 30
0.0
  0
VERTEX
  8
0
 10
161.731018
 20
47.545166
 30
0.0
  0
VERTEX
  8
0
 10
161.787994
 20
47.574718
 30
0.0
  0
VERTEX
  8
0
 10
161.843658
 20
47.605846
 30
0.0
  0
VERTEX
  8
0
 10
161.897583
 20
47.638294
 30
0.0
  0
VERTEX
  8
0
 10
161.950073
 20
47.672222
 30
0.0
  0
VERTEX
  8
0
 10
162.000717
 20
47.70734
 30
0.0
  0
VERTEX
  8
0
 10
162.049835
 20
47.743832
 30
0.0
  0
VERTEX
  8
0
 10
162.097
 20
47.78138
 30
0.0
  0
VERTEX
  8
0
 10
162.142548
 20
47.820202
 30
0.0
  0
VERTEX
  8
0
 10
162.186096
 20
47.859943
 30
0.0
  0
VERTEX
  8
0
 10
162.227936
 20
47.900845
 30
0.0
  0
VERTEX
  8
0
 10
162.267731
 20
47.942543
 30
0.0
  0
VERTEX
  8
0
 10
162.30574
 20
47.985294
 30
0.0
  0
VERTEX
  8
0
 10
162.341675
 20
48.028713
 30
0.0
  0
VERTEX
  8
0
 10
162.375793
 20
48.073074
 30
0.0
  0
VERTEX
  8
0
 10
162.407806
 20
48.117992
 30
0.0
  0
VERTEX
  8
0
 10
162.437943
 20
48.163738
 30
0.0
  0
VERTEX
  8
0
 10
162.465973
 20
48.209938
 30
0.0
  0
VERTEX
  8
0
 10
162.492096
 20
48.256855
 30
0.0
  0
VERTEX
  8
0
 10
162.516144
 20
48.304131
 30
0.0
  0
VERTEX
  8
0
 10
162.538223
 20
48.352013
 30
0.0
  0
VERTEX
  8
0
 10
162.558243
 20
48.400169
 30
0.0
  0
VERTEX
  8
0
 10
162.576294
 20
48.448826
 30
0.0
  0
VERTEX
  8
0
 10
162.592285
 20
48.497684
 30
0.0
  0
VERTEX
  8
0
 10
162.606293
 20
48.546932
 30
0.0
  0
VERTEX
  8
0
 10
162.618256
 20
48.596317
 30
0.0
  0
VERTEX
  8
0
 10
162.628235
 20
48.645988
 30
0.0
  0
VERTEX
  8
0
 10
162.636185
 20
48.695736
 30
0.0
  0
VERTEX
  8
0
 10
162.64212
 20
48.745667
 30
0.0
  0
VERTEX
  8
0
 10
162.646057
 20
48.795628
 30
0.0
  0
VERTEX
  8
0
 10
162.647995
 20
48.845661
 30
0.0
  0
VERTEX
  8
0
 10
162.648209
 20
48.868874
 30
0.0
  0
SEQEND
  8
0
  0
CIRCLE
  8
1
 62
     7
 10
186.887074
 20
49.804395
 30
0.0
 40
3.515851
210
0.0
220
0.0
230
1.0
  0
LINE
  8
0
 62
     7
 10
159.580482
 20
52.29912
 30
0.0
 11
159.580482
 21
51.769112
 31
0.0
210
0.0
220
0.0
230
1.0
  0
LINE
  8
1
 62
     8
 10
104.099977
 20
42.174454
 30
0.0
 11
104.099977
 21
57.174454
 31
0.0
210
0.0
220
0.0
230
1.0
  0
LINE
  8
1
 62
     8
 10
79.099983
 20
42.174454
 30
0.0
 11
79.099983
 21
57.174454
 31
0.0
210
0.0
220
0.0
230
1.0
  0
LINE
  8
1
 62
     8
 10
47.099989
 20
42.174454
 30
0.0
 11
47.099989
 21
57.174454
 31
0.0
210
0.0
220
0.0
230
1.0
  0
LINE
  8
1
 62
     8
 10
25.099994
 20
42.174454
 30
0.0
 11
25.099994
 21
57.174454
 31
0.0
210
0.0
220
0.0
230
1.0
  0
LINE
  8
1
 62
     8
 10
145.099986
 20
65.674454
 30
0.0
 11
194.099971
 21
65.674454
 31
0.0
210
0.0
220
0.0
230
1.0
  0
LINE
  8
1
 62
     8
 10
145.099986
 20
69.174454
 30
0.0
 11
194.099971
 21
69.174454
 31
0.0
210
0.0
220
0.0
230
1.0
  0
LINE
  8
1
 62
     8
 10
145.099986
 20
72.674454
 30
0.0
 11
194.099971
 21
72.674454
 31
0.0
210
0.0
220
0.0
230
1.0
  0
LINE
  8
1
 62
     8
 10
145.099986
 20
76.174454
 30
0.0
 11
194.099971
 21
76.174454
 31
0.0
210
0.0
220
0.0
230
1.0
  0
LINE
  8
1
 62
     8
 10
145.099986
 20
79.674454
 30
0.0
 11
194.099971
 21
79.674454
 31
0.0
210
0.0
220
0.0
230
1.0
  0
LINE
  8
1
 62
     8
 10
151.099986
 20
57.174454
 30
0.0
 11
151.099986
 21
83.174454
 31
0.0
210
0.0
220
0.0
230
1.0
  0
LINE
  8
0
 62
     1
 10
145.099986
 20
83.174454
 30
0.0
 11
194.099971
 21
83.174454
 31
0.0
210
0.0
220
0.0
230
1.0
  0
LINE
  8
0
 62
     1
 10
145.099986
 20
57.174454
 30
0.0
 11
145.099986
 21
83.174454
 31
0.0
210
0.0
220
0.0
230
1.0
  0
LINE
  8
1
 62
     8
 10
165.599971
 20
57.174454
 30
0.0
 11
165.599971
 21
83.174454
 31
0.0
210
0.0
220
0.0
230
1.0
  0
LINE
  8
1
 62
     8
 10
179.599971
 20
57.174454
 30
0.0
 11
179.599971
 21
83.174454
 31
0.0
210
0.0
220
0.0
230
1.0
  0
ARC
  8
2
 62
     7
 10
83.528019
 20
62.319208
 30
0.0
 40
1.75
 50
270.0
 51
450.0
210
0.0
220
0.0
230
1.0
  0
LINE
  8
2
 62
     7
 10
73.528019
 20
60.569208
 30
0.0
 11
83.528019
 21
60.569208
 31
0.0
210
0.0
220
0.0
230
1.0
  0
LINE
  8
2
 62
     7
 10
73.528019
 20
64.069208
 30
0.0
 11
83.528019
 21
64.069208
 31
0.0
210
0.0
220
0.0
230
1.0
  0
ARC
  8
2
 62
     7
 10
73.528019
 20
62.319208
 30
0.0
 40
1.75
 50
90.0
 51
270.0
210
0.0
220
0.0
230
1.0
  0
LINE
  8
1
 62
     8
 10
72.599989
 20
35.1
 30
0.0
 11
129.099971
 21
35.1
 31
0.0
210
0.0
220
0.0
230
1.0
  0
LINE
  8
1
 62
     8
 10
72.599989
 20
28.1
 30
0.0
 11
129.099971
 21
28.1
 31
0.0
210
0.0
220
0.0
230
1.0
  0
LINE
  8
1
 62
     8
 10
4.1
 20
31.603245
 30
0.0
 11
72.599989
 21
31.603245
 31
0.0
210
0.0
220
0.0
230
1.0
  0
LINE
  8
1
 62
     8
 10
83.599989
 20
21.1
 30
0.0
 11
83.599989
 21
42.1
 31
0.0
210
0.0
220
0.0
230
1.0
  0
LINE
  8
1
 62
     8
 10
72.599989
 20
21.1
 30
0.0
 11
72.599989
 21
42.1
 31
0.0
210
0.0
220
0.0
230
1.0
  0
LINE
  8
1
 62
     8
 10
106.34998
 20
21.1
 30
0.0
 11
106.34998
 21
42.1
 31
0.0
210
0.0
220
0.0
230
1.0
  0
LINE
  8
1
 62
     8
 10
185.273264
 20
4.1
 30
0.0
 11
185.273264
 21
21.1
 31
0.0
210
0.0
220
0.0
230
1.0
  0
LINE
  8
1
 62
     8
 10
173.7194
 20
4.1
 30
0.0
 11
173.7194
 21
21.1
 31
0.0
210
0.0
220
0.0
230
1.0
  0
LINE
  8
1
 62
     8
 10
145.099986
 20
62.174454
 30
0.0
 11
194.099971
 21
62.174454
 31
0.0
210
0.0
220
0.0
230
1.0
  0
LINE
  8
1
 62
     8
 10
129.099971
 20
38.734509
 30
0.0
 11
194.099971
 21
38.734509
 31
0.0
210
0.0
220
0.0
230
1.0
  0
DIMENSION
  8
0
 62
     0
  2
*D83
 10
102.372193
 20
188.502899
 30
0.0
 11
96.287899
 21
190.752899
 31
0.0
 70
   161
 13
106.372193
 23
196.243803
 33
0.0
 14
102.372193
 24
196.243803
 34
0.0
 52
89.999523
210
0.0
220
0.0
230
1.0
  3
STANDARD
  0
DIMENSION
  8
0
 62
     0
  2
*D84
 10
24.872193
 20
270.047209
 30
0.0
 11
38.872193
 21
272.297209
 31
0.0
 70
   160
 13
52.872193
 23
235.016988
 33
0.0
 14
24.872193
 24
235.016988
 34
0.0
 50
179.999046
 52
89.999523
210
0.0
220
0.0
230
1.0
  3
STANDARD
  0
DIMENSION
  8
0
 62
     0
  2
*D85
 10
11.32095
 20
251.058694
 30
0.0
 11
9.07095
 21
221.537841
 31
0.0
 70
   160
  1
max. 65
 13
24.872193
 23
192.016988
 33
0.0
 14
31.372193
 24
251.058694
 34
0.0
 50
89.999523
 52
89.999523
210
0.0
220
0.0
230
1.0
  3
STANDARD
  0
DIMENSION
  8
0
 62
     0
  2
*D86
 10
19.25042
 20
246.016988
 30
0.0
 11
17.00042
 21
219.016988
 31
0.0
 70
   160
 13
24.872193
 23
192.016988
 33
0.0
 14
24.872193
 24
246.016988
 34
0.0
 50
89.999523
 52
89.999523
210
0.0
220
0.0
230
1.0
  3
STANDARD
  0
DIMENSION
  8
0
 62
     0
  2
*D87
 10
24.872193
 20
170.707474
 30
0.0
 11
65.622193
 21
172.957474
 31
0.0
 70
   160
 13
106.372193
 23
196.243803
 33
0.0
 14
24.872193
 24
198.820836
 34
0.0
 50
179.999046
 52
89.999523
210
0.0
220
0.0
230
1.0
  3
STANDARD
  0
LINE
  8
0
  6
DASHDOT
 62
     7
 10
38.872193
 20
251.562914
 30
0.0
 11
38.872193
 21
245.512266
 31
0.0
210
0.0
220
0.0
230
1.0
  0
DIMENSION
  8
0
 62
     0
  2
*D89
 10
143.726813
 20
185.287353
 30
0.0
 11
157.826813
 21
187.537353
 31
0.0
 70
   160
 13
171.926813
 23
208.590951
 33
0.0
 14
143.726813
 24
208.590951
 34
0.0
 50
179.999046
 52
89.999523
210
0.0
220
0.0
230
1.0
  3
STANDARD
  0
DIMENSION
  8
0
 62
     0
  2
*D90
 10
138.826813
 20
177.034736
 30
0.0
 11
157.826813
 21
179.284736
 31
0.0
 70
   160
 13
176.826813
 23
205.749039
 33
0.0
 14
138.826813
 24
205.749039
 34
0.0
 50
179.999046
 52
89.999523
210
0.0
220
0.0
230
1.0
  3
STANDARD
  0
DIMENSION
  8
0
 62
     0
  2
*D91
 10
149.826813
 20
258.656709
 30
0.0
 11
158.453038
 21
260.906709
 31
0.0
 70
   160
  1
M<>x1
 13
165.826813
 23
250.558694
 33
0.0
 14
149.826813
 24
250.558694
 34
0.0
 50
179.999046
 52
89.999523
210
0.0
220
0.0
230
1.0
  3
STANDARD
  0
LINE
  8
0
  6
DASHDOT
 62
     7
 10
157.826813
 20
254.497316
 30
0.0
 11
157.826813
 21
213.233856
 31
0.0
210
0.0
220
0.0
230
1.0
  0
CIRCLE
  8
0
 62
     7
 10
157.826813
 20
209.601501
 30
0.0
 40
5.793601
210
0.0
220
0.0
230
1.0
  0
LINE
  8
0
 62
     7
 10
161.747417
 20
205.33598
 30
0.0
 11
162.092334
 21
205.680897
 31
0.0
210
0.0
220
0.0
230
1.0
  0
LINE
  8
0
 62
     7
 10
153.906209
 20
205.33598
 30
0.0
 11
153.561291
 21
205.680897
 31
0.0
210
0.0
220
0.0
230
1.0
  0
DIMENSION
  8
0
 62
     0
  2
*D95
 10
18.610014
 20
124.394181
 30
0.0
 11
16.360014
 21
133.282265
 31
0.0
 70
   160
  1
SW<>
 13
36.554132
 23
116.364181
 33
0.0
 14
36.554132
 24
124.394181
 34
0.0
 50
89.999523
 52
89.999523
210
0.0
220
0.0
230
1.0
  3
STANDARD
  0
DIMENSION
  8
0
 62
     0
  2
*D96
 10
113.11316
 20
127.379181
 30
0.0
 11
110.86316
 21
120.379181
 31
0.0
 70
   161
 13
86.872193
 23
113.379181
 33
0.0
 14
86.872193
 24
127.379181
 34
0.0
 52
89.999523
210
0.0
220
0.0
230
1.0
  3
STANDARD
  0
DIMENSION
  8
0
 62
     0
  2
*D97
 10
120.192399
 20
135.379181
 30
0.0
 11
117.942399
 21
120.379181
 31
0.0
 70
   161
 13
101.872193
 23
105.379181
 33
0.0
 14
101.872193
 24
135.379181
 34
0.0
 52
89.999523
210
0.0
220
0.0
230
1.0
  3
STANDARD
  0
DIMENSION
  8
0
 62
     0
  2
*D98
 10
81.872193
 20
140.892656
 30
0.0
 11
84.360742
 21
143.142656
 31
0.0
 70
   161
 13
86.872193
 23
128.495972
 33
0.0
 14
81.872193
 24
128.495972
 34
0.0
 52
89.999523
210
0.0
220
0.0
230
1.0
  3
STANDARD
  0
DIMENSION
  8
0
 62
     0
  2
*D99
 10
106.372193
 20
147.418077
 30
0.0
 11
94.122193
 21
149.668077
 31
0.0
 70
   160
 13
81.872193
 23
128.495972
 33
0.0
 14
106.372193
 24
135.379181
 34
0.0
 50
359.998092
 52
89.999523
210
0.0
220
0.0
230
1.0
  3
STANDARD
  0
INSERT
  8
0
  2
BLOCK107
 10
0.0
 20
0.0
 30
0.0
210
0.0
220
0.0
230
1.0
  0
INSERT
  8
0
  2
BLOCK108
 10
0.0
 20
0.0
 30
0.0
210
0.0
220
0.0
230
1.0
  0
INSERT
  8
0
  2
BLOCK109
 10
0.0
 20
0.0
 30
0.0
210
0.0
220
0.0
230
1.0
  0
INSERT
  8
0
  2
BLOCK110
 10
0.0
 20
0.0
 30
0.0
210
0.0
220
0.0
230
1.0
  0
INSERT
  8
0
  2
BLOCK111
 10
0.0
 20
0.0
 30
0.0
210
0.0
220
0.0
230
1.0
  0
INSERT
  8
0
  2
BLOCK112
 10
0.0
 20
0.0
 30
0.0
210
0.0
220
0.0
230
1.0
  0
INSERT
  8
0
  2
BLOCK113
 10
0.0
 20
0.0
 30
0.0
210
0.0
220
0.0
230
1.0
  0
INSERT
  8
0
  2
BLOCK114
 10
0.0
 20
0.0
 30
0.0
210
0.0
220
0.0
230
1.0
  0
INSERT
  8
0
  2
BLOCK115
 10
0.0
 20
0.0
 30
0.0
210
0.0
220
0.0
230
1.0
  0
INSERT
  8
0
  2
BLOCK116
 10
0.0
 20
0.0
 30
0.0
210
0.0
220
0.0
230
1.0
  0
INSERT
  8
0
  2
BLOCK117
 10
0.0
 20
0.0
 30
0.0
210
0.0
220
0.0
230
1.0
  0
INSERT
  8
0
  2
BLOCK118
 10
0.0
 20
0.0
 30
0.0
210
0.0
220
0.0
230
1.0
  0
INSERT
  8
0
  2
BLOCK119
 10
0.0
 20
0.0
 30
0.0
210
0.0
220
0.0
230
1.0
  0
INSERT
  8
0
  2
BLOCK120
 10
0.0
 20
0.0
 30
0.0
210
0.0
220
0.0
230
1.0
  0
INSERT
  8
0
  2
BLOCK121
 10
0.0
 20
0.0
 30
0.0
210
0.0
220
0.0
230
1.0
  0
INSERT
  8
0
  2
BLOCK122
 10
0.0
 20
0.0
 30
0.0
210
0.0
220
0.0
230
1.0
  0
INSERT
  8
0
  2
BLOCK123
 10
0.0
 20
0.0
 30
0.0
210
0.0
220
0.0
230
1.0
  0
INSERT
  8
0
  2
BLOCK124
 10
0.0
 20
0.0
 30
0.0
210
0.0
220
0.0
230
1.0
  0
INSERT
  8
0
  2
BLOCK125
 10
0.0
 20
0.0
 30
0.0
210
0.0
220
0.0
230
1.0
  0
INSERT
  8
0
  2
BLOCK126
 10
0.0
 20
0.0
 30
0.0
210
0.0
220
0.0
230
1.0
  0
INSERT
  8
2
  2
BLOCK127
 10
0.0
 20
0.0
 30
0.0
210
0.0
220
0.0
230
1.0
  0
INSERT
  8
0
  2
BLOCK128
 10
0.0
 20
0.0
 30
0.0
210
0.0
220
0.0
230
1.0
  0
INSERT
  8
0
  2
BLOCK129
 10
0.0
 20
0.0
 30
0.0
210
0.0
220
0.0
230
1.0
  0
INSERT
  8
0
  2
BLOCK130
 10
0.0
 20
0.0
 30
0.0
210
0.0
220
0.0
230
1.0
  0
INSERT
  8
3
  2
BLOCK131
 10
0.0
 20
0.0
 30
0.0
210
0.0
220
0.0
230
1.0
  0
INSERT
  8
2
  2
BLOCK132
 10
0.0
 20
0.0
 30
0.0
210
0.0
220
0.0
230
1.0
  0
INSERT
  8
2
  2
BLOCK133
 10
0.0
 20
0.0
 30
0.0
210
0.0
220
0.0
230
1.0
  0
INSERT
  8
3
  2
BLOCK134
 10
0.0
 20
0.0
 30
0.0
210
0.0
220
0.0
230
1.0
  0
INSERT
  8
3
  2
BLOCK135
 10
0.0
 20
0.0
 30
0.0
210
0.0
220
0.0
230
1.0
  0
INSERT
  8
3
  2
BLOCK136
 10
0.0
 20
0.0
 30
0.0
210
0.0
220
0.0
230
1.0
  0
INSERT
  8
3
  2
BLOCK137
 10
0.0
 20
0.0
 30
0.0
210
0.0
220
0.0
230
1.0
  0
INSERT
  8
0
  2
BLOCK138
 10
0.0
 20
0.0
 30
0.0
210
0.0
220
0.0
230
1.0
  0
INSERT
  8
0
  2
BLOCK139
 10
0.0
 20
0.0
 30
0.0
210
0.0
220
0.0
230
1.0
  0
INSERT
  8
0
  2
BLOCK140
 10
0.0
 20
0.0
 30
0.0
210
0.0
220
0.0
230
1.0
  0
INSERT
  8
0
  2
BLOCK141
 10
0.0
 20
0.0
 30
0.0
210
0.0
220
0.0
230
1.0
  0
INSERT
  8
0
  2
BLOCK142
 10
0.0
 20
0.0
 30
0.0
210
0.0
220
0.0
230
1.0
  0
INSERT
  8
0
  2
BLOCK143
 10
0.0
 20
0.0
 30
0.0
210
0.0
220
0.0
230
1.0
  0
INSERT
  8
0
  2
BLOCK144
 10
0.0
 20
0.0
 30
0.0
210
0.0
220
0.0
230
1.0
  0
INSERT
  8
0
  2
BLOCK145
 10
0.0
 20
0.0
 30
0.0
210
0.0
220
0.0
230
1.0
  0
INSERT
  8
0
  2
BLOCK146
 10
0.0
 20
0.0
 30
0.0
210
0.0
220
0.0
230
1.0
  0
INSERT
  8
0
  2
BLOCK147
 10
0.0
 20
0.0
 30
0.0
210
0.0
220
0.0
230
1.0
  0
INSERT
  8
0
  2
BLOCK148
 10
0.0
 20
0.0
 30
0.0
210
0.0
220
0.0
230
1.0
  0
INSERT
  8
0
  2
BLOCK149
 10
0.0
 20
0.0
 30
0.0
210
0.0
220
0.0
230
1.0
  0
INSERT
  8
0
  2
BLOCK150
 10
0.0
 20
0.0
 30
0.0
210
0.0
220
0.0
230
1.0
  0
INSERT
  8
0
  2
BLOCK151
 10
0.0
 20
0.0
 30
0.0
210
0.0
220
0.0
230
1.0
  0
INSERT
  8
0
  2
BLOCK152
 10
0.0
 20
0.0
 30
0.0
210
0.0
220
0.0
230
1.0
  0
INSERT
  8
3
  2
BLOCK153
 10
0.0
 20
0.0
 30
0.0
210
0.0
220
0.0
230
1.0
  0
INSERT
  8
3
  2
BLOCK154
 10
0.0
 20
0.0
 30
0.0
210
0.0
220
0.0
230
1.0
  0
INSERT
  8
3
  2
BLOCK155
 10
0.0
 20
0.0
 30
0.0
210
0.0
220
0.0
230
1.0
  0
INSERT
  8
3
  2
BLOCK156
 10
0.0
 20
0.0
 30
0.0
210
0.0
220
0.0
230
1.0
  0
INSERT
  8
0
  2
BLOCK157
 10
0.0
 20
0.0
 30
0.0
210
0.0
220
0.0
230
1.0
  0
INSERT
  8
0
  2
BLOCK158
 10
0.0
 20
0.0
 30
0.0
210
0.0
220
0.0
230
1.0
  0
INSERT
  8
0
  2
BLOCK159
 10
0.0
 20
0.0
 30
0.0
210
0.0
220
0.0
230
1.0
  0
INSERT
  8
0
  2
BLOCK160
 10
0.0
 20
0.0
 30
0.0
210
0.0
220
0.0
230
1.0
  0
INSERT
  8
0
  2
BLOCK161
 10
0.0
 20
0.0
 30
0.0
210
0.0
220
0.0
230
1.0
  0
INSERT
  8
0
  2
BLOCK162
 10
0.0
 20
0.0
 30
0.0
210
0.0
220
0.0
230
1.0
  0
INSERT
  8
0
  2
BLOCK163
 10
0.0
 20
0.0
 30
0.0
210
0.0
220
0.0
230
1.0
  0
INSERT
  8
0
  2
BLOCK164
 10
0.0
 20
0.0
 30
0.0
210
0.0
220
0.0
230
1.0
  0
INSERT
  8
0
  2
BLOCK165
 10
0.0
 20
0.0
 30
0.0
210
0.0
220
0.0
230
1.0
  0
INSERT
  8
3
  2
BLOCK166
 10
0.0
 20
0.0
 30
0.0
210
0.0
220
0.0
230
1.0
  0
INSERT
  8
3
  2
BLOCK167
 10
0.0
 20
0.0
 30
0.0
210
0.0
220
0.0
230
1.0
  0
INSERT
  8
3
  2
BLOCK168
 10
0.0
 20
0.0
 30
0.0
210
0.0
220
0.0
230
1.0
  0
INSERT
  8
3
  2
BLOCK169
 10
0.0
 20
0.0
 30
0.0
210
0.0
220
0.0
230
1.0
  0
INSERT
  8
3
  2
BLOCK170
 10
0.0
 20
0.0
 30
0.0
210
0.0
220
0.0
230
1.0
  0
INSERT
  8
3
  2
BLOCK171
 10
0.0
 20
0.0
 30
0.0
210
0.0
220
0.0
230
1.0
  0
INSERT
  8
3
  2
BLOCK172
 10
0.0
 20
0.0
 30
0.0
210
0.0
220
0.0
230
1.0
  0
INSERT
  8
3
  2
BLOCK173
 10
0.0
 20
0.0
 30
0.0
210
0.0
220
0.0
230
1.0
  0
INSERT
  8
2
  2
BLOCK174
 10
0.0
 20
0.0
 30
0.0
210
0.0
220
0.0
230
1.0
  0
INSERT
  8
0
  2
BLOCK175
 10
0.0
 20
0.0
 30
0.0
210
0.0
220
0.0
230
1.0
  0
INSERT
  8
0
  2
BLOCK176
 10
0.0
 20
0.0
 30
0.0
210
0.0
220
0.0
230
1.0
  0
INSERT
  8
0
  2
BLOCK177
 10
0.0
 20
0.0
 30
0.0
210
0.0
220
0.0
230
1.0
  0
INSERT
  8
0
  2
BLOCK178
 10
0.0
 20
0.0
 30
0.0
210
0.0
220
0.0
230
1.0
  0
INSERT
  8
0
  2
BLOCK179
 10
0.0
 20
0.0
 30
0.0
210
0.0
220
0.0
230
1.0
  0
INSERT
  8
0
  2
BLOCK180
 10
0.0
 20
0.0
 30
0.0
210
0.0
220
0.0
230
1.0
  0
INSERT
  8
0
  2
BLOCK181
 10
0.0
 20
0.0
 30
0.0
210
0.0
220
0.0
230
1.0
  0
INSERT
  8
0
  2
BLOCK182
 10
0.0
 20
0.0
 30
0.0
210
0.0
220
0.0
230
1.0
  0
INSERT
  8
0
  2
BLOCK183
 10
0.0
 20
0.0
 30
0.0
210
0.0
220
0.0
230
1.0
  0
INSERT
  8
0
  2
BLOCK184
 10
0.0
 20
0.0
 30
0.0
210
0.0
220
0.0
230
1.0
  0
INSERT
  8
0
  2
BLOCK185
 10
0.0
 20
0.0
 30
0.0
210
0.0
220
0.0
230
1.0
  0
INSERT
  8
0
  2
BLOCK186
 10
0.0
 20
0.0
 30
0.0
210
0.0
220
0.0
230
1.0
  0
INSERT
  8
0
  2
BLOCK187
 10
0.0
 20
0.0
 30
0.0
210
0.0
220
0.0
230
1.0
  0
INSERT
  8
0
  2
BLOCK188
 10
0.0
 20
0.0
 30
0.0
210
0.0
220
0.0
230
1.0
  0
INSERT
  8
0
  2
BLOCK189
 10
24.872193
 20
198.243803
 30
0.0
210
0.0
220
0.0
230
1.0
  0
INSERT
  8
0
  2
BLOCK190
 10
24.872193
 20
198.243803
 30
0.0
210
0.0
220
0.0
230
1.0
  0
INSERT
  8
0
  2
BLOCK191
 10
157.826813
 20
198.243803
 30
0.0
210
0.0
220
0.0
230
1.0
  0
INSERT
  8
0
  2
BLOCK192
 10
157.826813
 20
198.243803
 30
0.0
210
0.0
220
0.0
230
1.0
  0
INSERT
  8
0
  2
BLOCK193
 10
157.826813
 20
198.243803
 30
0.0
210
0.0
220
0.0
230
1.0
  0
INSERT
  8
0
  2
BLOCK194
 10
24.872193
 20
120.379181
 30
0.0
210
0.0
220
0.0
230
1.0
  0
INSERT
  8
0
  2
BLOCK195
 10
24.872193
 20
120.379181
 30
0.0
210
0.0
220
0.0
230
1.0
  0
INSERT
  8
0
  2
BLOCK196
 10
24.872193
 20
120.379181
 30
0.0
210
0.0
220
0.0
230
1.0
  0
INSERT
  8
0
  2
BLOCK197
 10
24.872193
 20
120.379181
 30
0.0
210
0.0
220
0.0
230
1.0
  0
INSERT
  8
0
  2
BLOCK198
 10
154.474438
 20
92.648325
 30
0.0
 41
0.5
 42
0.5
 43
0.5
210
0.0
220
0.0
230
1.0
  0
ENDSEC
  0
EOF
