  0
SECTION
  2
HEADER
  9
$ACADVER
  1
AC1012
  9
$DWGCODEPAGE
  3
ansi_1252
  9
$INSBASE
 10
0.0
 20
0.0
 30
0.0
  9
$EXTMIN
 10
0.0
 20
0.0
 30
0.0
  9
$EXTMAX
 10
414.018005
 20
292.523407
 30
2.0
  9
$LIMMIN
 10
0.0
 20
0.0
  9
$LIMMAX
 10
420.0
 20
297.0
  9
$ORTHOMODE
 70
     0
  9
$REGENMODE
 70
     1
  9
$FILLMODE
 70
     1
  9
$QTEXTMODE
 70
     0
  9
$MIRRTEXT
 70
     1
  9
$DRAGMODE
 70
     2
  9
$LTSCALE
 40
1.0
  9
$OSMODE
 70
     0
  9
$ATTMODE
 70
     1
  9
$TEXTSIZE
 40
2.5
  9
$TRACEWID
 40
1.0
  9
$TEXTSTYLE
  7
STANDARD
  9
$CLAYER
  8
0
  9
$CELTYPE
  6
BYLAYER
  9
$CECOLOR
 62
   256
  9
$CELTSCALE
 40
1.0
  9
$DELOBJ
 70
     1
  9
$DISPSILH
 70
     0
  9
$DIMSCALE
 40
1.0
  9
$DIMASZ
 40
2.5
  9
$DIMEXO
 40
0.625
  9
$DIMDLI
 40
3.75
  9
$DIMRND
 40
0.0
  9
$DIMDLE
 40
0.0
  9
$DIMEXE
 40
1.25
  9
$DIMTP
 40
0.0
  9
$DIMTM
 40
0.0
  9
$DIMTXT
 40
2.5
  9
$DIMCEN
 40
2.5
  9
$DIMTSZ
 40
0.0
  9
$DIMTOL
 70
     0
  9
$DIMLIM
 70
     0
  9
$DIMTIH
 70
     0
  9
$DIMTOH
 70
     0
  9
$DIMSE1
 70
     0
  9
$DIMSE2
 70
     0
  9
$DIMTAD
 70
     1
  9
$DIMZIN
 70
     8
  9
$DIMBLK
  1

  9
$DIMASO
 70
     1
  9
$DIMSHO
 70
     1
  9
$DIMPOST
  1

  9
$DIMAPOST
  1

  9
$DIMALT
 70
     0
  9
$DIMALTD
 70
     3
  9
$DIMALTF
 40
0.03937
  9
$DIMLFAC
 40
1.0
  9
$DIMTOFL
 70
     1
  9
$DIMTVP
 40
0.0
  9
$DIMTIX
 70
     0
  9
$DIMSOXD
 70
     0
  9
$DIMSAH
 70
     0
  9
$DIMBLK1
  1

  9
$DIMBLK2
  1

  9
$DIMSTYLE
  2
STANDARD
  9
$DIMCLRD
 70
     0
  9
$DIMCLRE
 70
     0
  9
$DIMCLRT
 70
     0
  9
$DIMTFAC
 40
1.0
  9
$DIMGAP
 40
0.625
  9
$DIMJUST
 70
     0
  9
$DIMSD1
 70
     0
  9
$DIMSD2
 70
     0
  9
$DIMTOLJ
 70
     0
  9
$DIMTZIN
 70
     8
  9
$DIMALTZ
 70
     0
  9
$DIMALTTZ
 70
     0
  9
$DIMFIT
 70
     0
  9
$DIMUPT
 70
     0
  9
$DIMUNIT
 70
     2
  9
$DIMDEC
 70
     2
  9
$DIMTDEC
 70
     2
  9
$DIMALTU
 70
     2
  9
$DIMALTTD
 70
     3
  9
$DIMTXSTY
  7
STANDARD
  9
$DIMAUNIT
 70
     0
  9
$LUNITS
 70
     2
  9
$LUPREC
 70
     4
  9
$SKETCHINC
 40
1.0
  9
$FILLETRAD
 40
2.5
  9
$AUNITS
 70
     0
  9
$AUPREC
 70
     0
  9
$MENU
  1
.
  9
$ELEVATION
 40
0.0
  9
$PELEVATION
 40
0.0
  9
$THICKNESS
 40
0.0
  9
$LIMCHECK
 70
     0
  9
$BLIPMODE
 70
     1
  9
$CHAMFERA
 40
2.5
  9
$CHAMFERB
 40
2.5
  9
$CHAMFERC
 40
0.0
  9
$CHAMFERD
 40
0.0
  9
$SKPOLY
 70
     0
  9
$TDCREATE
 40
2447893.041666667
  9
$TDUPDATE
 40
2460396.670383947
  9
$TDINDWG
 40
0.0
  9
$TDUSRTIMER
 40
0.0
  9
$USRTIMER
 70
     1
  9
$ANGBASE
 50
0.0
  9
$ANGDIR
 70
     0
  9
$PDMODE
 70
     0
  9
$PDSIZE
 40
0.0
  9
$PLINEWID
 40
0.0
  9
$COORDS
 70
     0
  9
$SPLFRAME
 70
     0
  9
$SPLINETYPE
 70
     6
  9
$SPLINESEGS
 70
     8
  9
$ATTDIA
 70
     0
  9
$ATTREQ
 70
     1
  9
$HANDLING
 70
     1
  9
$HANDSEED
  5
796
  9
$SURFTAB1
 70
     6
  9
$SURFTAB2
 70
     6
  9
$SURFTYPE
 70
     6
  9
$SURFU
 70
     6
  9
$SURFV
 70
     6
  9
$UCSNAME
  2

  9
$UCSORG
 10
0.0
 20
0.0
 30
0.0
  9
$UCSXDIR
 10
1.0
 20
0.0
 30
0.0
  9
$UCSYDIR
 10
0.0
 20
1.0
 30
0.0
  9
$PUCSNAME
  2

  9
$PUCSORG
 10
0.0
 20
0.0
 30
0.0
  9
$PUCSXDIR
 10
1.0
 20
0.0
 30
0.0
  9
$PUCSYDIR
 10
0.0
 20
1.0
 30
0.0
  9
$USERI1
 70
     0
  9
$USERI2
 70
     0
  9
$USERI3
 70
     0
  9
$USERI4
 70
     0
  9
$USERI5
 70
     0
  9
$USERR1
 40
0.0
  9
$USERR2
 40
0.0
  9
$USERR3
 40
0.0
  9
$USERR4
 40
0.0
  9
$USERR5
 40
0.0
  9
$WORLDVIEW
 70
     1
  9
$SHADEDGE
 70
     3
  9
$SHADEDIF
 70
    70
  9
$TILEMODE
 70
     1
  9
$MAXACTVP
 70
    64
  9
$PINSBASE
 10
0.0
 20
0.0
 30
0.0
  9
$PLIMCHECK
 70
     0
  9
$PEXTMIN
 10
0.0
 20
0.0
 30
0.0
  9
$PEXTMAX
 10
414.018005
 20
292.523407
 30
2.0
  9
$PLIMMIN
 10
0.0
 20
0.0
  9
$PLIMMAX
 10
420.0
 20
297.0
  9
$UNITMODE
 70
     0
  9
$VISRETAIN
 70
     0
  9
$PLINEGEN
 70
     0
  9
$PSLTSCALE
 70
     1
  9
$TREEDEPTH
 70
  3020
  9
$PICKSTYLE
 70
     1
  9
$CMLSTYLE
  2
STANDARD
  9
$CMLJUST
 70
     0
  9
$CMLSCALE
 40
20.0
  9
$SAVEIMAGES
 70
     1
  0
ENDSEC
  0
SECTION
  2
CLASSES
  0
CLASS
  1
ACDBDICTIONARYWDFLT
  2
AcDbDictionaryWithDefault
  3
ObjectDBX Classes
 90
    32768
280
     0
281
     0
  0
CLASS
  1
VISUALSTYLE
  2
AcDbVisualStyle
  3
ObjectDBX Classes
 90
     4095
280
     0
281
     0
  0
CLASS
  1
MATERIAL
  2
AcDbMaterial
  3
ObjectDBX Classes
 90
     1153
280
     0
281
     0
  0
CLASS
  1
SCALE
  2
AcDbScale
  3
ObjectDBX Classes
 90
     1153
280
     0
281
     0
  0
CLASS
  1
TABLESTYLE
  2
AcDbTableStyle
  3
ObjectDBX Classes
 90
     4095
280
     0
281
     0
  0
CLASS
  1
MLEADERSTYLE
  2
AcDbMLeaderStyle
  3
ACDB_MLEADERSTYLE_CLASS
 90
     4095
280
     0
281
     0
  0
CLASS
  1
SUN
  2
AcDbSun
  3
SCENEOE
 90
     1153
280
     0
281
     0
  0
CLASS
  1
XRECORD
  2
AcDbXrecord
  3
ObjectDBX Classes
 90
    32768
280
     0
281
     0
  0
ENDSEC
  0
SECTION
  2
TABLES
  0
TABLE
  2
VPORT
  5
8
330
0
100
AcDbSymbolTable
 70
     1
  0
VPORT
  5
29
330
8
100
AcDbSymbolTableRecord
100
AcDbViewportTableRecord
  2
*ACTIVE
 70
     0
 10
0.0
 20
0.0
 11
1.0
 21
1.0
 12
10.429907
 22
4.5
 13
0.0
 23
0.0
 14
0.5
 24
0.5
 15
0.5
 25
0.5
 16
0.0
 26
0.0
 36
1.0
 17
0.0
 27
0.0
 37
0.0
 40
9.0
 41
1.972973
 42
50.0
 43
0.0
 44
0.0
 50
0.0
 51
0.0
 71
     0
 72
   100
 73
     1
 74
     3
 75
     0
 76
     0
 77
     0
 78
     0
  0
ENDTAB
  0
TABLE
  2
LTYPE
  5
5
330
0
100
AcDbSymbolTable
 70
     2
  0
LTYPE
  5
14
330
5
100
AcDbSymbolTableRecord
100
AcDbLinetypeTableRecord
  2
BYBLOCK
 70
     0
  3

 72
    65
 73
     0
 40
0.0
  0
LTYPE
  5
15
330
5
100
AcDbSymbolTableRecord
100
AcDbLinetypeTableRecord
  2
BYLAYER
 70
     0
  3

 72
    65
 73
     0
 40
0.0
  0
LTYPE
  5
16
330
5
100
AcDbSymbolTableRecord
100
AcDbLinetypeTableRecord
  2
CONTINUOUS
 70
     0
  3
Solid line
 72
    65
 73
     0
 40
0.0
  0
LTYPE
  5
6F
330
5
100
AcDbSymbolTableRecord
100
AcDbLinetypeTableRecord
  2
DASHDOT
 70
     0
  3
 __ . __ . __ . __ . __ . __ . __ . 
 72
    65
 73
     4
 40
18.5
 49
12.0
 74
     0
 49
-3.0
 74
     0
 49
0.5
 74
     0
 49
-3.0
 74
     0
  0
ENDTAB
  0
TABLE
  2
LAYER
  5
2
330
0
100
AcDbSymbolTable
 70
     1
  0
LAYER
  5
10
330
2
100
AcDbSymbolTableRecord
100
AcDbLayerTableRecord
  2
0
 70
     0
 62
     7
  6
CONTINUOUS
  0
ENDTAB
  0
TABLE
  2
STYLE
  5
3
330
0
100
AcDbSymbolTable
 70
     2
  0
STYLE
  5
11
330
3
100
AcDbSymbolTableRecord
100
AcDbTextStyleTableRecord
  2
STANDARD
 70
     0
 40
0.0
 41
1.0
 50
0.0
 71
     0
 42
2.5
  3
isocp.shx
  4

  0
STYLE
  5
6E
330
3
100
AcDbSymbolTableRecord
100
AcDbTextStyleTableRecord
  2
GDT
 70
     0
 40
0.0
 41
1.0
 50
0.0
 71
     0
 42
0.2
  3
gdt.shx
  4

  0
ENDTAB
  0
TABLE
  2
VIEW
  5
6
330
0
100
AcDbSymbolTable
 70
     0
  0
ENDTAB
  0
TABLE
  2
UCS
  5
7
330
0
100
AcDbSymbolTable
 70
     0
  0
ENDTAB
  0
TABLE
  2
APPID
  5
9
330
0
100
AcDbSymbolTable
 70
     1
  0
APPID
  5
12
330
9
100
AcDbSymbolTableRecord
100
AcDbRegAppTableRecord
  2
ACAD
 70
     0
  0
ENDTAB
  0
TABLE
  2
DIMSTYLE
  5
A
330
0
100
AcDbSymbolTable
 70
     1
  0
DIMSTYLE
105
27
102
{ACAD_REACTORS
330
773
330
775
330
777
330
779
330
77B
330
782
330
785
330
787
330
78E
330
790
102
}
330
A
100
AcDbSymbolTableRecord
100
AcDbDimStyleTableRecord
  2
STANDARD
 70
     0
  3

  4

  5

  6

  7

 40
1.0
 41
2.5
 42
0.625
 43
3.75
 44
1.25
 45
0.0
 46
0.0
 47
0.0
 48
0.0
140
2.5
141
2.5
142
0.0
143
0.03937
144
1.0
145
0.0
146
1.0
147
0.625
 71
     0
 72
     0
 73
     0
 74
     0
 75
     0
 76
     0
 77
     1
 78
     8
170
     0
171
     3
172
     1
173
     0
174
     0
175
     0
176
     0
177
     0
178
     0
270
     2
271
     2
272
     2
273
     2
274
     3
340
0
275
     0
280
     0
281
     0
282
     0
283
     0
284
     8
285
     0
286
     0
288
     0
  0
ENDTAB
  0
TABLE
  2
BLOCK_RECORD
  5
1
330
0
100
AcDbSymbolTable
 70
    84
  0
BLOCK_RECORD
  5
1F
330
1
100
AcDbSymbolTableRecord
100
AcDbBlockTableRecord
  2
*MODEL_SPACE
  0
BLOCK_RECORD
  5
1B
330
1
100
AcDbSymbolTableRecord
100
AcDbBlockTableRecord
  2
*PAPER_SPACE
  0
BLOCK_RECORD
  5
23
330
1
100
AcDbSymbolTableRecord
100
AcDbBlockTableRecord
  2
*PAPER_SPACE0
  0
BLOCK_RECORD
  5
70
330
1
100
AcDbSymbolTableRecord
100
AcDbBlockTableRecord
  2
BLOCK696
  0
BLOCK_RECORD
  5
73
330
1
100
AcDbSymbolTableRecord
100
AcDbBlockTableRecord
  2
BLOCK697
  0
BLOCK_RECORD
  5
76
330
1
100
AcDbSymbolTableRecord
100
AcDbBlockTableRecord
  2
BLOCK698
  0
BLOCK_RECORD
  5
79
330
1
100
AcDbSymbolTableRecord
100
AcDbBlockTableRecord
  2
BLOCK699
  0
BLOCK_RECORD
  5
7C
330
1
100
AcDbSymbolTableRecord
100
AcDbBlockTableRecord
  2
BLOCK700
  0
BLOCK_RECORD
  5
7F
330
1
100
AcDbSymbolTableRecord
100
AcDbBlockTableRecord
  2
BLOCK701
  0
BLOCK_RECORD
  5
82
330
1
100
AcDbSymbolTableRecord
100
AcDbBlockTableRecord
  2
BLOCK702
  0
BLOCK_RECORD
  5
85
330
1
100
AcDbSymbolTableRecord
100
AcDbBlockTableRecord
  2
BLOCK703
  0
BLOCK_RECORD
  5
88
330
1
100
AcDbSymbolTableRecord
100
AcDbBlockTableRecord
  2
BLOCK704
  0
BLOCK_RECORD
  5
8B
330
1
100
AcDbSymbolTableRecord
100
AcDbBlockTableRecord
  2
BLOCK705
  0
BLOCK_RECORD
  5
8E
330
1
100
AcDbSymbolTableRecord
100
AcDbBlockTableRecord
  2
BLOCK706
  0
BLOCK_RECORD
  5
91
330
1
100
AcDbSymbolTableRecord
100
AcDbBlockTableRecord
  2
BLOCK707
  0
BLOCK_RECORD
  5
94
330
1
100
AcDbSymbolTableRecord
100
AcDbBlockTableRecord
  2
BLOCK708
  0
BLOCK_RECORD
  5
97
330
1
100
AcDbSymbolTableRecord
100
AcDbBlockTableRecord
  2
BLOCK709
  0
BLOCK_RECORD
  5
9A
330
1
100
AcDbSymbolTableRecord
100
AcDbBlockTableRecord
  2
BLOCK710
  0
BLOCK_RECORD
  5
9D
330
1
100
AcDbSymbolTableRecord
100
AcDbBlockTableRecord
  2
BLOCK711
  0
BLOCK_RECORD
  5
A0
330
1
100
AcDbSymbolTableRecord
100
AcDbBlockTableRecord
  2
BLOCK712
  0
BLOCK_RECORD
  5
A3
330
1
100
AcDbSymbolTableRecord
100
AcDbBlockTableRecord
  2
BLOCK713
  0
BLOCK_RECORD
  5
A6
330
1
100
AcDbSymbolTableRecord
100
AcDbBlockTableRecord
  2
BLOCK714
  0
BLOCK_RECORD
  5
A9
330
1
100
AcDbSymbolTableRecord
100
AcDbBlockTableRecord
  2
BLOCK715
  0
BLOCK_RECORD
  5
AC
330
1
100
AcDbSymbolTableRecord
100
AcDbBlockTableRecord
  2
BLOCK716
  0
BLOCK_RECORD
  5
AF
330
1
100
AcDbSymbolTableRecord
100
AcDbBlockTableRecord
  2
BLOCK717
  0
BLOCK_RECORD
  5
B2
330
1
100
AcDbSymbolTableRecord
100
AcDbBlockTableRecord
  2
BLOCK718
  0
BLOCK_RECORD
  5
B5
330
1
100
AcDbSymbolTableRecord
100
AcDbBlockTableRecord
  2
BLOCK719
  0
BLOCK_RECORD
  5
B8
330
1
100
AcDbSymbolTableRecord
100
AcDbBlockTableRecord
  2
BLOCK720
  0
BLOCK_RECORD
  5
BB
330
1
100
AcDbSymbolTableRecord
100
AcDbBlockTableRecord
  2
BLOCK721
  0
BLOCK_RECORD
  5
BE
330
1
100
AcDbSymbolTableRecord
100
AcDbBlockTableRecord
  2
BLOCK722
  0
BLOCK_RECORD
  5
C1
330
1
100
AcDbSymbolTableRecord
100
AcDbBlockTableRecord
  2
BLOCK723
  0
BLOCK_RECORD
  5
C4
330
1
100
AcDbSymbolTableRecord
100
AcDbBlockTableRecord
  2
BLOCK724
  0
BLOCK_RECORD
  5
C7
330
1
100
AcDbSymbolTableRecord
100
AcDbBlockTableRecord
  2
BLOCK725
  0
BLOCK_RECORD
  5
CA
330
1
100
AcDbSymbolTableRecord
100
AcDbBlockTableRecord
  2
BLOCK726
  0
BLOCK_RECORD
  5
CD
330
1
100
AcDbSymbolTableRecord
100
AcDbBlockTableRecord
  2
BLOCK727
  0
BLOCK_RECORD
  5
D0
330
1
100
AcDbSymbolTableRecord
100
AcDbBlockTableRecord
  2
BLOCK728
  0
BLOCK_RECORD
  5
D3
330
1
100
AcDbSymbolTableRecord
100
AcDbBlockTableRecord
  2
BLOCK729
  0
BLOCK_RECORD
  5
D6
330
1
100
AcDbSymbolTableRecord
100
AcDbBlockTableRecord
  2
BLOCK730
  0
BLOCK_RECORD
  5
D9
330
1
100
AcDbSymbolTableRecord
100
AcDbBlockTableRecord
  2
BLOCK731
  0
BLOCK_RECORD
  5
DC
330
1
100
AcDbSymbolTableRecord
100
AcDbBlockTableRecord
  2
BLOCK732
  0
BLOCK_RECORD
  5
DF
330
1
100
AcDbSymbolTableRecord
100
AcDbBlockTableRecord
  2
BLOCK733
  0
BLOCK_RECORD
  5
E2
330
1
100
AcDbSymbolTableRecord
100
AcDbBlockTableRecord
  2
BLOCK734
  0
BLOCK_RECORD
  5
E5
330
1
100
AcDbSymbolTableRecord
100
AcDbBlockTableRecord
  2
BLOCK735
  0
BLOCK_RECORD
  5
E8
330
1
100
AcDbSymbolTableRecord
100
AcDbBlockTableRecord
  2
BLOCK736
  0
BLOCK_RECORD
  5
EB
330
1
100
AcDbSymbolTableRecord
100
AcDbBlockTableRecord
  2
BLOCK737
  0
BLOCK_RECORD
  5
EE
330
1
100
AcDbSymbolTableRecord
100
AcDbBlockTableRecord
  2
BLOCK738
  0
BLOCK_RECORD
  5
F1
330
1
100
AcDbSymbolTableRecord
100
AcDbBlockTableRecord
  2
BLOCK739
  0
BLOCK_RECORD
  5
F4
330
1
100
AcDbSymbolTableRecord
100
AcDbBlockTableRecord
  2
BLOCK740
  0
BLOCK_RECORD
  5
F7
330
1
100
AcDbSymbolTableRecord
100
AcDbBlockTableRecord
  2
BLOCK741
  0
BLOCK_RECORD
  5
FA
330
1
100
AcDbSymbolTableRecord
100
AcDbBlockTableRecord
  2
BLOCK742
  0
BLOCK_RECORD
  5
FD
330
1
100
AcDbSymbolTableRecord
100
AcDbBlockTableRecord
  2
BLOCK743
  0
BLOCK_RECORD
  5
100
330
1
100
AcDbSymbolTableRecord
100
AcDbBlockTableRecord
  2
BLOCK744
  0
BLOCK_RECORD
  5
103
330
1
100
AcDbSymbolTableRecord
100
AcDbBlockTableRecord
  2
BLOCK745
  0
BLOCK_RECORD
  5
106
330
1
100
AcDbSymbolTableRecord
100
AcDbBlockTableRecord
  2
BLOCK746
  0
BLOCK_RECORD
  5
109
330
1
100
AcDbSymbolTableRecord
100
AcDbBlockTableRecord
  2
BLOCK747
  0
BLOCK_RECORD
  5
10C
330
1
100
AcDbSymbolTableRecord
100
AcDbBlockTableRecord
  2
BLOCK748
  0
BLOCK_RECORD
  5
10F
330
1
100
AcDbSymbolTableRecord
100
AcDbBlockTableRecord
  2
BLOCK749
  0
BLOCK_RECORD
  5
112
330
1
100
AcDbSymbolTableRecord
100
AcDbBlockTableRecord
  2
BLOCK750
  0
BLOCK_RECORD
  5
115
330
1
100
AcDbSymbolTableRecord
100
AcDbBlockTableRecord
  2
BLOCK751
  0
BLOCK_RECORD
  5
118
330
1
100
AcDbSymbolTableRecord
100
AcDbBlockTableRecord
  2
BLOCK752
  0
BLOCK_RECORD
  5
11B
330
1
100
AcDbSymbolTableRecord
100
AcDbBlockTableRecord
  2
BLOCK753
  0
BLOCK_RECORD
  5
11E
330
1
100
AcDbSymbolTableRecord
100
AcDbBlockTableRecord
  2
BLOCK754
  0
BLOCK_RECORD
  5
121
330
1
100
AcDbSymbolTableRecord
100
AcDbBlockTableRecord
  2
BLOCK755
  0
BLOCK_RECORD
  5
124
330
1
100
AcDbSymbolTableRecord
100
AcDbBlockTableRecord
  2
*D61
  0
BLOCK_RECORD
  5
127
330
1
100
AcDbSymbolTableRecord
100
AcDbBlockTableRecord
  2
*D62
  0
BLOCK_RECORD
  5
12A
330
1
100
AcDbSymbolTableRecord
100
AcDbBlockTableRecord
  2
*D63
  0
BLOCK_RECORD
  5
12D
330
1
100
AcDbSymbolTableRecord
100
AcDbBlockTableRecord
  2
*D64
  0
BLOCK_RECORD
  5
130
330
1
100
AcDbSymbolTableRecord
100
AcDbBlockTableRecord
  2
*D65
  0
BLOCK_RECORD
  5
133
330
1
100
AcDbSymbolTableRecord
100
AcDbBlockTableRecord
  2
BLOCK756
  0
BLOCK_RECORD
  5
136
330
1
100
AcDbSymbolTableRecord
100
AcDbBlockTableRecord
  2
BLOCK757
  0
BLOCK_RECORD
  5
139
330
1
100
AcDbSymbolTableRecord
100
AcDbBlockTableRecord
  2
BLOCK758
  0
BLOCK_RECORD
  5
13C
330
1
100
AcDbSymbolTableRecord
100
AcDbBlockTableRecord
  2
BLOCK759
  0
BLOCK_RECORD
  5
13F
330
1
100
AcDbSymbolTableRecord
100
AcDbBlockTableRecord
  2
BLOCK760
  0
BLOCK_RECORD
  5
142
330
1
100
AcDbSymbolTableRecord
100
AcDbBlockTableRecord
  2
*D71
  0
BLOCK_RECORD
  5
145
330
1
100
AcDbSymbolTableRecord
100
AcDbBlockTableRecord
  2
BLOCK761
  0
BLOCK_RECORD
  5
148
330
1
100
AcDbSymbolTableRecord
100
AcDbBlockTableRecord
  2
*D73
  0
BLOCK_RECORD
  5
14B
330
1
100
AcDbSymbolTableRecord
100
AcDbBlockTableRecord
  2
*D74
  0
BLOCK_RECORD
  5
14E
330
1
100
AcDbSymbolTableRecord
100
AcDbBlockTableRecord
  2
BLOCK762
  0
BLOCK_RECORD
  5
151
330
1
100
AcDbSymbolTableRecord
100
AcDbBlockTableRecord
  2
BLOCK763
  0
BLOCK_RECORD
  5
154
330
1
100
AcDbSymbolTableRecord
100
AcDbBlockTableRecord
  2
BLOCK764
  0
BLOCK_RECORD
  5
157
330
1
100
AcDbSymbolTableRecord
100
AcDbBlockTableRecord
  2
BLOCK765
  0
BLOCK_RECORD
  5
15A
330
1
100
AcDbSymbolTableRecord
100
AcDbBlockTableRecord
  2
BLOCK766
  0
BLOCK_RECORD
  5
15D
330
1
100
AcDbSymbolTableRecord
100
AcDbBlockTableRecord
  2
*D80
  0
BLOCK_RECORD
  5
160
330
1
100
AcDbSymbolTableRecord
100
AcDbBlockTableRecord
  2
*D81
  0
BLOCK_RECORD
  5
163
330
1
100
AcDbSymbolTableRecord
100
AcDbBlockTableRecord
  2
BLOCK767
  0
BLOCK_RECORD
  5
166
330
1
100
AcDbSymbolTableRecord
100
AcDbBlockTableRecord
  2
BLOCK768
  0
ENDTAB
  0
ENDSEC
  0
SECTION
  2
BLOCKS
  0
BLOCK
  5
20
330
1F
100
AcDbEntity
  8
0
100
AcDbBlockBegin
  2
*MODEL_SPACE
 70
     0
 10
0.0
 20
0.0
 30
0.0
  3
*MODEL_SPACE
  1

  0
ENDBLK
  5
21
330
1F
100
AcDbEntity
  8
0
100
AcDbBlockEnd
  0
BLOCK
  5
1C
330
1B
100
AcDbEntity
 67
     1
  8
0
100
AcDbBlockBegin
  2
*PAPER_SPACE
 70
     0
 10
0.0
 20
0.0
 30
0.0
  3
*PAPER_SPACE
  1

  0
ENDBLK
  5
1D
330
1B
100
AcDbEntity
 67
     1
  8
0
100
AcDbBlockEnd
  0
BLOCK
  5
24
330
23
100
AcDbEntity
  8
0
100
AcDbBlockBegin
  2
*PAPER_SPACE0
 70
     0
 10
0.0
 20
0.0
 30
0.0
  3
*PAPER_SPACE0
  1

  0
ENDBLK
  5
25
330
23
100
AcDbEntity
  8
0
100
AcDbBlockEnd
  0
BLOCK
  5
71
330
70
100
AcDbEntity
  8
0
100
AcDbBlockBegin
  2
BLOCK696
 70
     0
 10
0.0
 20
0.0
 30
0.0
  3
BLOCK696
  1

  0
TEXT
  5
169
330
70
100
AcDbEntity
  8
0
 62
     7
100
AcDbText
 10
238.481995
 20
5.666787
 30
0.0
 40
3.5
  1
5
 41
1.071539
 72
     5
 11
241.518021
 21
5.666787
 31
0.0
100
AcDbText
  0
ENDBLK
  5
72
330
70
100
AcDbEntity
  8
0
100
AcDbBlockEnd
  0
BLOCK
  5
74
330
73
100
AcDbEntity
  8
0
100
AcDbBlockBegin
  2
BLOCK697
 70
     0
 10
0.0
 20
0.0
 30
0.0
  3
BLOCK697
  1

  0
TEXT
  5
16A
330
73
100
AcDbEntity
  8
0
 62
     7
100
AcDbText
 10
188.481995
 20
5.666787
 30
0.0
 40
3.5
  1
4
 41
1.012009
 72
     5
 11
191.518021
 21
5.666787
 31
0.0
100
AcDbText
  0
ENDBLK
  5
75
330
73
100
AcDbEntity
  8
0
100
AcDbBlockEnd
  0
BLOCK
  5
77
330
76
100
AcDbEntity
  8
0
100
AcDbBlockBegin
  2
BLOCK698
 70
     0
 10
0.0
 20
0.0
 30
0.0
  3
BLOCK698
  1

  0
TEXT
  5
16B
330
76
100
AcDbEntity
  8
0
 62
     7
100
AcDbText
 10
288.481995
 20
5.666787
 30
0.0
 40
3.5
  1
6
 41
1.071533
 72
     5
 11
291.518005
 21
5.666787
 31
0.0
100
AcDbText
  0
ENDBLK
  5
78
330
76
100
AcDbEntity
  8
0
100
AcDbBlockEnd
  0
BLOCK
  5
7A
330
79
100
AcDbEntity
  8
0
100
AcDbBlockBegin
  2
BLOCK699
 70
     0
 10
0.0
 20
0.0
 30
0.0
  3
BLOCK699
  1

  0
TEXT
  5
16C
330
79
100
AcDbEntity
  8
0
 62
     7
100
AcDbText
 10
138.481995
 20
5.666787
 30
0.0
 40
3.5
  1
3
 41
1.071539
 72
     5
 11
141.518021
 21
5.666787
 31
0.0
100
AcDbText
  0
ENDBLK
  5
7B
330
79
100
AcDbEntity
  8
0
100
AcDbBlockEnd
  0
BLOCK
  5
7D
330
7C
100
AcDbEntity
  8
0
100
AcDbBlockBegin
  2
BLOCK700
 70
     0
 10
0.0
 20
0.0
 30
0.0
  3
BLOCK700
  1

  0
TEXT
  5
16D
330
7C
100
AcDbEntity
  8
0
 62
     7
100
AcDbText
 10
338.481995
 20
5.666787
 30
0.0
 40
3.5
  1
7
 41
1.071533
 72
     5
 11
341.518005
 21
5.666787
 31
0.0
100
AcDbText
  0
ENDBLK
  5
7E
330
7C
100
AcDbEntity
  8
0
100
AcDbBlockEnd
  0
BLOCK
  5
80
330
7F
100
AcDbEntity
  8
0
100
AcDbBlockBegin
  2
BLOCK701
 70
     0
 10
0.0
 20
0.0
 30
0.0
  3
BLOCK701
  1

  0
TEXT
  5
16E
330
7F
100
AcDbEntity
  8
0
 62
     7
100
AcDbText
 10
88.481987
 20
5.666787
 30
0.0
 40
3.5
  1
2
 41
1.071539
 72
     5
 11
91.518013
 21
5.666787
 31
0.0
100
AcDbText
  0
ENDBLK
  5
81
330
7F
100
AcDbEntity
  8
0
100
AcDbBlockEnd
  0
BLOCK
  5
83
330
82
100
AcDbEntity
  8
0
100
AcDbBlockBegin
  2
BLOCK702
 70
     0
 10
0.0
 20
0.0
 30
0.0
  3
BLOCK702
  1

  0
TEXT
  5
16F
330
82
100
AcDbEntity
  8
0
 62
     7
100
AcDbText
 10
388.481995
 20
5.666787
 30
0.0
 40
3.5
  1
8
 41
1.071533
 72
     5
 11
391.518005
 21
5.666787
 31
0.0
100
AcDbText
  0
ENDBLK
  5
84
330
82
100
AcDbEntity
  8
0
100
AcDbBlockEnd
  0
BLOCK
  5
86
330
85
100
AcDbEntity
  8
0
100
AcDbBlockBegin
  2
BLOCK703
 70
     0
 10
0.0
 20
0.0
 30
0.0
  3
BLOCK703
  1

  0
TEXT
  5
170
330
85
100
AcDbEntity
  8
0
 62
     7
100
AcDbText
 10
38.481987
 20
5.666787
 30
0.0
 40
3.5
  1
1
 41
1.656012
 72
     5
 11
41.518009
 21
5.666787
 31
0.0
100
AcDbText
  0
ENDBLK
  5
87
330
85
100
AcDbEntity
  8
0
100
AcDbBlockEnd
  0
BLOCK
  5
89
330
88
100
AcDbEntity
  8
0
100
AcDbBlockBegin
  2
BLOCK704
 70
     0
 10
0.0
 20
0.0
 30
0.0
  3
BLOCK704
  1

  0
TEXT
  5
171
330
88
100
AcDbEntity
  8
0
 62
     7
100
AcDbText
 10
238.481995
 20
287.666779
 30
0.0
 40
3.5
  1
5
 41
1.071539
 72
     5
 11
241.518021
 21
287.666779
 31
0.0
100
AcDbText
  0
ENDBLK
  5
8A
330
88
100
AcDbEntity
  8
0
100
AcDbBlockEnd
  0
BLOCK
  5
8C
330
8B
100
AcDbEntity
  8
0
100
AcDbBlockBegin
  2
BLOCK705
 70
     0
 10
0.0
 20
0.0
 30
0.0
  3
BLOCK705
  1

  0
TEXT
  5
172
330
8B
100
AcDbEntity
  8
0
 62
     7
100
AcDbText
 10
188.481995
 20
287.666779
 30
0.0
 40
3.5
  1
4
 41
1.012009
 72
     5
 11
191.518021
 21
287.666779
 31
0.0
100
AcDbText
  0
ENDBLK
  5
8D
330
8B
100
AcDbEntity
  8
0
100
AcDbBlockEnd
  0
BLOCK
  5
8F
330
8E
100
AcDbEntity
  8
0
100
AcDbBlockBegin
  2
BLOCK706
 70
     0
 10
0.0
 20
0.0
 30
0.0
  3
BLOCK706
  1

  0
TEXT
  5
173
330
8E
100
AcDbEntity
  8
0
 62
     7
100
AcDbText
 10
288.481995
 20
287.666779
 30
0.0
 40
3.5
  1
6
 41
1.071533
 72
     5
 11
291.518005
 21
287.666779
 31
0.0
100
AcDbText
  0
ENDBLK
  5
90
330
8E
100
AcDbEntity
  8
0
100
AcDbBlockEnd
  0
BLOCK
  5
92
330
91
100
AcDbEntity
  8
0
100
AcDbBlockBegin
  2
BLOCK707
 70
     0
 10
0.0
 20
0.0
 30
0.0
  3
BLOCK707
  1

  0
TEXT
  5
174
330
91
100
AcDbEntity
  8
0
 62
     7
100
AcDbText
 10
138.481995
 20
287.666779
 30
0.0
 40
3.5
  1
3
 41
1.071539
 72
     5
 11
141.518021
 21
287.666779
 31
0.0
100
AcDbText
  0
ENDBLK
  5
93
330
91
100
AcDbEntity
  8
0
100
AcDbBlockEnd
  0
BLOCK
  5
95
330
94
100
AcDbEntity
  8
0
100
AcDbBlockBegin
  2
BLOCK708
 70
     0
 10
0.0
 20
0.0
 30
0.0
  3
BLOCK708
  1

  0
TEXT
  5
175
330
94
100
AcDbEntity
  8
0
 62
     7
100
AcDbText
 10
338.481995
 20
287.666779
 30
0.0
 40
3.5
  1
7
 41
1.071533
 72
     5
 11
341.518005
 21
287.666779
 31
0.0
100
AcDbText
  0
ENDBLK
  5
96
330
94
100
AcDbEntity
  8
0
100
AcDbBlockEnd
  0
BLOCK
  5
98
330
97
100
AcDbEntity
  8
0
100
AcDbBlockBegin
  2
BLOCK709
 70
     0
 10
0.0
 20
0.0
 30
0.0
  3
BLOCK709
  1

  0
TEXT
  5
176
330
97
100
AcDbEntity
  8
0
 62
     7
100
AcDbText
 10
88.481987
 20
287.666779
 30
0.0
 40
3.5
  1
2
 41
1.071539
 72
     5
 11
91.518013
 21
287.666779
 31
0.0
100
AcDbText
  0
ENDBLK
  5
99
330
97
100
AcDbEntity
  8
0
100
AcDbBlockEnd
  0
BLOCK
  5
9B
330
9A
100
AcDbEntity
  8
0
100
AcDbBlockBegin
  2
BLOCK710
 70
     0
 10
0.0
 20
0.0
 30
0.0
  3
BLOCK710
  1

  0
TEXT
  5
177
330
9A
100
AcDbEntity
  8
0
 62
     7
100
AcDbText
 10
388.481995
 20
287.666779
 30
0.0
 40
3.5
  1
8
 41
1.071533
 72
     5
 11
391.518005
 21
287.666779
 31
0.0
100
AcDbText
  0
ENDBLK
  5
9C
330
9A
100
AcDbEntity
  8
0
100
AcDbBlockEnd
  0
BLOCK
  5
9E
330
9D
100
AcDbEntity
  8
0
100
AcDbBlockBegin
  2
BLOCK711
 70
     0
 10
0.0
 20
0.0
 30
0.0
  3
BLOCK711
  1

  0
TEXT
  5
178
330
9D
100
AcDbEntity
  8
0
 62
     7
100
AcDbText
 10
38.481987
 20
287.666779
 30
0.0
 40
3.5
  1
1
 41
1.656012
 72
     5
 11
41.518009
 21
287.666779
 31
0.0
100
AcDbText
  0
ENDBLK
  5
9F
330
9D
100
AcDbEntity
  8
0
100
AcDbBlockEnd
  0
BLOCK
  5
A1
330
A0
100
AcDbEntity
  8
0
100
AcDbBlockBegin
  2
BLOCK712
 70
     0
 10
0.0
 20
0.0
 30
0.0
  3
BLOCK712
  1

  0
TEXT
  5
179
330
A0
100
AcDbEntity
  8
0
 62
     7
100
AcDbText
 10
15.981989
 20
170.581787
 30
0.0
 40
3.5
  1
C
 41
1.012008
 72
     5
 11
19.018013
 21
170.581787
 31
0.0
100
AcDbText
  0
ENDBLK
  5
A2
330
A0
100
AcDbEntity
  8
0
100
AcDbBlockEnd
  0
BLOCK
  5
A4
330
A3
100
AcDbEntity
  8
0
100
AcDbBlockBegin
  2
BLOCK713
 70
     0
 10
0.0
 20
0.0
 30
0.0
  3
BLOCK713
  1

  0
TEXT
  5
17A
330
A3
100
AcDbEntity
  8
0
 62
     7
100
AcDbText
 10
15.981989
 20
122.751785
 30
0.0
 40
3.5
  1
D
 41
1.012008
 72
     5
 11
19.018013
 21
122.751785
 31
0.0
100
AcDbText
  0
ENDBLK
  5
A5
330
A3
100
AcDbEntity
  8
0
100
AcDbBlockEnd
  0
BLOCK
  5
A7
330
A6
100
AcDbEntity
  8
0
100
AcDbBlockBegin
  2
BLOCK714
 70
     0
 10
0.0
 20
0.0
 30
0.0
  3
BLOCK714
  1

  0
TEXT
  5
17B
330
A6
100
AcDbEntity
  8
0
 62
     7
100
AcDbText
 10
410.981995
 20
170.581787
 30
0.0
 40
3.5
  1
C
 41
1.012004
 72
     5
 11
414.018005
 21
170.581787
 31
0.0
100
AcDbText
  0
ENDBLK
  5
A8
330
A6
100
AcDbEntity
  8
0
100
AcDbBlockEnd
  0
BLOCK
  5
AA
330
A9
100
AcDbEntity
  8
0
100
AcDbBlockBegin
  2
BLOCK715
 70
     0
 10
0.0
 20
0.0
 30
0.0
  3
BLOCK715
  1

  0
TEXT
  5
17C
330
A9
100
AcDbEntity
  8
0
 62
     7
100
AcDbText
 10
410.981995
 20
122.751785
 30
0.0
 40
3.5
  1
D
 41
1.012004
 72
     5
 11
414.018005
 21
122.751785
 31
0.0
100
AcDbText
  0
ENDBLK
  5
AB
330
A9
100
AcDbEntity
  8
0
100
AcDbBlockEnd
  0
BLOCK
  5
AD
330
AC
100
AcDbEntity
  8
0
100
AcDbBlockBegin
  2
BLOCK716
 70
     0
 10
0.0
 20
0.0
 30
0.0
  3
BLOCK716
  1

  0
TEXT
  5
17D
330
AC
100
AcDbEntity
  8
0
 62
     7
100
AcDbText
 10
15.981989
 20
218.411789
 30
0.0
 40
3.5
  1
B
 41
1.012008
 72
     5
 11
19.018013
 21
218.411789
 31
0.0
100
AcDbText
  0
ENDBLK
  5
AE
330
AC
100
AcDbEntity
  8
0
100
AcDbBlockEnd
  0
BLOCK
  5
B0
330
AF
100
AcDbEntity
  8
0
100
AcDbBlockBegin
  2
BLOCK717
 70
     0
 10
0.0
 20
0.0
 30
0.0
  3
BLOCK717
  1

  0
TEXT
  5
17E
330
AF
100
AcDbEntity
  8
0
 62
     7
100
AcDbText
 10
15.981989
 20
74.921783
 30
0.0
 40
3.5
  1
E
 41
1.071538
 72
     5
 11
19.018013
 21
74.921783
 31
0.0
100
AcDbText
  0
ENDBLK
  5
B1
330
AF
100
AcDbEntity
  8
0
100
AcDbBlockEnd
  0
BLOCK
  5
B3
330
B2
100
AcDbEntity
  8
0
100
AcDbBlockBegin
  2
BLOCK718
 70
     0
 10
0.0
 20
0.0
 30
0.0
  3
BLOCK718
  1

  0
TEXT
  5
17F
330
B2
100
AcDbEntity
  8
0
 62
     7
100
AcDbText
 10
410.981995
 20
218.411789
 30
0.0
 40
3.5
  1
B
 41
1.012004
 72
     5
 11
414.018005
 21
218.411789
 31
0.0
100
AcDbText
  0
ENDBLK
  5
B4
330
B2
100
AcDbEntity
  8
0
100
AcDbBlockEnd
  0
BLOCK
  5
B6
330
B5
100
AcDbEntity
  8
0
100
AcDbBlockBegin
  2
BLOCK719
 70
     0
 10
0.0
 20
0.0
 30
0.0
  3
BLOCK719
  1

  0
TEXT
  5
180
330
B5
100
AcDbEntity
  8
0
 62
     7
100
AcDbText
 10
410.981995
 20
74.921783
 30
0.0
 40
3.5
  1
E
 41
1.071533
 72
     5
 11
414.018005
 21
74.921783
 31
0.0
100
AcDbText
  0
ENDBLK
  5
B7
330
B5
100
AcDbEntity
  8
0
100
AcDbBlockEnd
  0
BLOCK
  5
B9
330
B8
100
AcDbEntity
  8
0
100
AcDbBlockBegin
  2
BLOCK720
 70
     0
 10
0.0
 20
0.0
 30
0.0
  3
BLOCK720
  1

  0
TEXT
  5
181
330
B8
100
AcDbEntity
  8
0
 62
     7
100
AcDbText
 10
15.981989
 20
266.241791
 30
0.0
 40
3.5
  1
A
 41
1.071538
 72
     5
 11
19.018013
 21
266.241791
 31
0.0
100
AcDbText
  0
ENDBLK
  5
BA
330
B8
100
AcDbEntity
  8
0
100
AcDbBlockEnd
  0
BLOCK
  5
BC
330
BB
100
AcDbEntity
  8
0
100
AcDbBlockBegin
  2
BLOCK721
 70
     0
 10
0.0
 20
0.0
 30
0.0
  3
BLOCK721
  1

  0
TEXT
  5
182
330
BB
100
AcDbEntity
  8
0
 62
     7
100
AcDbText
 10
15.981989
 20
27.091785
 30
0.0
 40
3.5
  1
F
 41
1.071538
 72
     5
 11
19.018013
 21
27.091785
 31
0.0
100
AcDbText
  0
ENDBLK
  5
BD
330
BB
100
AcDbEntity
  8
0
100
AcDbBlockEnd
  0
BLOCK
  5
BF
330
BE
100
AcDbEntity
  8
0
100
AcDbBlockBegin
  2
BLOCK722
 70
     0
 10
0.0
 20
0.0
 30
0.0
  3
BLOCK722
  1

  0
TEXT
  5
183
330
BE
100
AcDbEntity
  8
0
 62
     7
100
AcDbText
 10
410.981995
 20
266.241791
 30
0.0
 40
3.5
  1
A
 41
1.071533
 72
     5
 11
414.018005
 21
266.241791
 31
0.0
100
AcDbText
  0
ENDBLK
  5
C0
330
BE
100
AcDbEntity
  8
0
100
AcDbBlockEnd
  0
BLOCK
  5
C2
330
C1
100
AcDbEntity
  8
0
100
AcDbBlockBegin
  2
BLOCK723
 70
     0
 10
0.0
 20
0.0
 30
0.0
  3
BLOCK723
  1

  0
TEXT
  5
184
330
C1
100
AcDbEntity
  8
0
 62
     7
100
AcDbText
 10
410.981995
 20
27.091785
 30
0.0
 40
3.5
  1
F
 41
1.071533
 72
     5
 11
414.018005
 21
27.091785
 31
0.0
100
AcDbText
  0
ENDBLK
  5
C3
330
C1
100
AcDbEntity
  8
0
100
AcDbBlockEnd
  0
BLOCK
  5
C5
330
C4
100
AcDbEntity
  8
0
100
AcDbBlockBegin
  2
BLOCK724
 70
     0
 10
0.0
 20
0.0
 30
0.0
  3
BLOCK724
  1

  0
TEXT
  5
185
330
C4
100
AcDbEntity
  8
0
 62
     7
100
AcDbText
 10
401.704956
 20
21.5951
 30
0.0
 40
1.75
  1
01/01
 41
0.979362
 72
     5
 11
409.295013
 21
21.5951
 31
0.0
100
AcDbText
  0
ENDBLK
  5
C6
330
C4
100
AcDbEntity
  8
0
100
AcDbBlockEnd
  0
BLOCK
  5
C8
330
C7
100
AcDbEntity
  8
0
100
AcDbBlockBegin
  2
BLOCK725
 70
     0
 10
0.0
 20
0.0
 30
0.0
  3
BLOCK725
  1

  0
TEXT
  5
186
330
C7
100
AcDbEntity
  8
0
 62
     7
100
AcDbText
 10
402.030273
 20
12.36023
 30
0.0
 40
4.0
  1
A3
 41
1.040923
 72
     5
 11
408.969757
 21
12.36023
 31
0.0
100
AcDbText
  0
ENDBLK
  5
C9
330
C7
100
AcDbEntity
  8
0
100
AcDbBlockEnd
  0
BLOCK
  5
CB
330
CA
100
AcDbEntity
  8
0
100
AcDbBlockBegin
  2
BLOCK726
 70
     0
 10
0.0
 20
0.0
 30
0.0
  3
BLOCK726
  1

  0
TEXT
  5
187
330
CA
100
AcDbEntity
  8
0
 62
     7
100
AcDbText
 10
391.0
 20
23.8451
 30
0.0
 40
1.75
  1
Index
 41
1.167701
 72
     5
 11
398.590057
 21
23.8451
 31
0.0
100
AcDbText
  0
ENDBLK
  5
CC
330
CA
100
AcDbEntity
  8
0
100
AcDbBlockEnd
  0
BLOCK
  5
CE
330
CD
100
AcDbEntity
  8
0
100
AcDbBlockBegin
  2
BLOCK727
 70
     0
 10
0.0
 20
0.0
 30
0.0
  3
BLOCK727
  1

  0
TEXT
  5
188
330
CD
100
AcDbEntity
  8
0
 62
     7
100
AcDbText
 10
346.0
 20
23.8451
 30
0.0
 40
1.75
  1
Part no.
 41
1.120994
 72
     5
 11
358.144104
 21
23.8451
 31
0.0
100
AcDbText
  0
ENDBLK
  5
CF
330
CD
100
AcDbEntity
  8
0
100
AcDbBlockEnd
  0
BLOCK
  5
D1
330
D0
100
AcDbEntity
  8
0
100
AcDbBlockBegin
  2
BLOCK728
 70
     0
 10
0.0
 20
0.0
 30
0.0
  3
BLOCK728
  1

  0
TEXT
  5
189
330
D0
100
AcDbEntity
  8
0
 62
     7
100
AcDbText
 10
346.0
 20
14.690202
 30
0.0
 40
3.5
  1
G8710002
 41
0.922336
 72
     5
 11
370.288177
 21
14.690202
 31
0.0
100
AcDbText
  0
ENDBLK
  5
D2
330
D0
100
AcDbEntity
  8
0
100
AcDbBlockEnd
  0
BLOCK
  5
D4
330
D3
100
AcDbEntity
  8
0
100
AcDbBlockBegin
  2
BLOCK729
 70
     0
 10
0.0
 20
0.0
 30
0.0
  3
BLOCK729
  1

  0
TEXT
  5
18A
330
D3
100
AcDbEntity
  8
0
 62
     7
100
AcDbText
 10
231.0
 20
23.8451
 30
0.0
 40
1.75
  1
Part name
 41
0.970091
 72
     5
 11
244.662109
 21
23.8451
 31
0.0
100
AcDbText
  0
ENDBLK
  5
D5
330
D3
100
AcDbEntity
  8
0
100
AcDbBlockEnd
  0
BLOCK
  5
D7
330
D6
100
AcDbEntity
  8
0
100
AcDbBlockBegin
  2
BLOCK730
 70
     0
 10
0.0
 20
0.0
 30
0.0
  3
BLOCK730
  1

  0
TEXT
  5
18B
330
D6
100
AcDbEntity
  8
0
 62
     7
100
AcDbText
 10
346.0
 20
37.8451
 30
0.0
 40
1.75
  1
Used in
 41
1.062607
 72
     5
 11
356.626068
 21
37.8451
 31
0.0
100
AcDbText
  0
ENDBLK
  5
D8
330
D6
100
AcDbEntity
  8
0
100
AcDbBlockEnd
  0
BLOCK
  5
DA
330
D9
100
AcDbEntity
  8
0
100
AcDbBlockBegin
  2
BLOCK731
 70
     0
 10
0.0
 20
0.0
 30
0.0
  3
BLOCK731
  1

  0
TEXT
  5
18C
330
D9
100
AcDbEntity
  8
0
 62
     7
100
AcDbText
 10
346.0
 20
41.8451
 30
0.0
 40
1.75
  1
Drawing
 41
1.089853
 72
     5
 11
356.626068
 21
41.8451
 31
0.0
100
AcDbText
  0
ENDBLK
  5
DB
330
D9
100
AcDbEntity
  8
0
100
AcDbBlockEnd
  0
BLOCK
  5
DD
330
DC
100
AcDbEntity
  8
0
100
AcDbBlockBegin
  2
BLOCK732
 70
     0
 10
0.0
 20
0.0
 30
0.0
  3
BLOCK732
  1

  0
TEXT
  5
18D
330
DC
100
AcDbEntity
  8
0
 62
     7
100
AcDbText
 10
373.0
 20
41.8451
 30
0.0
 40
1.75
  1
IN_WORK
 41
0.97338
 72
     5
 11
383.626068
 21
41.8451
 31
0.0
100
AcDbText
  0
ENDBLK
  5
DE
330
DC
100
AcDbEntity
  8
0
100
AcDbBlockEnd
  0
BLOCK
  5
E0
330
DF
100
AcDbEntity
  8
0
100
AcDbBlockBegin
  2
BLOCK733
 70
     0
 10
0.0
 20
0.0
 30
0.0
  3
BLOCK733
  1

  0
TEXT
  5
18E
330
DF
100
AcDbEntity
  8
0
 62
     7
100
AcDbText
 10
398.0
 20
41.8451
 30
0.0
 40
1.75
  1
0.1
 41
1.332892
 72
     5
 11
402.554047
 21
41.8451
 31
0.0
100
AcDbText
  0
ENDBLK
  5
E1
330
DF
100
AcDbEntity
  8
0
100
AcDbBlockEnd
  0
BLOCK
  5
E3
330
E2
100
AcDbEntity
  8
0
100
AcDbBlockBegin
  2
BLOCK734
 70
     0
 10
0.0
 20
0.0
 30
0.0
  3
BLOCK734
  1

  0
TEXT
  5
18F
330
E2
100
AcDbEntity
  8
0
 62
     7
100
AcDbText
 10
346.0
 20
45.3451
 30
0.0
 40
1.75
  1
Part/Product
 41
1.061134
 72
     5
 11
364.216125
 21
45.3451
 31
0.0
100
AcDbText
  0
ENDBLK
  5
E4
330
E2
100
AcDbEntity
  8
0
100
AcDbBlockEnd
  0
BLOCK
  5
E6
330
E5
100
AcDbEntity
  8
0
100
AcDbBlockBegin
  2
BLOCK735
 70
     0
 10
0.0
 20
0.0
 30
0.0
  3
BLOCK735
  1

  0
TEXT
  5
190
330
E5
100
AcDbEntity
  8
0
 62
     7
100
AcDbText
 10
373.0
 20
45.3451
 30
0.0
 40
1.75
  1
RELEASED
 41
0.965094
 72
     5
 11
385.144104
 21
45.3451
 31
0.0
100
AcDbText
  0
ENDBLK
  5
E7
330
E5
100
AcDbEntity
  8
0
100
AcDbBlockEnd
  0
BLOCK
  5
E9
330
E8
100
AcDbEntity
  8
0
100
AcDbBlockBegin
  2
BLOCK736
 70
     0
 10
0.0
 20
0.0
 30
0.0
  3
BLOCK736
  1

  0
TEXT
  5
191
330
E8
100
AcDbEntity
  8
0
 62
     7
100
AcDbText
 10
398.0
 20
45.3451
 30
0.0
 40
1.75
  1
1.1
 41
1.332892
 72
     5
 11
402.554047
 21
45.3451
 31
0.0
100
AcDbText
  0
ENDBLK
  5
EA
330
E8
100
AcDbEntity
  8
0
100
AcDbBlockEnd
  0
BLOCK
  5
EC
330
EB
100
AcDbEntity
  8
0
100
AcDbBlockBegin
  2
BLOCK737
 70
     0
 10
0.0
 20
0.0
 30
0.0
  3
BLOCK737
  1

  0
TEXT
  5
192
330
EB
100
AcDbEntity
  8
0
 62
     7
100
AcDbText
 10
327.427948
 20
43.0951
 30
0.0
 40
1.75
  1
Released
 41
1.087532
 72
     5
 11
339.572052
 21
43.0951
 31
0.0
100
AcDbText
  0
ENDBLK
  5
ED
330
EB
100
AcDbEntity
  8
0
100
AcDbBlockEnd
  0
BLOCK
  5
EF
330
EE
100
AcDbEntity
  8
0
100
AcDbBlockBegin
  2
BLOCK738
 70
     0
 10
0.0
 20
0.0
 30
0.0
  3
BLOCK738
  1

  0
TEXT
  5
193
330
EE
100
AcDbEntity
  8
0
 62
     7
100
AcDbText
 10
304.927948
 20
43.0951
 30
0.0
 40
1.75
  1
Drawn by
 41
0.984657
 72
     5
 11
317.072052
 21
43.0951
 31
0.0
100
AcDbText
  0
ENDBLK
  5
F0
330
EE
100
AcDbEntity
  8
0
100
AcDbBlockEnd
  0
BLOCK
  5
F2
330
F1
100
AcDbEntity
  8
0
100
AcDbBlockBegin
  2
BLOCK739
 70
     0
 10
0.0
 20
0.0
 30
0.0
  3
BLOCK739
  1

  0
TEXT
  5
194
330
F1
100
AcDbEntity
  8
0
 62
     7
100
AcDbText
 10
290.0
 20
36.5951
 30
0.0
 40
1.75
  1
Date
 41
1.087532
 72
     5
 11
296.072052
 21
36.5951
 31
0.0
100
AcDbText
  0
ENDBLK
  5
F3
330
F1
100
AcDbEntity
  8
0
100
AcDbBlockEnd
  0
BLOCK
  5
F5
330
F4
100
AcDbEntity
  8
0
100
AcDbBlockBegin
  2
BLOCK740
 70
     0
 10
0.0
 20
0.0
 30
0.0
  3
BLOCK740
  1

  0
TEXT
  5
195
330
F4
100
AcDbEntity
  8
0
 62
     7
100
AcDbText
 10
303.409943
 20
36.5951
 30
0.0
 40
1.75
  1
26.03.2024
 41
1.023379
 72
     5
 11
318.590057
 21
36.5951
 31
0.0
100
AcDbText
  0
ENDBLK
  5
F6
330
F4
100
AcDbEntity
  8
0
100
AcDbBlockEnd
  0
BLOCK
  5
F8
330
F7
100
AcDbEntity
  8
0
100
AcDbBlockBegin
  2
BLOCK741
 70
     0
 10
0.0
 20
0.0
 30
0.0
  3
BLOCK741
  1

  0
TEXT
  5
196
330
F7
100
AcDbEntity
  8
0
 62
     7
100
AcDbText
 10
290.0
 20
29.5951
 30
0.0
 40
1.75
  1
Name
 41
0.847263
 72
     5
 11
296.072052
 21
29.5951
 31
0.0
100
AcDbText
  0
ENDBLK
  5
F9
330
F7
100
AcDbEntity
  8
0
100
AcDbBlockEnd
  0
BLOCK
  5
FB
330
FA
100
AcDbEntity
  8
0
100
AcDbBlockBegin
  2
BLOCK742
 70
     0
 10
0.0
 20
0.0
 30
0.0
  3
BLOCK742
  1

  0
TEXT
  5
197
330
FA
100
AcDbEntity
  8
0
 62
     7
100
AcDbText
 10
306.445953
 20
29.5951
 30
0.0
 40
1.75
  1
tokunz
 41
1.092968
 72
     5
 11
315.554016
 21
29.5951
 31
0.0
100
AcDbText
  0
ENDBLK
  5
FC
330
FA
100
AcDbEntity
  8
0
100
AcDbBlockEnd
  0
BLOCK
  5
FE
330
FD
100
AcDbEntity
  8
0
100
AcDbBlockBegin
  2
BLOCK743
 70
     0
 10
0.0
 20
0.0
 30
0.0
  3
BLOCK743
  1

  0
TEXT
  5
198
330
FD
100
AcDbEntity
  8
0
 62
     7
100
AcDbText
 10
231.0
 20
33.8451
 30
0.0
 40
1.75
  1
Replacement for
 41
1.035008
 72
     5
 11
253.770172
 21
33.8451
 31
0.0
100
AcDbText
  0
ENDBLK
  5
FF
330
FD
100
AcDbEntity
  8
0
100
AcDbBlockEnd
  0
BLOCK
  5
101
330
100
100
AcDbEntity
  8
0
100
AcDbBlockBegin
  2
BLOCK744
 70
     0
 10
0.0
 20
0.0
 30
0.0
  3
BLOCK744
  1

  0
TEXT
  5
199
330
100
100
AcDbEntity
  8
0
 62
     7
100
AcDbText
 10
231.0
 20
44.8451
 30
0.0
 40
1.75
  1
Material
 41
1.245548
 72
     5
 11
243.144089
 21
44.8451
 31
0.0
100
AcDbText
  0
ENDBLK
  5
102
330
100
100
AcDbEntity
  8
0
100
AcDbBlockEnd
  0
BLOCK
  5
104
330
103
100
AcDbEntity
  8
0
100
AcDbBlockBegin
  2
BLOCK745
 70
     0
 10
0.0
 20
0.0
 30
0.0
  3
BLOCK745
  1

  0
TEXT
  5
19A
330
103
100
AcDbEntity
  8
0
 62
     7
100
AcDbText
 10
325.0
 20
59.794094
 30
0.0
 40
1.6
  1
Constr.-scale
 41
1.106589
 72
     5
 11
343.042664
 21
59.794094
 31
0.0
100
AcDbText
  0
ENDBLK
  5
105
330
103
100
AcDbEntity
  8
0
100
AcDbBlockEnd
  0
BLOCK
  5
107
330
106
100
AcDbEntity
  8
0
100
AcDbBlockBegin
  2
BLOCK746
 70
     0
 10
0.0
 20
0.0
 30
0.0
  3
BLOCK746
  1

  0
TEXT
  5
19B
330
106
100
AcDbEntity
  8
0
 62
     7
100
AcDbText
 10
330.247131
 20
53.350143
 30
0.0
 40
2.5
  1
1:1
 41
1.332889
 72
     5
 11
336.752899
 21
53.350143
 31
0.0
100
AcDbText
  0
ENDBLK
  5
108
330
106
100
AcDbEntity
  8
0
100
AcDbBlockEnd
  0
BLOCK
  5
10A
330
109
100
AcDbEntity
  8
0
100
AcDbBlockBegin
  2
BLOCK747
 70
     0
 10
0.0
 20
0.0
 30
0.0
  3
BLOCK747
  1

  0
TEXT
  5
19C
330
109
100
AcDbEntity
  8
0
 62
     7
100
AcDbText
 10
300.5
 20
59.794094
 30
0.0
 40
1.6
  1
Perm. deviation
 41
1.106244
 72
     5
 11
321.318451
 21
59.794094
 31
0.0
100
AcDbText
  0
ENDBLK
  5
10B
330
109
100
AcDbEntity
  8
0
100
AcDbBlockEnd
  0
BLOCK
  5
10D
330
10C
100
AcDbEntity
  8
0
100
AcDbBlockBegin
  2
BLOCK748
 70
     0
 10
0.0
 20
0.0
 30
0.0
  3
BLOCK748
  1

  0
TEXT
  5
19D
330
10C
100
AcDbEntity
  8
0
 62
     7
100
AcDbText
 10
269.0
 20
59.824093
 30
0.0
 40
1.6
  1
Weight/Surface
 41
1.071537
 72
     5
 11
288.430542
 21
59.824093
 31
0.0
100
AcDbText
  0
ENDBLK
  5
10E
330
10C
100
AcDbEntity
  8
0
100
AcDbBlockEnd
  0
BLOCK
  5
110
330
10F
100
AcDbEntity
  8
0
100
AcDbBlockBegin
  2
BLOCK749
 70
     0
 10
0.0
 20
0.0
 30
0.0
  3
BLOCK749
  1

  0
TEXT
  5
19E
330
10F
100
AcDbEntity
  8
0
 62
     7
100
AcDbText
 10
269.0
 20
54.350143
 30
0.0
 40
2.5
  1
0,00 g
 41
1.031103
 72
     5
 11
282.011536
 21
54.350143
 31
0.0
100
AcDbText
  0
ENDBLK
  5
111
330
10F
100
AcDbEntity
  8
0
100
AcDbBlockEnd
  0
BLOCK
  5
113
330
112
100
AcDbEntity
  8
0
100
AcDbBlockBegin
  2
BLOCK750
 70
     0
 10
0.0
 20
0.0
 30
0.0
  3
BLOCK750
  1

  0
TEXT
  5
19F
330
112
100
AcDbEntity
  8
0
 62
     7
100
AcDbText
 10
269.0
 20
49.850143
 30
0.0
 40
2.5
  1
0,00 cm²
 41
0.946292
 72
     5
 11
286.348694
 21
49.850143
 31
0.0
100
AcDbText
  0
ENDBLK
  5
114
330
112
100
AcDbEntity
  8
0
100
AcDbBlockEnd
  0
BLOCK
  5
116
330
115
100
AcDbEntity
  8
0
100
AcDbBlockBegin
  2
BLOCK751
 70
     0
 10
0.0
 20
0.0
 30
0.0
  3
BLOCK751
  1

  0
TEXT
  5
1A0
330
115
100
AcDbEntity
  8
0
 62
     7
100
AcDbText
 10
250.0
 20
59.794094
 30
0.0
 40
1.6
  1
Surface FS
 41
1.040923
 72
     5
 11
263.878967
 21
59.794094
 31
0.0
100
AcDbText
  0
ENDBLK
  5
117
330
115
100
AcDbEntity
  8
0
100
AcDbBlockEnd
  0
BLOCK
  5
119
330
118
100
AcDbEntity
  8
0
100
AcDbBlockBegin
  2
BLOCK752
 70
     0
 10
0.0
 20
0.0
 30
0.0
  3
BLOCK752
  1

  0
TEXT
  5
1A1
330
118
100
AcDbEntity
  8
0
 62
     7
100
AcDbText
 10
231.0
 20
59.794094
 30
0.0
 40
1.6
  1
Material FS
 41
1.132077
 72
     5
 11
246.266861
 21
59.794094
 31
0.0
100
AcDbText
  0
ENDBLK
  5
11A
330
118
100
AcDbEntity
  8
0
100
AcDbBlockEnd
  0
BLOCK
  5
11C
330
11B
100
AcDbEntity
  8
0
100
AcDbBlockBegin
  2
BLOCK753
 70
     0
 10
0.0
 20
0.0
 30
0.0
  3
BLOCK753
  1

  0
TEXT
  5
1A2
330
11B
100
AcDbEntity
  8
0
 62
     7
100
AcDbText
 10
345.0
 20
65.680115
 30
0.0
 40
2.0
  1
= control measure => quantity:
 41
1.027226
 72
     5
 11
397.046112
 21
65.680115
 31
0.0
100
AcDbText
  0
ENDBLK
  5
11D
330
11B
100
AcDbEntity
  8
0
100
AcDbBlockEnd
  0
BLOCK
  5
11F
330
11E
100
AcDbEntity
  8
0
100
AcDbBlockBegin
  2
BLOCK754
 70
     0
 10
0.0
 20
0.0
 30
0.0
  3
BLOCK754
  1

  0
TEXT
  5
1A3
330
11E
100
AcDbEntity
  8
0
 62
     7
100
AcDbText
 10
391.0
 20
37.8451
 30
0.0
 40
1.75
  1
G Number
 41
0.899563
 72
     5
 11
403.144104
 21
37.8451
 31
0.0
100
AcDbText
  0
ENDBLK
  5
120
330
11E
100
AcDbEntity
  8
0
100
AcDbBlockEnd
  0
BLOCK
  5
122
330
121
100
AcDbEntity
  8
0
100
AcDbBlockBegin
  2
BLOCK755
 70
     0
 10
0.0
 20
0.0
 30
0.0
  3
BLOCK755
  1

  0
TEXT
  5
1A4
330
121
100
AcDbEntity
  8
0
 62
     7
100
AcDbText
 10
237.405609
 20
14.690202
 30
0.0
 40
3.5
  1
Beruehrschutzabdeckung A-RS183/36
 41
0.977452
 72
     5
 11
337.594391
 21
14.690202
 31
0.0
100
AcDbText
  0
ENDBLK
  5
123
330
121
100
AcDbEntity
  8
0
100
AcDbBlockEnd
  0
BLOCK
  5
125
330
124
100
AcDbEntity
  8
0
100
AcDbBlockBegin
  2
*D61
 70
     1
 10
0.0
 20
0.0
 30
0.0
  3
*D61
  1

  0
SOLID
  5
1A5
330
124
100
AcDbEntity
  8
0
 62
     7
100
AcDbTrace
 10
39.191125
 20
223.55678
 30
0.0
 11
38.799546
 21
226.531114
 31
0.0
 12
39.191125
 22
223.55678
 32
0.0
 13
38.407967
 23
223.55678
 33
0.0
  0
SOLID
  5
1A6
330
124
100
AcDbEntity
  8
0
 62
     7
100
AcDbTrace
 10
38.407967
 20
29.505449
 30
0.0
 11
38.799546
 21
26.531114
 31
0.0
 12
38.407967
 22
29.505449
 32
0.0
 13
39.191125
 23
29.505449
 33
0.0
  0
TEXT
  5
1A7
330
124
100
AcDbEntity
  8
0
 62
     7
100
AcDbText
 10
37.799546
 20
122.77823
 30
0.0
 40
2.5
  1
200
 50
90.0
 41
1.106113
 72
     5
 11
37.799546
 21
130.283998
 31
0.0
100
AcDbText
  0
LINE
  5
1A8
330
124
100
AcDbEntity
  8
0
 62
     7
100
AcDbLine
 10
59.877587
 20
26.531114
 30
0.0
 11
36.799546
 21
26.531114
 31
0.0
  0
LINE
  5
1A9
330
124
100
AcDbEntity
  8
0
 62
     7
100
AcDbLine
 10
59.877587
 20
226.531114
 30
0.0
 11
36.799546
 21
226.531114
 31
0.0
  0
LINE
  5
1AA
330
124
100
AcDbEntity
  8
0
 62
     7
100
AcDbLine
 10
38.799546
 20
29.505449
 30
0.0
 11
38.799546
 21
223.55678
 31
0.0
  0
POLYLINE
  5
1AB
330
124
100
AcDbEntity
  8
0
 62
     7
100
AcDb2dPolyline
 66
     1
 10
0.0
 20
0.0
 30
0.0
 70
     1
  0
VERTEX
  5
1AC
330
1AB
100
AcDbEntity
  8
0
100
AcDbVertex
100
AcDb2dVertex
 10
39.191125
 20
223.55678
 30
0.0
  0
VERTEX
  5
1AD
330
1AB
100
AcDbEntity
  8
0
100
AcDbVertex
100
AcDb2dVertex
 10
38.799546
 20
226.531114
 30
0.0
  0
VERTEX
  5
1AE
330
1AB
100
AcDbEntity
  8
0
100
AcDbVertex
100
AcDb2dVertex
 10
38.407967
 20
223.55678
 30
0.0
  0
SEQEND
  5
1AF
330
1AB
100
AcDbEntity
  8
0
 62
     7
  0
POLYLINE
  5
1B0
330
124
100
AcDbEntity
  8
0
 62
     7
100
AcDb2dPolyline
 66
     1
 10
0.0
 20
0.0
 30
0.0
 70
     1
  0
VERTEX
  5
1B1
330
1B0
100
AcDbEntity
  8
0
100
AcDbVertex
100
AcDb2dVertex
 10
38.407967
 20
29.505449
 30
0.0
  0
VERTEX
  5
1B2
330
1B0
100
AcDbEntity
  8
0
100
AcDbVertex
100
AcDb2dVertex
 10
38.799546
 20
26.531114
 30
0.0
  0
VERTEX
  5
1B3
330
1B0
100
AcDbEntity
  8
0
100
AcDbVertex
100
AcDb2dVertex
 10
39.191125
 20
29.505449
 30
0.0
  0
SEQEND
  5
1B4
330
1B0
100
AcDbEntity
  8
0
 62
     7
  0
ENDBLK
  5
126
330
124
100
AcDbEntity
  8
0
100
AcDbBlockEnd
  0
BLOCK
  5
128
330
127
100
AcDbEntity
  8
0
100
AcDbBlockBegin
  2
*D62
 70
     1
 10
0.0
 20
0.0
 30
0.0
  3
*D62
  1

  0
SOLID
  5
1B5
330
127
100
AcDbEntity
  8
0
 62
     7
100
AcDbTrace
 10
62.351941
 20
232.174227
 30
0.0
 11
59.377606
 21
231.782656
 31
0.0
 12
62.351941
 22
232.174227
 32
0.0
 13
62.351941
 23
231.391084
 33
0.0
  0
SOLID
  5
1B6
330
127
100
AcDbEntity
  8
0
 62
     7
100
AcDbTrace
 10
92.203271
 20
231.391084
 30
0.0
 11
95.177605
 21
231.782656
 31
0.0
 12
92.203271
 22
231.391084
 32
0.0
 13
92.203271
 23
232.174227
 33
0.0
  0
TEXT
  5
1B7
330
127
100
AcDbEntity
  8
0
 62
     7
100
AcDbText
 10
72.19043
 20
232.782656
 30
0.0
 40
2.5
  1
35.8
 41
1.27559
 72
     5
 11
82.364781
 21
232.782656
 31
0.0
100
AcDbText
  0
LINE
  5
1B8
330
127
100
AcDbEntity
  8
0
 62
     7
100
AcDbLine
 10
59.377606
 20
226.03113
 30
0.0
 11
59.377606
 21
233.782656
 31
0.0
  0
LINE
  5
1B9
330
127
100
AcDbEntity
  8
0
 62
     7
100
AcDbLine
 10
95.177605
 20
226.03113
 30
0.0
 11
95.177605
 21
233.782656
 31
0.0
  0
LINE
  5
1BA
330
127
100
AcDbEntity
  8
0
 62
     7
100
AcDbLine
 10
62.351941
 20
231.782656
 30
0.0
 11
92.203271
 21
231.782656
 31
0.0
  0
POLYLINE
  5
1BB
330
127
100
AcDbEntity
  8
0
 62
     7
100
AcDb2dPolyline
 66
     1
 10
0.0
 20
0.0
 30
0.0
 70
     1
  0
VERTEX
  5
1BC
330
1BB
100
AcDbEntity
  8
0
100
AcDbVertex
100
AcDb2dVertex
 10
62.351941
 20
232.174227
 30
0.0
  0
VERTEX
  5
1BD
330
1BB
100
AcDbEntity
  8
0
100
AcDbVertex
100
AcDb2dVertex
 10
59.377606
 20
231.782656
 30
0.0
  0
VERTEX
  5
1BE
330
1BB
100
AcDbEntity
  8
0
100
AcDbVertex
100
AcDb2dVertex
 10
62.351941
 20
231.391084
 30
0.0
  0
SEQEND
  5
1BF
330
1BB
100
AcDbEntity
  8
0
 62
     7
  0
POLYLINE
  5
1C0
330
127
100
AcDbEntity
  8
0
 62
     7
100
AcDb2dPolyline
 66
     1
 10
0.0
 20
0.0
 30
0.0
 70
     1
  0
VERTEX
  5
1C1
330
1C0
100
AcDbEntity
  8
0
100
AcDbVertex
100
AcDb2dVertex
 10
92.203271
 20
231.391084
 30
0.0
  0
VERTEX
  5
1C2
330
1C0
100
AcDbEntity
  8
0
100
AcDbVertex
100
AcDb2dVertex
 10
95.177605
 20
231.782656
 30
0.0
  0
VERTEX
  5
1C3
330
1C0
100
AcDbEntity
  8
0
100
AcDbVertex
100
AcDb2dVertex
 10
92.203271
 20
232.174227
 30
0.0
  0
SEQEND
  5
1C4
330
1C0
100
AcDbEntity
  8
0
 62
     7
  0
ENDBLK
  5
129
330
127
100
AcDbEntity
  8
0
100
AcDbBlockEnd
  0
BLOCK
  5
12B
330
12A
100
AcDbEntity
  8
0
100
AcDbBlockBegin
  2
*D63
 70
     1
 10
0.0
 20
0.0
 30
0.0
  3
*D63
  1

  0
SOLID
  5
1C5
330
12A
100
AcDbEntity
  8
0
 62
     7
100
AcDbTrace
 10
50.781892
 20
223.55678
 30
0.0
 11
50.390313
 21
226.531114
 31
0.0
 12
50.781892
 22
223.55678
 32
0.0
 13
49.998734
 23
223.55678
 33
0.0
  0
SOLID
  5
1C6
330
12A
100
AcDbEntity
  8
0
 62
     7
100
AcDbTrace
 10
49.998734
 20
189.355455
 30
0.0
 11
50.390313
 21
186.381121
 31
0.0
 12
49.998734
 22
189.355455
 32
0.0
 13
50.781892
 23
189.355455
 33
0.0
  0
TEXT
  5
1C7
330
12A
100
AcDbEntity
  8
0
 62
     7
100
AcDbText
 10
49.390313
 20
200.034654
 30
0.0
 40
2.5
  1
40.15
 50
90.0
 41
1.240007
 72
     5
 11
49.390313
 21
212.87758
 31
0.0
100
AcDbText
  0
LINE
  5
1C8
330
12A
100
AcDbEntity
  8
0
 62
     7
100
AcDbLine
 10
65.451644
 20
186.381121
 30
0.0
 11
48.390313
 21
186.381121
 31
0.0
  0
LINE
  5
1C9
330
12A
100
AcDbEntity
  8
0
 62
     7
100
AcDbLine
 10
59.877587
 20
226.531114
 30
0.0
 11
48.390313
 21
226.531114
 31
0.0
  0
LINE
  5
1CA
330
12A
100
AcDbEntity
  8
0
 62
     7
100
AcDbLine
 10
50.390313
 20
189.355455
 30
0.0
 11
50.390313
 21
223.55678
 31
0.0
  0
POLYLINE
  5
1CB
330
12A
100
AcDbEntity
  8
0
 62
     7
100
AcDb2dPolyline
 66
     1
 10
0.0
 20
0.0
 30
0.0
 70
     1
  0
VERTEX
  5
1CC
330
1CB
100
AcDbEntity
  8
0
100
AcDbVertex
100
AcDb2dVertex
 10
50.781892
 20
223.55678
 30
0.0
  0
VERTEX
  5
1CD
330
1CB
100
AcDbEntity
  8
0
100
AcDbVertex
100
AcDb2dVertex
 10
50.390313
 20
226.531114
 30
0.0
  0
VERTEX
  5
1CE
330
1CB
100
AcDbEntity
  8
0
100
AcDbVertex
100
AcDb2dVertex
 10
49.998734
 20
223.55678
 30
0.0
  0
SEQEND
  5
1CF
330
1CB
100
AcDbEntity
  8
0
 62
     7
  0
POLYLINE
  5
1D0
330
12A
100
AcDbEntity
  8
0
 62
     7
100
AcDb2dPolyline
 66
     1
 10
0.0
 20
0.0
 30
0.0
 70
     1
  0
VERTEX
  5
1D1
330
1D0
100
AcDbEntity
  8
0
100
AcDbVertex
100
AcDb2dVertex
 10
49.998734
 20
189.355455
 30
0.0
  0
VERTEX
  5
1D2
330
1D0
100
AcDbEntity
  8
0
100
AcDbVertex
100
AcDb2dVertex
 10
50.390313
 20
186.381121
 30
0.0
  0
VERTEX
  5
1D3
330
1D0
100
AcDbEntity
  8
0
100
AcDbVertex
100
AcDb2dVertex
 10
50.781892
 20
189.355455
 30
0.0
  0
SEQEND
  5
1D4
330
1D0
100
AcDbEntity
  8
0
 62
     7
  0
ENDBLK
  5
12C
330
12A
100
AcDbEntity
  8
0
100
AcDbBlockEnd
  0
BLOCK
  5
12E
330
12D
100
AcDbEntity
  8
0
100
AcDbBlockBegin
  2
*D64
 70
     1
 10
0.0
 20
0.0
 30
0.0
  3
*D64
  1

  0
SOLID
  5
1D5
330
12D
100
AcDbEntity
  8
0
 62
     7
100
AcDbTrace
 10
50.781892
 20
183.406786
 30
0.0
 11
50.390313
 21
186.381121
 31
0.0
 12
50.781892
 22
183.406786
 32
0.0
 13
49.998734
 23
183.406786
 33
0.0
  0
SOLID
  5
1D6
330
12D
100
AcDbEntity
  8
0
 62
     7
100
AcDbTrace
 10
49.998734
 20
129.355455
 30
0.0
 11
50.390313
 21
126.381121
 31
0.0
 12
49.998734
 22
129.355455
 32
0.0
 13
50.781892
 23
129.355455
 33
0.0
  0
TEXT
  5
1D7
330
12D
100
AcDbEntity
  8
0
 62
     7
100
AcDbText
 10
49.390313
 20
153.962534
 30
0.0
 40
2.5
  1
60
 50
90.0
 41
1.098171
 72
     5
 11
49.390313
 21
158.799715
 31
0.0
100
AcDbText
  0
LINE
  5
1D8
330
12D
100
AcDbEntity
  8
0
 62
     7
100
AcDbLine
 10
65.451644
 20
126.381121
 30
0.0
 11
48.390313
 21
126.381121
 31
0.0
  0
LINE
  5
1D9
330
12D
100
AcDbEntity
  8
0
 62
     7
100
AcDbLine
 10
65.451644
 20
186.381121
 30
0.0
 11
48.390313
 21
186.381121
 31
0.0
  0
LINE
  5
1DA
330
12D
100
AcDbEntity
  8
0
 62
     7
100
AcDbLine
 10
50.390313
 20
129.355455
 30
0.0
 11
50.390313
 21
183.406786
 31
0.0
  0
POLYLINE
  5
1DB
330
12D
100
AcDbEntity
  8
0
 62
     7
100
AcDb2dPolyline
 66
     1
 10
0.0
 20
0.0
 30
0.0
 70
     1
  0
VERTEX
  5
1DC
330
1DB
100
AcDbEntity
  8
0
100
AcDbVertex
100
AcDb2dVertex
 10
50.781892
 20
183.406786
 30
0.0
  0
VERTEX
  5
1DD
330
1DB
100
AcDbEntity
  8
0
100
AcDbVertex
100
AcDb2dVertex
 10
50.390313
 20
186.381121
 30
0.0
  0
VERTEX
  5
1DE
330
1DB
100
AcDbEntity
  8
0
100
AcDbVertex
100
AcDb2dVertex
 10
49.998734
 20
183.406786
 30
0.0
  0
SEQEND
  5
1DF
330
1DB
100
AcDbEntity
  8
0
 62
     7
  0
POLYLINE
  5
1E0
330
12D
100
AcDbEntity
  8
0
 62
     7
100
AcDb2dPolyline
 66
     1
 10
0.0
 20
0.0
 30
0.0
 70
     1
  0
VERTEX
  5
1E1
330
1E0
100
AcDbEntity
  8
0
100
AcDbVertex
100
AcDb2dVertex
 10
49.998734
 20
129.355455
 30
0.0
  0
VERTEX
  5
1E2
330
1E0
100
AcDbEntity
  8
0
100
AcDbVertex
100
AcDb2dVertex
 10
50.390313
 20
126.381121
 30
0.0
  0
VERTEX
  5
1E3
330
1E0
100
AcDbEntity
  8
0
100
AcDbVertex
100
AcDb2dVertex
 10
50.781892
 20
129.355455
 30
0.0
  0
SEQEND
  5
1E4
330
1E0
100
AcDbEntity
  8
0
 62
     7
  0
ENDBLK
  5
12F
330
12D
100
AcDbEntity
  8
0
100
AcDbBlockEnd
  0
BLOCK
  5
131
330
130
100
AcDbEntity
  8
0
100
AcDbBlockBegin
  2
*D65
 70
     1
 10
0.0
 20
0.0
 30
0.0
  3
*D65
  1

  0
SOLID
  5
1E5
330
130
100
AcDbEntity
  8
0
 62
     7
100
AcDbTrace
 10
50.781892
 20
123.406786
 30
0.0
 11
50.390313
 21
126.381121
 31
0.0
 12
50.781892
 22
123.406786
 32
0.0
 13
49.998734
 23
123.406786
 33
0.0
  0
SOLID
  5
1E6
330
130
100
AcDbEntity
  8
0
 62
     7
100
AcDbTrace
 10
49.998734
 20
69.355455
 30
0.0
 11
50.390313
 21
66.381121
 31
0.0
 12
49.998734
 22
69.355455
 32
0.0
 13
50.781892
 23
69.355455
 33
0.0
  0
TEXT
  5
1E7
330
130
100
AcDbEntity
  8
0
 62
     7
100
AcDbText
 10
49.390313
 20
93.962534
 30
0.0
 40
2.5
  1
60
 50
90.0
 41
1.098169
 72
     5
 11
49.390313
 21
98.799707
 31
0.0
100
AcDbText
  0
LINE
  5
1E8
330
130
100
AcDbEntity
  8
0
 62
     7
100
AcDbLine
 10
65.451644
 20
66.381121
 30
0.0
 11
48.390313
 21
66.381121
 31
0.0
  0
LINE
  5
1E9
330
130
100
AcDbEntity
  8
0
 62
     7
100
AcDbLine
 10
65.451644
 20
126.381121
 30
0.0
 11
48.390313
 21
126.381121
 31
0.0
  0
LINE
  5
1EA
330
130
100
AcDbEntity
  8
0
 62
     7
100
AcDbLine
 10
50.390313
 20
69.355455
 30
0.0
 11
50.390313
 21
123.406786
 31
0.0
  0
POLYLINE
  5
1EB
330
130
100
AcDbEntity
  8
0
 62
     7
100
AcDb2dPolyline
 66
     1
 10
0.0
 20
0.0
 30
0.0
 70
     1
  0
VERTEX
  5
1EC
330
1EB
100
AcDbEntity
  8
0
100
AcDbVertex
100
AcDb2dVertex
 10
50.781892
 20
123.406786
 30
0.0
  0
VERTEX
  5
1ED
330
1EB
100
AcDbEntity
  8
0
100
AcDbVertex
100
AcDb2dVertex
 10
50.390313
 20
126.381121
 30
0.0
  0
VERTEX
  5
1EE
330
1EB
100
AcDbEntity
  8
0
100
AcDbVertex
100
AcDb2dVertex
 10
49.998734
 20
123.406786
 30
0.0
  0
SEQEND
  5
1EF
330
1EB
100
AcDbEntity
  8
0
 62
     7
  0
POLYLINE
  5
1F0
330
130
100
AcDbEntity
  8
0
 62
     7
100
AcDb2dPolyline
 66
     1
 10
0.0
 20
0.0
 30
0.0
 70
     1
  0
VERTEX
  5
1F1
330
1F0
100
AcDbEntity
  8
0
100
AcDbVertex
100
AcDb2dVertex
 10
49.998734
 20
69.355455
 30
0.0
  0
VERTEX
  5
1F2
330
1F0
100
AcDbEntity
  8
0
100
AcDbVertex
100
AcDb2dVertex
 10
50.390313
 20
66.381121
 30
0.0
  0
VERTEX
  5
1F3
330
1F0
100
AcDbEntity
  8
0
100
AcDbVertex
100
AcDb2dVertex
 10
50.781892
 20
69.355455
 30
0.0
  0
SEQEND
  5
1F4
330
1F0
100
AcDbEntity
  8
0
 62
     7
  0
ENDBLK
  5
132
330
130
100
AcDbEntity
  8
0
100
AcDbBlockEnd
  0
BLOCK
  5
134
330
133
100
AcDbEntity
  8
0
100
AcDbBlockBegin
  2
BLOCK756
 70
     0
 10
0.0
 20
0.0
 30
0.0
  3
BLOCK756
  1

  0
LINE
  5
1F5
330
133
100
AcDbEntity
  8
0
  6
DASHDOT
 62
     7
100
AcDbLine
 10
29.725962
 20
159.850006
 30
0.0
 11
-2.925962
 21
159.850006
 31
0.0
  0
LINE
  5
1F6
330
133
100
AcDbEntity
  8
0
  6
DASHDOT
 62
     7
100
AcDbLine
 10
13.4
 20
176.175964
 30
0.0
 11
13.4
 21
143.524048
 31
0.0
  0
ENDBLK
  5
135
330
133
100
AcDbEntity
  8
0
100
AcDbBlockEnd
  0
BLOCK
  5
137
330
136
100
AcDbEntity
  8
0
100
AcDbBlockBegin
  2
BLOCK757
 70
     0
 10
0.0
 20
0.0
 30
0.0
  3
BLOCK757
  1

  0
LINE
  5
1F7
330
136
100
AcDbEntity
  8
0
  6
DASHDOT
 62
     7
100
AcDbLine
 10
29.725962
 20
99.850006
 30
0.0
 11
-2.925962
 21
99.850006
 31
0.0
  0
LINE
  5
1F8
330
136
100
AcDbEntity
  8
0
  6
DASHDOT
 62
     7
100
AcDbLine
 10
13.4
 20
116.175972
 30
0.0
 11
13.4
 21
83.524048
 31
0.0
  0
ENDBLK
  5
138
330
136
100
AcDbEntity
  8
0
100
AcDbBlockEnd
  0
BLOCK
  5
13A
330
139
100
AcDbEntity
  8
0
100
AcDbBlockBegin
  2
BLOCK758
 70
     0
 10
0.0
 20
0.0
 30
0.0
  3
BLOCK758
  1

  0
LINE
  5
1F9
330
139
100
AcDbEntity
  8
0
  6
DASHDOT
 62
     7
100
AcDbLine
 10
29.725962
 20
39.850006
 30
0.0
 11
-2.925962
 21
39.850006
 31
0.0
  0
LINE
  5
1FA
330
139
100
AcDbEntity
  8
0
  6
DASHDOT
 62
     7
100
AcDbLine
 10
13.4
 20
56.175968
 30
0.0
 11
13.4
 21
23.524044
 31
0.0
  0
ENDBLK
  5
13B
330
139
100
AcDbEntity
  8
0
100
AcDbBlockEnd
  0
BLOCK
  5
13D
330
13C
100
AcDbEntity
  8
0
100
AcDbBlockBegin
  2
BLOCK759
 70
     0
 10
0.0
 20
0.0
 30
0.0
  3
BLOCK759
  1

  0
ARC
  5
1FB
330
13C
100
AcDbEntity
  8
0
 62
     7
100
AcDbCircle
 10
13.4
 20
159.850006
 30
0.0
 40
12.25000000000153
100
AcDbArc
 50
70.330822
 51
189.669178
  0
ARC
  5
1FC
330
13C
100
AcDbEntity
  8
0
 62
     7
100
AcDbCircle
 10
13.4
 20
159.850006
 30
0.0
 40
12.25000000000153
100
AcDbArc
 50
250.330823
 51
9.669177
  0
LINE
  5
1FD
330
13C
100
AcDbEntity
  8
0
 62
     7
100
AcDbLine
 10
26.8
 20
156.767394
 30
0.0
 11
26.8
 21
162.932619
 31
0.0
  0
LINE
  5
1FE
330
13C
100
AcDbEntity
  8
0
 62
     7
100
AcDbLine
 10
9.340085
 20
148.367885
 30
0.0
 11
1.387321
 21
157.84562
 31
0.0
  0
LINE
  5
1FF
330
13C
100
AcDbEntity
  8
0
 62
     7
100
AcDbLine
 10
9.276788
 20
148.314772
 30
0.0
 11
9.340085
 21
148.367885
 31
0.0
  0
LINE
  5
200
330
13C
100
AcDbEntity
  8
0
 62
     7
100
AcDbLine
 10
1.387321
 20
157.84562
 30
0.0
 11
1.324024
 21
157.792507
 31
0.0
  0
LINE
  5
201
330
13C
100
AcDbEntity
  8
0
 62
     7
100
AcDbLine
 10
17.459918
 20
171.33213
 30
0.0
 11
25.412682
 21
161.854395
 31
0.0
  0
LINE
  5
202
330
13C
100
AcDbEntity
  8
0
 62
     7
100
AcDbLine
 10
25.412682
 20
161.854395
 30
0.0
 11
25.475976
 21
161.907505
 31
0.0
  0
LINE
  5
203
330
13C
100
AcDbEntity
  8
0
 62
     7
100
AcDbLine
 10
17.523212
 20
171.38524
 30
0.0
 11
17.459918
 21
171.33213
 31
0.0
  0
ARC
  5
204
330
13C
100
AcDbEntity
  8
0
 62
     7
100
AcDbCircle
 10
13.4
 20
99.850006
 30
0.0
 40
12.25000000000153
100
AcDbArc
 50
250.330823
 51
9.669177
  0
ARC
  5
205
330
13C
100
AcDbEntity
  8
0
 62
     7
100
AcDbCircle
 10
13.4
 20
99.850006
 30
0.0
 40
12.25000000000153
100
AcDbArc
 50
70.330822
 51
189.669178
  0
LINE
  5
206
330
13C
100
AcDbEntity
  8
0
 62
     7
100
AcDbLine
 10
26.8
 20
96.767394
 30
0.0
 11
26.8
 21
102.932619
 31
0.0
  0
LINE
  5
207
330
13C
100
AcDbEntity
  8
0
 62
     7
100
AcDbLine
 10
9.340085
 20
88.367885
 30
0.0
 11
1.387321
 21
97.84562
 31
0.0
  0
LINE
  5
208
330
13C
100
AcDbEntity
  8
0
 62
     7
100
AcDbLine
 10
9.276788
 20
88.314772
 30
0.0
 11
9.340085
 21
88.367885
 31
0.0
  0
LINE
  5
209
330
13C
100
AcDbEntity
  8
0
 62
     7
100
AcDbLine
 10
1.387321
 20
97.84562
 30
0.0
 11
1.324024
 21
97.792507
 31
0.0
  0
LINE
  5
20A
330
13C
100
AcDbEntity
  8
0
 62
     7
100
AcDbLine
 10
17.459918
 20
111.33213
 30
0.0
 11
25.412682
 21
101.854395
 31
0.0
  0
LINE
  5
20B
330
13C
100
AcDbEntity
  8
0
 62
     7
100
AcDbLine
 10
25.412682
 20
101.854395
 30
0.0
 11
25.475976
 21
101.907505
 31
0.0
  0
LINE
  5
20C
330
13C
100
AcDbEntity
  8
0
 62
     7
100
AcDbLine
 10
17.523212
 20
111.38524
 30
0.0
 11
17.459918
 21
111.33213
 31
0.0
  0
ARC
  5
20D
330
13C
100
AcDbEntity
  8
0
 62
     7
100
AcDbCircle
 10
13.4
 20
39.850006
 30
0.0
 40
12.25000000000153
100
AcDbArc
 50
250.330828
 51
9.669177
  0
ARC
  5
20E
330
13C
100
AcDbEntity
  8
0
 62
     7
100
AcDbCircle
 10
13.4
 20
39.850006
 30
0.0
 40
12.25000000000153
100
AcDbArc
 50
70.330822
 51
189.669108
  0
LINE
  5
20F
330
13C
100
AcDbEntity
  8
0
 62
     7
100
AcDbLine
 10
26.8
 20
36.767394
 30
0.0
 11
26.8
 21
42.932619
 31
0.0
  0
LINE
  5
210
330
13C
100
AcDbEntity
  8
0
 62
     7
100
AcDbLine
 10
9.340085
 20
28.367885
 30
0.0
 11
1.387321
 21
37.84562
 31
0.0
  0
LINE
  5
211
330
13C
100
AcDbEntity
  8
0
 62
     7
100
AcDbLine
 10
9.276788
 20
28.314772
 30
0.0
 11
9.340085
 21
28.367885
 31
0.0
  0
LINE
  5
212
330
13C
100
AcDbEntity
  8
0
 62
     7
100
AcDbLine
 10
1.387321
 20
37.84562
 30
0.0
 11
1.324024
 21
37.792507
 31
0.0
  0
LINE
  5
213
330
13C
100
AcDbEntity
  8
0
 62
     7
100
AcDbLine
 10
17.459918
 20
51.33213
 30
0.0
 11
25.412682
 21
41.854395
 31
0.0
  0
LINE
  5
214
330
13C
100
AcDbEntity
  8
0
 62
     7
100
AcDbLine
 10
25.412682
 20
41.854395
 30
0.0
 11
25.475976
 21
41.907505
 31
0.0
  0
LINE
  5
215
330
13C
100
AcDbEntity
  8
0
 62
     7
100
AcDbLine
 10
17.523212
 20
51.38524
 30
0.0
 11
17.459918
 21
51.33213
 31
0.0
  0
LINE
  5
216
330
13C
100
AcDbEntity
  8
0
 62
     7
100
AcDbLine
 10
15.543275
 20
185.281731
 30
0.0
 11
11.256725
 21
185.281731
 31
0.0
  0
LINE
  5
217
330
13C
100
AcDbEntity
  8
0
 62
     7
100
AcDbLine
 10
15.543275
 20
185.281731
 30
0.0
 11
15.543275
 21
189.568282
 31
0.0
  0
LINE
  5
218
330
13C
100
AcDbEntity
  8
0
 62
     7
100
AcDbLine
 10
15.543275
 20
189.568282
 30
0.0
 11
11.256725
 21
189.568282
 31
0.0
  0
LINE
  5
219
330
13C
100
AcDbEntity
  8
0
 62
     7
100
AcDbLine
 10
11.256725
 20
185.281731
 30
0.0
 11
11.256725
 21
189.568282
 31
0.0
  0
LINE
  5
21A
330
13C
100
AcDbEntity
  8
0
 62
     7
100
AcDbLine
 10
-8.469475
 20
197.0
 30
0.0
 11
26.2738
 21
197.0
 31
0.0
  0
LINE
  5
21B
330
13C
100
AcDbEntity
  8
0
 62
     7
100
AcDbLine
 10
26.269475
 20
197.0
 30
0.0
 11
26.24762
 21
196.978145
 31
0.0
  0
LINE
  5
21C
330
13C
100
AcDbEntity
  8
0
 62
     7
100
AcDbLine
 10
26.24762
 20
196.978145
 30
0.0
 11
-8.44762
 21
196.978145
 31
0.0
  0
LINE
  5
21D
330
13C
100
AcDbEntity
  8
0
 62
     7
100
AcDbLine
 10
-8.44762
 20
196.978145
 30
0.0
 11
-8.469475
 21
197.0
 31
0.0
  0
LINE
  5
21E
330
13C
100
AcDbEntity
  8
0
 62
     7
100
AcDbLine
 10
26.8
 20
0.499981
 30
0.0
 11
26.773781
 21
0.5262
 31
0.0
  0
LINE
  5
21F
330
13C
100
AcDbEntity
  8
0
 62
     7
100
AcDbLine
 10
26.8
 20
0.499981
 30
0.0
 11
26.8
 21
36.767394
 31
0.0
  0
LINE
  5
220
330
13C
100
AcDbEntity
  8
0
 62
     7
100
AcDbLine
 10
26.8
 20
42.932619
 30
0.0
 11
26.8
 21
96.767394
 31
0.0
  0
LINE
  5
221
330
13C
100
AcDbEntity
  8
0
 62
     7
100
AcDbLine
 10
26.8
 20
102.932619
 30
0.0
 11
26.8
 21
156.767394
 31
0.0
  0
LINE
  5
222
330
13C
100
AcDbEntity
  8
0
 62
     7
100
AcDbLine
 10
26.8
 20
162.932619
 30
0.0
 11
26.8
 21
199.500019
 31
0.0
  0
LINE
  5
223
330
13C
100
AcDbEntity
  8
0
 62
     7
100
AcDbLine
 10
26.8
 20
199.500019
 30
0.0
 11
26.773781
 21
199.4738
 31
0.0
  0
LINE
  5
224
330
13C
100
AcDbEntity
  8
0
 62
     7
100
AcDbLine
 10
26.773781
 20
199.4738
 30
0.0
 11
26.773781
 21
196.504344
 31
0.0
  0
LINE
  5
225
330
13C
100
AcDbEntity
  8
0
 62
     7
100
AcDbLine
 10
26.773781
 20
196.504344
 30
0.0
 11
26.747601
 21
196.478164
 31
0.0
  0
LINE
  5
226
330
13C
100
AcDbEntity
  8
0
 62
     7
100
AcDbLine
 10
26.747601
 20
196.478164
 30
0.0
 11
26.747601
 21
3.521836
 31
0.0
  0
LINE
  5
227
330
13C
100
AcDbEntity
  8
0
 62
     7
100
AcDbLine
 10
26.747601
 20
3.521836
 30
0.0
 11
26.773781
 21
3.495656
 31
0.0
  0
LINE
  5
228
330
13C
100
AcDbEntity
  8
0
 62
     7
100
AcDbLine
 10
26.773781
 20
3.495656
 30
0.0
 11
26.773781
 21
0.5262
 31
0.0
  0
LINE
  5
229
330
13C
100
AcDbEntity
  8
0
 62
     7
100
AcDbLine
 10
-8.44762
 20
3.521836
 30
0.0
 11
-8.44762
 21
196.478164
 31
0.0
  0
LINE
  5
22A
330
13C
100
AcDbEntity
  8
0
 62
     7
100
AcDbLine
 10
26.24762
 20
196.478164
 30
0.0
 11
-8.44762
 21
196.478164
 31
0.0
  0
LINE
  5
22B
330
13C
100
AcDbEntity
  8
0
 62
     7
100
AcDbLine
 10
26.24762
 20
196.478164
 30
0.0
 11
26.24762
 21
3.521836
 31
0.0
  0
LINE
  5
22C
330
13C
100
AcDbEntity
  8
0
 62
     7
100
AcDbLine
 10
-8.44762
 20
3.521836
 30
0.0
 11
26.24762
 21
3.521836
 31
0.0
  0
LINE
  5
22D
330
13C
100
AcDbEntity
  8
0
 62
     7
100
AcDbLine
 10
3.48691
 20
124.823826
 30
0.0
 11
3.48691
 21
134.876187
 31
0.0
  0
LINE
  5
22E
330
13C
100
AcDbEntity
  8
0
 62
     7
100
AcDbLine
 10
3.48691
 20
124.823826
 30
0.0
 11
23.31309
 21
124.823826
 31
0.0
  0
LINE
  5
22F
330
13C
100
AcDbEntity
  8
0
 62
     7
100
AcDbLine
 10
23.31309
 20
124.823826
 30
0.0
 11
23.31309
 21
134.876187
 31
0.0
  0
LINE
  5
230
330
13C
100
AcDbEntity
  8
0
 62
     7
100
AcDbLine
 10
3.48691
 20
134.876187
 30
0.0
 11
23.31309
 21
134.876187
 31
0.0
  0
LINE
  5
231
330
13C
100
AcDbEntity
  8
0
 62
     7
100
AcDbLine
 10
3.48691
 20
64.823826
 30
0.0
 11
3.48691
 21
74.876187
 31
0.0
  0
LINE
  5
232
330
13C
100
AcDbEntity
  8
0
 62
     7
100
AcDbLine
 10
3.48691
 20
64.823826
 30
0.0
 11
23.31309
 21
64.823826
 31
0.0
  0
LINE
  5
233
330
13C
100
AcDbEntity
  8
0
 62
     7
100
AcDbLine
 10
23.31309
 20
64.823826
 30
0.0
 11
23.31309
 21
74.876187
 31
0.0
  0
LINE
  5
234
330
13C
100
AcDbEntity
  8
0
 62
     7
100
AcDbLine
 10
3.48691
 20
74.876187
 30
0.0
 11
23.31309
 21
74.876187
 31
0.0
  0
LINE
  5
235
330
13C
100
AcDbEntity
  8
0
 62
     7
100
AcDbLine
 10
3.48691
 20
4.823826
 30
0.0
 11
3.48691
 21
14.876187
 31
0.0
  0
LINE
  5
236
330
13C
100
AcDbEntity
  8
0
 62
     7
100
AcDbLine
 10
3.48691
 20
4.823826
 30
0.0
 11
23.31309
 21
4.823826
 31
0.0
  0
LINE
  5
237
330
13C
100
AcDbEntity
  8
0
 62
     7
100
AcDbLine
 10
23.31309
 20
4.823826
 30
0.0
 11
23.31309
 21
14.876187
 31
0.0
  0
LINE
  5
238
330
13C
100
AcDbEntity
  8
0
 62
     7
100
AcDbLine
 10
3.48691
 20
14.876187
 30
0.0
 11
23.31309
 21
14.876187
 31
0.0
  0
CIRCLE
  5
239
330
13C
100
AcDbEntity
  8
0
 62
     7
100
AcDbCircle
 10
13.400001
 20
159.85001
 30
0.0
 40
12.82593406463246
  0
CIRCLE
  5
23A
330
13C
100
AcDbEntity
  8
0
 62
     7
100
AcDbCircle
 10
13.400001
 20
99.85001
 30
0.0
 40
12.8259340646325
  0
CIRCLE
  5
23B
330
13C
100
AcDbEntity
  8
0
 62
     7
100
AcDbCircle
 10
13.400001
 20
39.85001
 30
0.0
 40
12.82593406463164
  0
LINE
  5
23C
330
13C
100
AcDbEntity
  8
0
 62
     7
100
AcDbLine
 10
10.704344
 20
190.120662
 30
0.0
 11
10.704344
 21
184.729351
 31
0.0
  0
LINE
  5
23D
330
13C
100
AcDbEntity
  8
0
 62
     7
100
AcDbLine
 10
10.704344
 20
184.729351
 30
0.0
 11
16.095656
 21
184.729351
 31
0.0
  0
LINE
  5
23E
330
13C
100
AcDbEntity
  8
0
 62
     7
100
AcDbLine
 10
16.095656
 20
184.729351
 30
0.0
 11
16.095656
 21
190.120662
 31
0.0
  0
LINE
  5
23F
330
13C
100
AcDbEntity
  8
0
 62
     7
100
AcDbLine
 10
16.095656
 20
190.120662
 30
0.0
 11
10.704344
 21
190.120662
 31
0.0
  0
LINE
  5
240
330
13C
100
AcDbEntity
  8
0
 62
     7
100
AcDbLine
 10
-8.469475
 20
3.0
 30
0.0
 11
-8.44762
 21
3.021855
 31
0.0
  0
LINE
  5
241
330
13C
100
AcDbEntity
  8
0
 62
     7
100
AcDbLine
 10
-8.4738
 20
3.0
 30
0.0
 11
26.2738
 21
3.0
 31
0.0
  0
LINE
  5
242
330
13C
100
AcDbEntity
  8
0
 62
     7
100
AcDbLine
 10
26.24762
 20
3.021855
 30
0.0
 11
26.269475
 21
3.0
 31
0.0
  0
LINE
  5
243
330
13C
100
AcDbEntity
  8
0
 62
     7
100
AcDbLine
 10
-8.44762
 20
3.021855
 30
0.0
 11
26.24762
 21
3.021855
 31
0.0
  0
LINE
  5
244
330
13C
100
AcDbEntity
  8
0
 62
     7
100
AcDbLine
 10
-9.0
 20
0.499981
 30
0.0
 11
-9.0
 21
199.500019
 31
0.0
  0
LINE
  5
245
330
13C
100
AcDbEntity
  8
0
 62
     7
100
AcDbLine
 10
-9.0
 20
199.500019
 30
0.0
 11
-8.973781
 21
199.4738
 31
0.0
  0
LINE
  5
246
330
13C
100
AcDbEntity
  8
0
 62
     7
100
AcDbLine
 10
-8.973781
 20
199.4738
 30
0.0
 11
-8.973781
 21
196.504344
 31
0.0
  0
LINE
  5
247
330
13C
100
AcDbEntity
  8
0
 62
     7
100
AcDbLine
 10
-8.947601
 20
196.478164
 30
0.0
 11
-8.973781
 21
196.504344
 31
0.0
  0
LINE
  5
248
330
13C
100
AcDbEntity
  8
0
 62
     7
100
AcDbLine
 10
-8.947601
 20
3.521836
 30
0.0
 11
-8.947601
 21
196.478164
 31
0.0
  0
LINE
  5
249
330
13C
100
AcDbEntity
  8
0
 62
     7
100
AcDbLine
 10
-8.973781
 20
3.495656
 30
0.0
 11
-8.947601
 21
3.521836
 31
0.0
  0
LINE
  5
24A
330
13C
100
AcDbEntity
  8
0
 62
     7
100
AcDbLine
 10
-8.973781
 20
0.5262
 30
0.0
 11
-8.973781
 21
3.495656
 31
0.0
  0
LINE
  5
24B
330
13C
100
AcDbEntity
  8
0
 62
     7
100
AcDbLine
 10
-8.973781
 20
0.5262
 30
0.0
 11
-9.0
 21
0.499981
 31
0.0
  0
LINE
  5
24C
330
13C
100
AcDbEntity
  8
0
 62
     7
100
AcDbLine
 10
-8.500019
 20
200.0
 30
0.0
 11
26.300019
 21
200.0
 31
0.0
  0
LINE
  5
24D
330
13C
100
AcDbEntity
  8
0
 62
     7
100
AcDbLine
 10
26.300019
 20
200.0
 30
0.0
 11
26.2738
 21
199.973781
 31
0.0
  0
LINE
  5
24E
330
13C
100
AcDbEntity
  8
0
 62
     7
100
AcDbLine
 10
26.2738
 20
199.973781
 30
0.0
 11
-8.4738
 21
199.973781
 31
0.0
  0
LINE
  5
24F
330
13C
100
AcDbEntity
  8
0
 62
     7
100
AcDbLine
 10
-8.500019
 20
200.0
 30
0.0
 11
-8.4738
 21
199.973781
 31
0.0
  0
LINE
  5
250
330
13C
100
AcDbEntity
  8
0
 62
     7
100
AcDbLine
 10
-8.4738
 20
199.4738
 30
0.0
 11
-8.4738
 21
196.999981
 31
0.0
  0
LINE
  5
251
330
13C
100
AcDbEntity
  8
0
 62
     7
100
AcDbLine
 10
26.2738
 20
199.4738
 30
0.0
 11
-8.4738
 21
199.4738
 31
0.0
  0
LINE
  5
252
330
13C
100
AcDbEntity
  8
0
 62
     7
100
AcDbLine
 10
26.2738
 20
199.4738
 30
0.0
 11
26.2738
 21
197.0
 31
0.0
  0
LINE
  5
253
330
13C
100
AcDbEntity
  8
0
 62
     7
100
AcDbLine
 10
26.2738
 20
3.0
 30
0.0
 11
26.2738
 21
0.5262
 31
0.0
  0
LINE
  5
254
330
13C
100
AcDbEntity
  8
0
 62
     7
100
AcDbLine
 10
26.2738
 20
0.5262
 30
0.0
 11
-8.4738
 21
0.5262
 31
0.0
  0
LINE
  5
255
330
13C
100
AcDbEntity
  8
0
 62
     7
100
AcDbLine
 10
-8.4738
 20
0.5262
 30
0.0
 11
-8.4738
 21
3.0
 31
0.0
  0
LINE
  5
256
330
13C
100
AcDbEntity
  8
0
 62
     7
100
AcDbLine
 10
-8.4738
 20
0.026219
 30
0.0
 11
-8.500019
 21
0.0
 31
0.0
  0
LINE
  5
257
330
13C
100
AcDbEntity
  8
0
 62
     7
100
AcDbLine
 10
-8.500019
 20
0.0
 30
0.0
 11
26.300019
 21
0.0
 31
0.0
  0
LINE
  5
258
330
13C
100
AcDbEntity
  8
0
 62
     7
100
AcDbLine
 10
26.300019
 20
0.0
 30
0.0
 11
26.2738
 21
0.026219
 31
0.0
  0
LINE
  5
259
330
13C
100
AcDbEntity
  8
0
 62
     7
100
AcDbLine
 10
26.2738
 20
0.026219
 30
0.0
 11
-8.4738
 21
0.026219
 31
0.0
  0
ARC
  5
25A
330
13C
100
AcDbEntity
  8
0
 62
     7
100
AcDbCircle
 10
26.300028
 20
199.500028
 30
0.0
 40
0.4999717248758124
100
AcDbArc
 50
359.999012
 51
90.000988
  0
ARC
  5
25B
330
13C
100
AcDbEntity
  8
0
 62
     7
100
AcDbCircle
 10
-8.500028
 20
199.500028
 30
0.0
 40
0.4999717248757929
100
AcDbArc
 50
89.999012
 51
180.000988
  0
ARC
  5
25C
330
13C
100
AcDbEntity
  8
0
 62
     7
100
AcDbCircle
 10
-8.500028
 20
0.499972
 30
0.0
 40
0.499971724875815
100
AcDbArc
 50
179.999012
 51
270.000988
  0
ARC
  5
25D
330
13C
100
AcDbEntity
  8
0
 62
     7
100
AcDbCircle
 10
26.300028
 20
0.499972
 30
0.0
 40
0.4999717248758138
100
AcDbArc
 50
269.999012
 51
0.000988
  0
LINE
  5
25E
330
13C
100
AcDbEntity
  8
0
 62
     7
100
AcDbLine
 10
23.3
 20
4.836916
 30
0.0
 11
23.3
 21
14.863097
 31
0.0
  0
LINE
  5
25F
330
13C
100
AcDbEntity
  8
0
 62
     7
100
AcDbLine
 10
3.5
 20
14.863097
 30
0.0
 11
3.5
 21
4.836916
 31
0.0
  0
LINE
  5
260
330
13C
100
AcDbEntity
  8
0
 62
     7
100
AcDbLine
 10
3.5
 20
74.863097
 30
0.0
 11
3.5
 21
64.836916
 31
0.0
  0
LINE
  5
261
330
13C
100
AcDbEntity
  8
0
 62
     7
100
AcDbLine
 10
23.3
 20
64.836916
 30
0.0
 11
23.3
 21
74.863097
 31
0.0
  0
LINE
  5
262
330
13C
100
AcDbEntity
  8
0
 62
     7
100
AcDbLine
 10
3.5
 20
134.863097
 30
0.0
 11
3.5
 21
124.836916
 31
0.0
  0
LINE
  5
263
330
13C
100
AcDbEntity
  8
0
 62
     7
100
AcDbLine
 10
23.3
 20
124.836916
 30
0.0
 11
23.3
 21
134.863097
 31
0.0
  0
LINE
  5
264
330
13C
100
AcDbEntity
  8
0
 62
     7
100
AcDbLine
 10
3.51309
 20
4.850006
 30
0.0
 11
3.51309
 21
14.850006
 31
0.0
  0
LINE
  5
265
330
13C
100
AcDbEntity
  8
0
 62
     7
100
AcDbLine
 10
3.51309
 20
4.850006
 30
0.0
 11
3.5
 21
4.836916
 31
0.0
  0
LINE
  5
266
330
13C
100
AcDbEntity
  8
0
 62
     7
100
AcDbLine
 10
3.5
 20
14.863097
 30
0.0
 11
3.51309
 21
14.850006
 31
0.0
  0
LINE
  5
267
330
13C
100
AcDbEntity
  8
0
 62
     7
100
AcDbLine
 10
23.28691
 20
4.850006
 30
0.0
 11
23.3
 21
4.836916
 31
0.0
  0
LINE
  5
268
330
13C
100
AcDbEntity
  8
0
 62
     7
100
AcDbLine
 10
23.28691
 20
14.850006
 30
0.0
 11
23.28691
 21
4.850006
 31
0.0
  0
LINE
  5
269
330
13C
100
AcDbEntity
  8
0
 62
     7
100
AcDbLine
 10
23.28691
 20
14.850006
 30
0.0
 11
23.3
 21
14.863097
 31
0.0
  0
LINE
  5
26A
330
13C
100
AcDbEntity
  8
0
 62
     7
100
AcDbLine
 10
3.51309
 20
64.850006
 30
0.0
 11
3.51309
 21
74.850006
 31
0.0
  0
LINE
  5
26B
330
13C
100
AcDbEntity
  8
0
 62
     7
100
AcDbLine
 10
3.51309
 20
64.850006
 30
0.0
 11
3.5
 21
64.836916
 31
0.0
  0
LINE
  5
26C
330
13C
100
AcDbEntity
  8
0
 62
     7
100
AcDbLine
 10
3.5
 20
74.863097
 30
0.0
 11
3.51309
 21
74.850006
 31
0.0
  0
LINE
  5
26D
330
13C
100
AcDbEntity
  8
0
 62
     7
100
AcDbLine
 10
23.28691
 20
64.850006
 30
0.0
 11
23.3
 21
64.836916
 31
0.0
  0
LINE
  5
26E
330
13C
100
AcDbEntity
  8
0
 62
     7
100
AcDbLine
 10
23.28691
 20
74.850006
 30
0.0
 11
23.28691
 21
64.850006
 31
0.0
  0
LINE
  5
26F
330
13C
100
AcDbEntity
  8
0
 62
     7
100
AcDbLine
 10
23.28691
 20
74.850006
 30
0.0
 11
23.3
 21
74.863097
 31
0.0
  0
LINE
  5
270
330
13C
100
AcDbEntity
  8
0
 62
     7
100
AcDbLine
 10
3.51309
 20
124.850006
 30
0.0
 11
3.51309
 21
134.850006
 31
0.0
  0
LINE
  5
271
330
13C
100
AcDbEntity
  8
0
 62
     7
100
AcDbLine
 10
3.51309
 20
124.850006
 30
0.0
 11
3.5
 21
124.836916
 31
0.0
  0
LINE
  5
272
330
13C
100
AcDbEntity
  8
0
 62
     7
100
AcDbLine
 10
3.5
 20
134.863097
 30
0.0
 11
3.51309
 21
134.850006
 31
0.0
  0
LINE
  5
273
330
13C
100
AcDbEntity
  8
0
 62
     7
100
AcDbLine
 10
23.28691
 20
124.850006
 30
0.0
 11
23.3
 21
124.836916
 31
0.0
  0
LINE
  5
274
330
13C
100
AcDbEntity
  8
0
 62
     7
100
AcDbLine
 10
23.28691
 20
134.850006
 30
0.0
 11
23.28691
 21
124.850006
 31
0.0
  0
LINE
  5
275
330
13C
100
AcDbEntity
  8
0
 62
     7
100
AcDbLine
 10
23.28691
 20
134.850006
 30
0.0
 11
23.3
 21
134.863097
 31
0.0
  0
LINE
  5
276
330
13C
100
AcDbEntity
  8
0
 62
     7
100
AcDbLine
 10
11.204325
 20
185.229332
 30
0.0
 11
11.256725
 21
185.281731
 31
0.0
  0
LINE
  5
277
330
13C
100
AcDbEntity
  8
0
 62
     7
100
AcDbLine
 10
11.204325
 20
185.229332
 30
0.0
 11
15.595675
 21
185.229332
 31
0.0
  0
LINE
  5
278
330
13C
100
AcDbEntity
  8
0
 62
     7
100
AcDbLine
 10
15.595675
 20
185.229332
 30
0.0
 11
15.543275
 21
185.281731
 31
0.0
  0
LINE
  5
279
330
13C
100
AcDbEntity
  8
0
 62
     7
100
AcDbLine
 10
15.543275
 20
189.568282
 30
0.0
 11
15.595675
 21
189.620681
 31
0.0
  0
LINE
  5
27A
330
13C
100
AcDbEntity
  8
0
 62
     7
100
AcDbLine
 10
15.595675
 20
185.229332
 30
0.0
 11
15.595675
 21
189.620681
 31
0.0
  0
LINE
  5
27B
330
13C
100
AcDbEntity
  8
0
 62
     7
100
AcDbLine
 10
11.204325
 20
189.620681
 30
0.0
 11
11.256725
 21
189.568282
 31
0.0
  0
LINE
  5
27C
330
13C
100
AcDbEntity
  8
0
 62
     7
100
AcDbLine
 10
15.595675
 20
189.620681
 30
0.0
 11
11.204325
 21
189.620681
 31
0.0
  0
LINE
  5
27D
330
13C
100
AcDbEntity
  8
0
 62
     7
100
AcDbLine
 10
11.204325
 20
189.620681
 30
0.0
 11
11.204325
 21
185.229332
 31
0.0
  0
LINE
  5
27E
330
13C
100
AcDbEntity
  8
0
 62
     7
100
AcDbLine
 10
3.5
 20
124.836916
 30
0.0
 11
3.48691
 21
124.823826
 31
0.0
  0
LINE
  5
27F
330
13C
100
AcDbEntity
  8
0
 62
     7
100
AcDbLine
 10
3.51309
 20
124.850006
 30
0.0
 11
23.28691
 21
124.850006
 31
0.0
  0
LINE
  5
280
330
13C
100
AcDbEntity
  8
0
 62
     7
100
AcDbLine
 10
23.3
 20
124.836916
 30
0.0
 11
23.31309
 21
124.823826
 31
0.0
  0
LINE
  5
281
330
13C
100
AcDbEntity
  8
0
 62
     7
100
AcDbLine
 10
3.48691
 20
134.876187
 30
0.0
 11
3.5
 21
134.863097
 31
0.0
  0
LINE
  5
282
330
13C
100
AcDbEntity
  8
0
 62
     7
100
AcDbLine
 10
23.28691
 20
134.850006
 30
0.0
 11
3.51309
 21
134.850006
 31
0.0
  0
LINE
  5
283
330
13C
100
AcDbEntity
  8
0
 62
     7
100
AcDbLine
 10
23.3
 20
134.863097
 30
0.0
 11
23.31309
 21
134.876187
 31
0.0
  0
LINE
  5
284
330
13C
100
AcDbEntity
  8
0
 62
     7
100
AcDbLine
 10
3.5
 20
64.836916
 30
0.0
 11
3.48691
 21
64.823826
 31
0.0
  0
LINE
  5
285
330
13C
100
AcDbEntity
  8
0
 62
     7
100
AcDbLine
 10
3.51309
 20
64.850006
 30
0.0
 11
23.28691
 21
64.850006
 31
0.0
  0
LINE
  5
286
330
13C
100
AcDbEntity
  8
0
 62
     7
100
AcDbLine
 10
23.3
 20
64.836916
 30
0.0
 11
23.31309
 21
64.823826
 31
0.0
  0
LINE
  5
287
330
13C
100
AcDbEntity
  8
0
 62
     7
100
AcDbLine
 10
3.48691
 20
74.876187
 30
0.0
 11
3.5
 21
74.863097
 31
0.0
  0
LINE
  5
288
330
13C
100
AcDbEntity
  8
0
 62
     7
100
AcDbLine
 10
23.28691
 20
74.850006
 30
0.0
 11
3.51309
 21
74.850006
 31
0.0
  0
LINE
  5
289
330
13C
100
AcDbEntity
  8
0
 62
     7
100
AcDbLine
 10
23.3
 20
74.863097
 30
0.0
 11
23.31309
 21
74.876187
 31
0.0
  0
LINE
  5
28A
330
13C
100
AcDbEntity
  8
0
 62
     7
100
AcDbLine
 10
3.5
 20
4.836916
 30
0.0
 11
3.48691
 21
4.823826
 31
0.0
  0
LINE
  5
28B
330
13C
100
AcDbEntity
  8
0
 62
     7
100
AcDbLine
 10
3.51309
 20
4.850006
 30
0.0
 11
23.28691
 21
4.850006
 31
0.0
  0
LINE
  5
28C
330
13C
100
AcDbEntity
  8
0
 62
     7
100
AcDbLine
 10
23.3
 20
4.836916
 30
0.0
 11
23.31309
 21
4.823826
 31
0.0
  0
LINE
  5
28D
330
13C
100
AcDbEntity
  8
0
 62
     7
100
AcDbLine
 10
3.48691
 20
14.876187
 30
0.0
 11
3.5
 21
14.863097
 31
0.0
  0
LINE
  5
28E
330
13C
100
AcDbEntity
  8
0
 62
     7
100
AcDbLine
 10
23.28691
 20
14.850006
 30
0.0
 11
3.51309
 21
14.850006
 31
0.0
  0
LINE
  5
28F
330
13C
100
AcDbEntity
  8
0
 62
     7
100
AcDbLine
 10
23.3
 20
14.863097
 30
0.0
 11
23.31309
 21
14.876187
 31
0.0
  0
ARC
  5
290
330
13C
100
AcDbEntity
  8
0
 62
     7
100
AcDbCircle
 10
13.4
 20
159.850006
 30
0.0
 40
12.25000000000153
100
AcDbArc
 50
9.669177
 51
70.330822
  0
ARC
  5
291
330
13C
100
AcDbEntity
  8
0
 62
     7
100
AcDbCircle
 10
13.4
 20
159.850006
 30
0.0
 40
12.25000000000153
100
AcDbArc
 50
189.669178
 51
250.330823
  0
CIRCLE
  5
292
330
13C
100
AcDbEntity
  8
0
 62
     7
100
AcDbCircle
 10
13.4
 20
159.850006
 30
0.0
 40
12.32596182742354
  0
ARC
  5
293
330
13C
100
AcDbEntity
  8
0
 62
     7
100
AcDbCircle
 10
13.4
 20
99.850006
 30
0.0
 40
12.25000000000153
100
AcDbArc
 50
9.669177
 51
70.330822
  0
ARC
  5
294
330
13C
100
AcDbEntity
  8
0
 62
     7
100
AcDbCircle
 10
13.4
 20
99.850006
 30
0.0
 40
12.25000000000153
100
AcDbArc
 50
189.669178
 51
250.330823
  0
CIRCLE
  5
295
330
13C
100
AcDbEntity
  8
0
 62
     7
100
AcDbCircle
 10
13.4
 20
99.850006
 30
0.0
 40
12.32596182742353
  0
ARC
  5
296
330
13C
100
AcDbEntity
  8
0
 62
     7
100
AcDbCircle
 10
13.4
 20
39.850006
 30
0.0
 40
12.25000000000153
100
AcDbArc
 50
9.669177
 51
70.330822
  0
ARC
  5
297
330
13C
100
AcDbEntity
  8
0
 62
     7
100
AcDbCircle
 10
13.4
 20
39.850006
 30
0.0
 40
12.25000000000153
100
AcDbArc
 50
189.669178
 51
250.330823
  0
CIRCLE
  5
298
330
13C
100
AcDbEntity
  8
0
 62
     7
100
AcDbCircle
 10
13.4
 20
39.850006
 30
0.0
 40
12.32596182742353
  0
ARC
  5
299
330
13C
100
AcDbEntity
  8
0
 62
     7
100
AcDbCircle
 10
-8.473754
 20
199.473754
 30
0.0
 40
0.5000282779465739
100
AcDbArc
 50
90.005351
 51
179.994649
  0
LINE
  5
29A
330
13C
100
AcDbEntity
  8
0
 62
     7
100
AcDbLine
 10
-8.947601
 20
3.521836
 30
0.0
 11
-8.44762
 21
3.521836
 31
0.0
  0
LINE
  5
29B
330
13C
100
AcDbEntity
  8
0
 62
     7
100
AcDbLine
 10
-8.44762
 20
196.478164
 30
0.0
 11
-8.947601
 21
196.478164
 31
0.0
  0
LINE
  5
29C
330
13C
100
AcDbEntity
  8
0
 62
     7
100
AcDbLine
 10
-8.4738
 20
0.5262
 30
0.0
 11
-8.973781
 21
0.5262
 31
0.0
  0
ARC
  5
29D
330
13C
100
AcDbEntity
  8
0
 62
     7
100
AcDbCircle
 10
-8.471275
 20
3.503371
 30
0.0
 40
0.5029323882767255
100
AcDbArc
 50
180.879612
 51
269.712587
  0
ARC
  5
29E
330
13C
100
AcDbEntity
  8
0
 62
     7
100
AcDbCircle
 10
26.273754
 20
0.526246
 30
0.0
 40
0.5000282779465565
100
AcDbArc
 50
270.005351
 51
359.994649
  0
LINE
  5
29F
330
13C
100
AcDbEntity
  8
0
 62
     7
100
AcDbLine
 10
26.747601
 20
196.478164
 30
0.0
 11
26.24762
 21
196.478164
 31
0.0
  0
LINE
  5
2A0
330
13C
100
AcDbEntity
  8
0
 62
     7
100
AcDbLine
 10
26.24762
 20
3.521836
 30
0.0
 11
26.747601
 21
3.521836
 31
0.0
  0
LINE
  5
2A1
330
13C
100
AcDbEntity
  8
0
 62
     7
100
AcDbLine
 10
26.773781
 20
199.4738
 30
0.0
 11
26.2738
 21
199.4738
 31
0.0
  0
ARC
  5
2A2
330
13C
100
AcDbEntity
  8
0
 62
     7
100
AcDbCircle
 10
26.271275
 20
196.496629
 30
0.0
 40
0.5029323836068111
100
AcDbArc
 50
0.879607
 51
89.712587
  0
ARC
  5
2A3
330
13C
100
AcDbEntity
  8
0
 62
     7
100
AcDbCircle
 10
26.271097
 20
3.503418
 30
0.0
 40
0.5031097277263222
100
AcDbArc
 50
270.307709
 51
359.115292
  0
LINE
  5
2A4
330
13C
100
AcDbEntity
  8
0
 62
     7
100
AcDbLine
 10
26.773781
 20
0.5262
 30
0.0
 11
26.2738
 21
0.5262
 31
0.0
  0
ELLIPSE
  5
2A5
330
13C
100
AcDbEntity
  8
0
 62
     7
100
AcDbEllipse
 10
-8.473801
 20
0.5262
 30
0.0
 11
0.3535533845424652
 21
-0.3535533845424652
 31
0.0
210
0.0
220
0.0
230
1.0
 40
0.999924
 41
3.927028893198281
 42
5.497749067571279
  0
LINE
  5
2A6
330
13C
100
AcDbEntity
  8
0
 62
     7
100
AcDbLine
 10
26.2738
 20
0.026219
 30
0.0
 11
26.2738
 21
0.5262
 31
0.0
  0
LINE
  5
2A7
330
13C
100
AcDbEntity
  8
0
 62
     7
100
AcDbLine
 10
-8.4738
 20
0.026219
 30
0.0
 11
-8.4738
 21
0.5262
 31
0.0
  0
ELLIPSE
  5
2A8
330
13C
100
AcDbEntity
  8
0
 62
     7
100
AcDbEllipse
 10
-8.447619
 20
3.521836
 30
0.0
 11
-0.3535533845424652
 21
0.3535533845424652
 31
0.0
210
0.0
220
0.0
230
1.0
 40
0.999924
 41
0.7854362396083795
 42
2.356156413981404
  0
ELLIPSE
  5
2A9
330
13C
100
AcDbEntity
  8
0
 62
     7
100
AcDbEllipse
 10
26.24762
 20
3.521836
 30
0.0
 11
0.3535533845424652
 21
0.3535533845424652
 31
0.0
210
0.0
220
0.0
230
1.0
 40
0.999924
 41
3.927028893198278
 42
5.497749067571279
  0
LINE
  5
2AA
330
13C
100
AcDbEntity
  8
0
 62
     7
100
AcDbLine
 10
-8.44762
 20
3.521836
 30
0.0
 11
-8.44762
 21
3.021855
 31
0.0
  0
LINE
  5
2AB
330
13C
100
AcDbEntity
  8
0
 62
     7
100
AcDbLine
 10
26.24762
 20
3.521836
 30
0.0
 11
26.24762
 21
3.021855
 31
0.0
  0
LINE
  5
2AC
330
13C
100
AcDbEntity
  8
0
 62
     7
100
AcDbLine
 10
26.24762
 20
196.478164
 30
0.0
 11
26.24762
 21
196.978145
 31
0.0
  0
LINE
  5
2AD
330
13C
100
AcDbEntity
  8
0
 62
     7
100
AcDbLine
 10
-8.44762
 20
196.478164
 30
0.0
 11
-8.44762
 21
196.978145
 31
0.0
  0
ELLIPSE
  5
2AE
330
13C
100
AcDbEntity
  8
0
 62
     7
100
AcDbEllipse
 10
26.24762
 20
196.478165
 30
0.0
 11
0.3535533845424652
 21
-0.3535533845424652
 31
0.0
210
0.0
220
0.0
230
1.0
 40
0.999924
 41
0.7854362396085515
 42
2.35615641398162
  0
ELLIPSE
  5
2AF
330
13C
100
AcDbEntity
  8
0
 62
     7
100
AcDbEllipse
 10
-8.447619
 20
196.478165
 30
0.0
 11
-0.3535533845424652
 21
-0.3535533845424652
 31
0.0
210
0.0
220
0.0
230
1.0
 40
0.999924
 41
3.927028893197709
 42
5.497749067570909
  0
ARC
  5
2B0
330
13C
100
AcDbEntity
  8
0
 62
     7
100
AcDbCircle
 10
-8.471039
 20
196.496539
 30
0.0
 40
0.5031749190162103
100
AcDbArc
 50
90.314277
 51
179.110509
  0
LINE
  5
2B1
330
13C
100
AcDbEntity
  8
0
 62
     7
100
AcDbLine
 10
26.2738
 20
199.4738
 30
0.0
 11
26.2738
 21
199.973781
 31
0.0
  0
LINE
  5
2B2
330
13C
100
AcDbEntity
  8
0
 62
     7
100
AcDbLine
 10
-8.4738
 20
199.4738
 30
0.0
 11
-8.4738
 21
199.973781
 31
0.0
  0
ELLIPSE
  5
2B3
330
13C
100
AcDbEntity
  8
0
 62
     7
100
AcDbEllipse
 10
26.2738
 20
199.473801
 30
0.0
 11
0.3535533845424652
 21
-0.3535533845424652
 31
0.0
210
0.0
220
0.0
230
1.0
 40
0.999924
 41
0.785436239608559
 42
2.356156413981513
  0
LINE
  5
2B4
330
13C
100
AcDbEntity
  8
0
 62
     7
100
AcDbLine
 10
-8.4738
 20
199.4738
 30
0.0
 11
-8.973781
 21
199.4738
 31
0.0
  0
LINE
  5
2B5
330
13C
100
AcDbEntity
  8
0
 62
     7
100
AcDbLine
 10
16.095656
 20
190.120662
 30
0.0
 11
15.595675
 21
189.620681
 31
0.0
  0
LINE
  5
2B6
330
13C
100
AcDbEntity
  8
0
 62
     7
100
AcDbLine
 10
10.704344
 20
190.120662
 30
0.0
 11
11.204325
 21
189.620681
 31
0.0
  0
LINE
  5
2B7
330
13C
100
AcDbEntity
  8
0
 62
     7
100
AcDbLine
 10
16.095656
 20
184.729351
 30
0.0
 11
15.595675
 21
185.229332
 31
0.0
  0
LINE
  5
2B8
330
13C
100
AcDbEntity
  8
0
 62
     7
100
AcDbLine
 10
10.704344
 20
184.729351
 30
0.0
 11
11.204325
 21
185.229332
 31
0.0
  0
ENDBLK
  5
13E
330
13C
100
AcDbEntity
  8
0
100
AcDbBlockEnd
  0
BLOCK
  5
140
330
13F
100
AcDbEntity
  8
0
100
AcDbBlockBegin
  2
BLOCK760
 70
     0
 10
0.0
 20
0.0
 30
0.0
  3
BLOCK760
  1

  0
TEXT
  5
2B9
330
13F
100
AcDbEntity
  8
0
 62
     7
100
AcDbText
 10
-11.96357
 20
16.776402
 30
0.0
 40
2.5
  1
Abdeckung RS-Sockel
 41
0.988876
 72
     5
 11
29.239601
 21
16.776402
 31
0.0
100
AcDbText
  0
ENDBLK
  5
141
330
13F
100
AcDbEntity
  8
0
100
AcDbBlockEnd
  0
BLOCK
  5
143
330
142
100
AcDbEntity
  8
0
100
AcDbBlockBegin
  2
*D71
 70
     1
 10
0.0
 20
0.0
 30
0.0
  3
*D71
  1

  0
SOLID
  5
2BA
330
142
100
AcDbEntity
  8
0
 62
     7
100
AcDbTrace
 10
50.326058
 20
254.945501
 30
0.0
 11
50.717637
 21
251.971166
 31
0.0
 12
50.326058
 22
254.945501
 32
0.0
 13
51.109216
 23
254.945501
 33
0.0
  0
SOLID
  5
2BB
330
142
100
AcDbEntity
  8
0
 62
     7
100
AcDbTrace
 10
51.109216
 20
259.396832
 30
0.0
 11
50.717637
 21
262.371166
 31
0.0
 12
51.109216
 22
259.396832
 32
0.0
 13
50.326058
 23
259.396832
 33
0.0
  0
TEXT
  5
2BC
330
142
100
AcDbEntity
  8
0
 62
     7
100
AcDbText
 10
49.717637
 20
236.796814
 30
0.0
 40
2.5
  1
10.4
 50
90.0
 41
1.256832
 72
     5
 11
49.717637
 21
246.971167
 31
0.0
100
AcDbText
  0
LINE
  5
2BD
330
142
100
AcDbEntity
  8
0
 62
     7
100
AcDbLine
 10
68.426222
 20
251.971166
 30
0.0
 11
48.717637
 21
251.971166
 31
0.0
  0
LINE
  5
2BE
330
142
100
AcDbEntity
  8
0
 62
     7
100
AcDbLine
 10
59.929987
 20
262.371166
 30
0.0
 11
48.717637
 21
262.371166
 31
0.0
  0
LINE
  5
2BF
330
142
100
AcDbEntity
  8
0
 62
     7
100
AcDbLine
 10
50.717637
 20
236.796814
 30
0.0
 11
50.717637
 21
251.971166
 31
0.0
  0
LINE
  5
2C0
330
142
100
AcDbEntity
  8
0
 62
     7
100
AcDbLine
 10
50.717637
 20
254.945501
 30
0.0
 11
50.717637
 21
259.396832
 31
0.0
  0
POLYLINE
  5
2C1
330
142
100
AcDbEntity
  8
0
 62
     7
100
AcDb2dPolyline
 66
     1
 10
0.0
 20
0.0
 30
0.0
 70
     1
  0
VERTEX
  5
2C2
330
2C1
100
AcDbEntity
  8
0
100
AcDbVertex
100
AcDb2dVertex
 10
50.326058
 20
254.945501
 30
0.0
  0
VERTEX
  5
2C3
330
2C1
100
AcDbEntity
  8
0
100
AcDbVertex
100
AcDb2dVertex
 10
50.717637
 20
251.971166
 30
0.0
  0
VERTEX
  5
2C4
330
2C1
100
AcDbEntity
  8
0
100
AcDbVertex
100
AcDb2dVertex
 10
51.109216
 20
254.945501
 30
0.0
  0
SEQEND
  5
2C5
330
2C1
100
AcDbEntity
  8
0
 62
     7
  0
POLYLINE
  5
2C6
330
142
100
AcDbEntity
  8
0
 62
     7
100
AcDb2dPolyline
 66
     1
 10
0.0
 20
0.0
 30
0.0
 70
     1
  0
VERTEX
  5
2C7
330
2C6
100
AcDbEntity
  8
0
100
AcDbVertex
100
AcDb2dVertex
 10
51.109216
 20
259.396832
 30
0.0
  0
VERTEX
  5
2C8
330
2C6
100
AcDbEntity
  8
0
100
AcDbVertex
100
AcDb2dVertex
 10
50.717637
 20
262.371166
 30
0.0
  0
VERTEX
  5
2C9
330
2C6
100
AcDbEntity
  8
0
100
AcDbVertex
100
AcDb2dVertex
 10
50.326058
 20
259.396832
 30
0.0
  0
SEQEND
  5
2CA
330
2C6
100
AcDbEntity
  8
0
 62
     7
  0
ENDBLK
  5
144
330
142
100
AcDbEntity
  8
0
100
AcDbBlockEnd
  0
BLOCK
  5
146
330
145
100
AcDbEntity
  8
0
100
AcDbBlockBegin
  2
BLOCK761
 70
     0
 10
0.0
 20
0.0
 30
0.0
  3
BLOCK761
  1

  0
LINE
  5
2CB
330
145
100
AcDbEntity
  8
0
 62
     7
100
AcDbLine
 10
8.661965
 20
-3.9
 30
0.0
 11
9.336072
 21
-3.026411
 31
0.0
  0
LINE
  5
2CC
330
145
100
AcDbEntity
  8
0
 62
     7
100
AcDbLine
 10
9.340085
 20
-2.7
 30
0.0
 11
9.336072
 21
-3.026411
 31
0.0
  0
LINE
  5
2CD
330
145
100
AcDbEntity
  8
0
 62
     7
100
AcDbLine
 10
26.75139
 20
-3.9
 30
0.0
 11
26.763059
 21
-2.7
 31
0.0
  0
LINE
  5
2CE
330
145
100
AcDbEntity
  8
0
 62
     7
100
AcDbLine
 10
8.661965
 20
-3.9
 30
0.0
 11
9.336072
 21
-3.026411
 31
0.0
  0
LINE
  5
2CF
330
145
100
AcDbEntity
  8
0
 62
     7
100
AcDbLine
 10
9.340085
 20
-2.7
 30
0.0
 11
9.336072
 21
-3.026411
 31
0.0
  0
LINE
  5
2D0
330
145
100
AcDbEntity
  8
0
 62
     7
100
AcDbLine
 10
26.75139
 20
-3.9
 30
0.0
 11
26.763059
 21
-2.7
 31
0.0
  0
LINE
  5
2D1
330
145
100
AcDbEntity
  8
0
 62
     7
100
AcDbLine
 10
7.989686
 20
-2.7
 30
0.0
 11
26.776437
 21
-2.7
 31
0.0
  0
LINE
  5
2D2
330
145
100
AcDbEntity
  8
0
 62
     7
100
AcDbLine
 10
-0.326516
 20
-2.7
 30
0.0
 11
0.036947
 21
-2.7
 31
0.0
  0
LINE
  5
2D3
330
145
100
AcDbEntity
  8
0
 62
     7
100
AcDbLine
 10
26.8
 20
0.0
 30
0.0
 11
26.777037
 21
-2.7
 31
0.0
  0
LINE
  5
2D4
330
145
100
AcDbEntity
  8
0
 62
     7
100
AcDbLine
 10
8.661965
 20
-3.9
 30
0.0
 11
9.336072
 21
-3.026411
 31
0.0
  0
LINE
  5
2D5
330
145
100
AcDbEntity
  8
0
 62
     7
100
AcDbLine
 10
0.048616
 20
-3.9
 30
0.0
 11
7.987918
 21
-3.9
 31
0.0
  0
LINE
  5
2D6
330
145
100
AcDbEntity
  8
0
 62
     7
100
AcDbLine
 10
7.987918
 20
-3.9
 30
0.0
 11
8.661965
 21
-3.9
 31
0.0
  0
LINE
  5
2D7
330
145
100
AcDbEntity
  8
0
 62
     7
100
AcDbLine
 10
9.340085
 20
-2.7
 30
0.0
 11
9.336072
 21
-3.026411
 31
0.0
  0
LINE
  5
2D8
330
145
100
AcDbEntity
  8
0
 62
     7
100
AcDbLine
 10
9.276788
 20
-2.7
 30
0.0
 11
9.340085
 21
-2.7
 31
0.0
  0
LINE
  5
2D9
330
145
100
AcDbEntity
  8
0
 62
     7
100
AcDbLine
 10
7.989711
 20
-2.7
 30
0.0
 11
7.987918
 21
-3.9
 31
0.0
  0
LINE
  5
2DA
330
145
100
AcDbEntity
  8
0
 62
     7
100
AcDbLine
 10
0.036947
 20
-2.7
 30
0.0
 11
0.048616
 21
-3.9
 31
0.0
  0
LINE
  5
2DB
330
145
100
AcDbEntity
  8
0
 62
     7
100
AcDbLine
 10
17.463931
 20
-3.026411
 30
0.0
 11
18.13804
 21
-3.9
 31
0.0
  0
LINE
  5
2DC
330
145
100
AcDbEntity
  8
0
 62
     7
100
AcDbLine
 10
25.413033
 20
-3.026411
 30
0.0
 11
17.463931
 21
-3.026411
 31
0.0
  0
LINE
  5
2DD
330
145
100
AcDbEntity
  8
0
 62
     7
100
AcDbLine
 10
26.077341
 20
-3.9
 30
0.0
 11
25.413033
 21
-3.026411
 31
0.0
  0
LINE
  5
2DE
330
145
100
AcDbEntity
  8
0
 62
     7
100
AcDbLine
 10
26.077341
 20
-3.9
 30
0.0
 11
18.13804
 21
-3.9
 31
0.0
  0
LINE
  5
2DF
330
145
100
AcDbEntity
  8
0
 62
     7
100
AcDbLine
 10
26.077341
 20
-3.9
 30
0.0
 11
26.75139
 21
-3.9
 31
0.0
  0
LINE
  5
2E0
330
145
100
AcDbEntity
  8
0
 62
     7
100
AcDbLine
 10
17.459918
 20
-2.7
 30
0.0
 11
17.463931
 21
-3.026411
 31
0.0
  0
LINE
  5
2E1
330
145
100
AcDbEntity
  8
0
 62
     7
100
AcDbLine
 10
25.413033
 20
-3.026411
 30
0.0
 11
25.412682
 21
-2.7
 31
0.0
  0
LINE
  5
2E2
330
145
100
AcDbEntity
  8
0
 62
     7
100
AcDbLine
 10
26.75139
 20
-3.9
 30
0.0
 11
26.763059
 21
-2.7
 31
0.0
  0
LINE
  5
2E3
330
145
100
AcDbEntity
  8
0
 62
     7
100
AcDbLine
 10
26.8
 20
0.0
 30
0.0
 11
26.773781
 21
3.004363
 31
0.0
  0
LINE
  5
2E4
330
145
100
AcDbEntity
  8
0
 62
     7
100
AcDbLine
 10
26.747601
 20
6.004363
 30
0.0
 11
26.773781
 21
3.004363
 31
0.0
  0
LINE
  5
2E5
330
145
100
AcDbEntity
  8
0
 62
     7
100
AcDbLine
 10
-8.44762
 20
6.5
 30
0.0
 11
26.24762
 21
6.5
 31
0.0
  0
LINE
  5
2E6
330
145
100
AcDbEntity
  8
0
 62
     7
100
AcDbLine
 10
-8.469475
 20
3.499962
 30
0.0
 11
-8.44762
 21
6.004363
 31
0.0
  0
LINE
  5
2E7
330
145
100
AcDbEntity
  8
0
 62
     7
100
AcDbLine
 10
26.24762
 20
6.004363
 30
0.0
 11
26.269475
 21
3.499962
 31
0.0
  0
LINE
  5
2E8
330
145
100
AcDbEntity
  8
0
 62
     7
100
AcDbLine
 10
-8.44762
 20
6.004363
 30
0.0
 11
26.24762
 21
6.004363
 31
0.0
  0
LINE
  5
2E9
330
145
100
AcDbEntity
  8
0
 62
     7
100
AcDbLine
 10
-8.973781
 20
3.004363
 30
0.0
 11
-8.947601
 21
6.004363
 31
0.0
  0
LINE
  5
2EA
330
145
100
AcDbEntity
  8
0
 62
     7
100
AcDbLine
 10
-8.973781
 20
3.004363
 30
0.0
 11
-9.0
 21
0.0
 31
0.0
  0
LINE
  5
2EB
330
145
100
AcDbEntity
  8
0
 62
     7
100
AcDbLine
 10
26.2738
 20
3.5
 30
0.0
 11
-8.4738
 21
3.5
 31
0.0
  0
LINE
  5
2EC
330
145
100
AcDbEntity
  8
0
 62
     7
100
AcDbLine
 10
-8.4738
 20
3.004363
 30
0.0
 11
-8.500019
 21
0.0
 31
0.0
  0
LINE
  5
2ED
330
145
100
AcDbEntity
  8
0
 62
     7
100
AcDbLine
 10
-8.500019
 20
0.0
 30
0.0
 11
26.300019
 21
0.0
 31
0.0
  0
LINE
  5
2EE
330
145
100
AcDbEntity
  8
0
 62
     7
100
AcDbLine
 10
26.300019
 20
0.0
 30
0.0
 11
26.2738
 21
3.004363
 31
0.0
  0
LINE
  5
2EF
330
145
100
AcDbEntity
  8
0
 62
     7
100
AcDbLine
 10
26.2738
 20
3.004363
 30
0.0
 11
-8.4738
 21
3.004363
 31
0.0
  0
LINE
  5
2F0
330
145
100
AcDbEntity
  8
0
 62
     7
100
AcDbLine
 10
-9.0
 20
0.0
 30
0.0
 11
-8.500019
 21
0.0
 31
0.0
  0
LINE
  5
2F1
330
145
100
AcDbEntity
  8
0
 62
     7
100
AcDbLine
 10
26.300019
 20
0.0
 30
0.0
 11
26.8
 21
0.0
 31
0.0
  0
ARC
  5
2F2
330
145
100
AcDbEntity
  8
0
 62
     7
100
AcDbCircle
 10
-8.44762
 20
6.0
 30
0.0
 40
0.5
100
AcDbArc
 50
90.0
 51
179.5
  0
ARC
  5
2F3
330
145
100
AcDbEntity
  8
0
 62
     7
100
AcDbCircle
 10
-8.4738
 20
3.0
 30
0.0
 40
0.5
100
AcDbArc
 50
90.0
 51
179.5
  0
ARC
  5
2F4
330
145
100
AcDbEntity
  8
0
 62
     7
100
AcDbCircle
 10
26.564763
 20
-14.32628
 30
0.0
 40
17.33255167605093
100
AcDbArc
 50
89.30901
 51
90.961842
  0
ARC
  5
2F5
330
145
100
AcDbEntity
  8
0
 62
     7
100
AcDbCircle
 10
26.24762
 20
6.0
 30
0.0
 40
0.5
100
AcDbArc
 50
0.5
 51
90.0
  0
ARC
  5
2F6
330
145
100
AcDbEntity
  8
0
 62
     7
100
AcDbCircle
 10
26.2738
 20
3.0
 30
0.0
 40
0.5
100
AcDbArc
 50
0.5
 51
90.0
  0
ELLIPSE
  5
2F7
330
145
100
AcDbEntity
  8
0
 62
     7
100
AcDbEllipse
 10
-8.473801
 20
3.0
 30
0.0
 11
0.4999809563159943
 21
-0.004363267682492733
 31
0.0
210
0.0
220
0.0
230
1.0
 40
0.008726
 41
1.570872479216796
 42
3.141592653589793
  0
LINE
  5
2F8
330
145
100
AcDbEntity
  8
0
 62
     7
100
AcDbLine
 10
26.2738
 20
3.004363
 30
0.0
 11
26.2738
 21
3.5
 31
0.0
  0
LINE
  5
2F9
330
145
100
AcDbEntity
  8
0
 62
     7
100
AcDbLine
 10
-8.4738
 20
3.004363
 30
0.0
 11
-8.4738
 21
3.5
 31
0.0
  0
ELLIPSE
  5
2FA
330
145
100
AcDbEntity
  8
0
 62
     7
100
AcDbEllipse
 10
-8.447619
 20
6.0
 30
0.0
 11
-0.4999809563159943
 21
0.004363267682492733
 31
0.0
210
0.0
220
0.0
230
1.0
 40
0.008726
 41
4.712465132806564
 42
6.283185307179586
  0
ELLIPSE
  5
2FB
330
145
100
AcDbEntity
  8
0
 62
     7
100
AcDbEllipse
 10
26.24762
 20
6.0
 30
0.0
 11
0.4999809563159943
 21
0.004363267682492733
 31
0.0
210
0.0
220
0.0
230
1.0
 40
0.008726
 41
0.0
 42
1.570720174373026
  0
LINE
  5
2FC
330
145
100
AcDbEntity
  8
0
 62
     7
100
AcDbLine
 10
-8.44762
 20
6.5
 30
0.0
 11
-8.44762
 21
6.004363
 31
0.0
  0
LINE
  5
2FD
330
145
100
AcDbEntity
  8
0
 62
     7
100
AcDbLine
 10
26.24762
 20
6.5
 30
0.0
 11
26.24762
 21
6.004363
 31
0.0
  0
LINE
  5
2FE
330
145
100
AcDbEntity
  8
0
 62
     7
100
AcDbLine
 10
-0.350061
 20
0.0
 30
0.0
 11
-0.326498
 21
-2.7
 31
0.0
  0
ENDBLK
  5
147
330
145
100
AcDbEntity
  8
0
100
AcDbBlockEnd
  0
BLOCK
  5
149
330
148
100
AcDbEntity
  8
0
100
AcDbBlockBegin
  2
*D73
 70
     1
 10
0.0
 20
0.0
 30
0.0
  3
*D73
  1

  0
SOLID
  5
2FF
330
148
100
AcDbEntity
  8
0
 62
     7
100
AcDbTrace
 10
137.755578
 20
205.445635
 30
0.0
 11
137.363999
 21
208.41997
 31
0.0
 12
137.755578
 22
205.445635
 32
0.0
 13
136.972421
 23
205.445635
 33
0.0
  0
SOLID
  5
300
330
148
100
AcDbEntity
  8
0
 62
     7
100
AcDbTrace
 10
136.972421
 20
36.546297
 30
0.0
 11
137.363999
 21
33.571962
 31
0.0
 12
136.972421
 22
36.546297
 32
0.0
 13
137.755578
 23
36.546297
 33
0.0
  0
TEXT
  5
301
330
148
100
AcDbEntity
  8
0
 62
     7
100
AcDbText
 10
136.363999
 20
117.243082
 30
0.0
 40
2.5
  1
175
 50
90.0
 41
1.106113
 72
     5
 11
136.363999
 21
124.74885
 31
0.0
100
AcDbText
  0
LINE
  5
302
330
148
100
AcDbEntity
  8
0
 62
     7
100
AcDbLine
 10
150.398721
 20
33.571962
 30
0.0
 11
135.363999
 21
33.571962
 31
0.0
  0
LINE
  5
303
330
148
100
AcDbEntity
  8
0
 62
     7
100
AcDbLine
 10
150.398721
 20
208.41997
 30
0.0
 11
135.363999
 21
208.41997
 31
0.0
  0
LINE
  5
304
330
148
100
AcDbEntity
  8
0
 62
     7
100
AcDbLine
 10
137.363999
 20
36.546297
 30
0.0
 11
137.363999
 21
205.445635
 31
0.0
  0
POLYLINE
  5
305
330
148
100
AcDbEntity
  8
0
 62
     7
100
AcDb2dPolyline
 66
     1
 10
0.0
 20
0.0
 30
0.0
 70
     1
  0
VERTEX
  5
306
330
305
100
AcDbEntity
  8
0
100
AcDbVertex
100
AcDb2dVertex
 10
137.755578
 20
205.445635
 30
0.0
  0
VERTEX
  5
307
330
305
100
AcDbEntity
  8
0
100
AcDbVertex
100
AcDb2dVertex
 10
137.363999
 20
208.41997
 30
0.0
  0
VERTEX
  5
308
330
305
100
AcDbEntity
  8
0
100
AcDbVertex
100
AcDb2dVertex
 10
136.972421
 20
205.445635
 30
0.0
  0
SEQEND
  5
309
330
305
100
AcDbEntity
  8
0
 62
     7
  0
POLYLINE
  5
30A
330
148
100
AcDbEntity
  8
0
 62
     7
100
AcDb2dPolyline
 66
     1
 10
0.0
 20
0.0
 30
0.0
 70
     1
  0
VERTEX
  5
30B
330
30A
100
AcDbEntity
  8
0
100
AcDbVertex
100
AcDb2dVertex
 10
136.972421
 20
36.546297
 30
0.0
  0
VERTEX
  5
30C
330
30A
100
AcDbEntity
  8
0
100
AcDbVertex
100
AcDb2dVertex
 10
137.363999
 20
33.571962
 30
0.0
  0
VERTEX
  5
30D
330
30A
100
AcDbEntity
  8
0
100
AcDbVertex
100
AcDb2dVertex
 10
137.755578
 20
36.546297
 30
0.0
  0
SEQEND
  5
30E
330
30A
100
AcDbEntity
  8
0
 62
     7
  0
ENDBLK
  5
14A
330
148
100
AcDbEntity
  8
0
100
AcDbBlockEnd
  0
BLOCK
  5
14C
330
14B
100
AcDbEntity
  8
0
100
AcDbBlockBegin
  2
*D74
 70
     1
 10
0.0
 20
0.0
 30
0.0
  3
*D74
  1

  0
SOLID
  5
30F
330
14B
100
AcDbEntity
  8
0
 62
     7
100
AcDbTrace
 10
152.873078
 20
214.198244
 30
0.0
 11
149.898743
 21
213.806673
 31
0.0
 12
152.873078
 22
214.198244
 32
0.0
 13
152.873078
 23
213.415102
 33
0.0
  0
SOLID
  5
310
330
14B
100
AcDbEntity
  8
0
 62
     7
100
AcDbTrace
 10
171.41079
 20
213.415102
 30
0.0
 11
174.385125
 21
213.806673
 31
0.0
 12
171.41079
 22
213.415102
 32
0.0
 13
171.41079
 23
214.198244
 33
0.0
  0
TEXT
  5
311
330
14B
100
AcDbEntity
  8
0
 62
     7
100
AcDbText
 10
157.054757
 20
214.806673
 30
0.0
 40
2.5
  1
24.5
 41
1.27559
 72
     5
 11
167.229104
 21
214.806673
 31
0.0
100
AcDbText
  0
LINE
  5
312
330
14B
100
AcDbEntity
  8
0
 62
     7
100
AcDbLine
 10
149.898743
 20
207.919985
 30
0.0
 11
149.898743
 21
215.806673
 31
0.0
  0
LINE
  5
313
330
14B
100
AcDbEntity
  8
0
 62
     7
100
AcDbLine
 10
174.385125
 20
150.55459
 30
0.0
 11
174.385125
 21
215.806673
 31
0.0
  0
LINE
  5
314
330
14B
100
AcDbEntity
  8
0
 62
     7
100
AcDbLine
 10
152.873078
 20
213.806673
 30
0.0
 11
171.41079
 21
213.806673
 31
0.0
  0
POLYLINE
  5
315
330
14B
100
AcDbEntity
  8
0
 62
     7
100
AcDb2dPolyline
 66
     1
 10
0.0
 20
0.0
 30
0.0
 70
     1
  0
VERTEX
  5
316
330
315
100
AcDbEntity
  8
0
100
AcDbVertex
100
AcDb2dVertex
 10
152.873078
 20
214.198244
 30
0.0
  0
VERTEX
  5
317
330
315
100
AcDbEntity
  8
0
100
AcDbVertex
100
AcDb2dVertex
 10
149.898743
 20
213.806673
 30
0.0
  0
VERTEX
  5
318
330
315
100
AcDbEntity
  8
0
100
AcDbVertex
100
AcDb2dVertex
 10
152.873078
 20
213.415102
 30
0.0
  0
SEQEND
  5
319
330
315
100
AcDbEntity
  8
0
 62
     7
  0
POLYLINE
  5
31A
330
14B
100
AcDbEntity
  8
0
 62
     7
100
AcDb2dPolyline
 66
     1
 10
0.0
 20
0.0
 30
0.0
 70
     1
  0
VERTEX
  5
31B
330
31A
100
AcDbEntity
  8
0
100
AcDbVertex
100
AcDb2dVertex
 10
171.41079
 20
213.415102
 30
0.0
  0
VERTEX
  5
31C
330
31A
100
AcDbEntity
  8
0
100
AcDbVertex
100
AcDb2dVertex
 10
174.385125
 20
213.806673
 30
0.0
  0
VERTEX
  5
31D
330
31A
100
AcDbEntity
  8
0
100
AcDbVertex
100
AcDb2dVertex
 10
171.41079
 20
214.198244
 30
0.0
  0
SEQEND
  5
31E
330
31A
100
AcDbEntity
  8
0
 62
     7
  0
ENDBLK
  5
14D
330
14B
100
AcDbEntity
  8
0
100
AcDbBlockEnd
  0
BLOCK
  5
14F
330
14E
100
AcDbEntity
  8
0
100
AcDbBlockBegin
  2
BLOCK762
 70
     0
 10
0.0
 20
0.0
 30
0.0
  3
BLOCK762
  1

  0
LINE
  5
31F
330
14E
100
AcDbEntity
  8
0
  6
DASHDOT
 62
     7
 48
0.305
100
AcDbLine
 10
120.856659
 20
9.56389
 30
0.0
 11
108.656654
 21
9.56389
 31
0.0
  0
LINE
  5
320
330
14E
100
AcDbEntity
  8
0
  6
DASHDOT
 62
     7
 48
0.305
100
AcDbLine
 10
114.75666
 20
15.66389
 30
0.0
 11
114.75666
 21
3.463889
 31
0.0
  0
ENDBLK
  5
150
330
14E
100
AcDbEntity
  8
0
100
AcDbBlockEnd
  0
BLOCK
  5
152
330
151
100
AcDbEntity
  8
0
100
AcDbBlockBegin
  2
BLOCK763
 70
     0
 10
0.0
 20
0.0
 30
0.0
  3
BLOCK763
  1

  0
LINE
  5
321
330
151
100
AcDbEntity
  8
0
  6
DASHDOT
 62
     7
 48
0.305
100
AcDbLine
 10
120.856659
 20
69.548889
 30
0.0
 11
108.656654
 21
69.548889
 31
0.0
  0
LINE
  5
322
330
151
100
AcDbEntity
  8
0
  6
DASHDOT
 62
     7
 48
0.305
100
AcDbLine
 10
114.75666
 20
75.648888
 30
0.0
 11
114.75666
 21
63.448891
 31
0.0
  0
ENDBLK
  5
153
330
151
100
AcDbEntity
  8
0
100
AcDbBlockEnd
  0
BLOCK
  5
155
330
154
100
AcDbEntity
  8
0
100
AcDbBlockBegin
  2
BLOCK764
 70
     0
 10
0.0
 20
0.0
 30
0.0
  3
BLOCK764
  1

  0
LINE
  5
323
330
154
100
AcDbEntity
  8
0
  6
DASHDOT
 62
     7
 48
0.305
100
AcDbLine
 10
121.356659
 20
167.647995
 30
0.0
 11
109.156654
 21
167.647995
 31
0.0
  0
LINE
  5
324
330
154
100
AcDbEntity
  8
0
  6
DASHDOT
 62
     7
 48
0.305
100
AcDbLine
 10
115.25666
 20
173.748001
 30
0.0
 11
115.25666
 21
161.548004
 31
0.0
  0
ENDBLK
  5
156
330
154
100
AcDbEntity
  8
0
100
AcDbBlockEnd
  0
BLOCK
  5
158
330
157
100
AcDbEntity
  8
0
100
AcDbBlockBegin
  2
BLOCK765
 70
     0
 10
0.0
 20
0.0
 30
0.0
  3
BLOCK765
  1

  0
LINE
  5
325
330
157
100
AcDbEntity
  8
0
 62
     7
100
AcDbLine
 10
115.256658
 20
165.548001
 30
0.0
 11
111.671658
 21
165.548001
 31
0.0
  0
ARC
  5
326
330
157
100
AcDbEntity
  8
0
 62
     7
100
AcDbCircle
 10
115.256658
 20
167.648001
 30
0.0
 40
2.09999999999743
100
AcDbArc
 50
90.0
 51
270.0
  0
LINE
  5
327
330
157
100
AcDbEntity
  8
0
 62
     7
100
AcDbLine
 10
115.256658
 20
169.748001
 30
0.0
 11
111.671658
 21
169.748001
 31
0.0
  0
LINE
  5
328
330
157
100
AcDbEntity
  8
0
 62
     7
100
AcDbLine
 10
111.671658
 20
174.34802
 30
0.0
 11
111.671658
 21
169.748001
 31
0.0
  0
ARC
  5
329
330
157
100
AcDbEntity
  8
0
 62
     7
100
AcDbCircle
 10
111.171686
 20
174.348028
 30
0.0
 40
0.4999717248757881
100
AcDbArc
 50
359.999012
 51
90.000988
  0
LINE
  5
32A
330
157
100
AcDbEntity
  8
0
 62
     7
100
AcDbLine
 10
111.171677
 20
174.848001
 30
0.0
 11
103.171639
 21
174.848001
 31
0.0
  0
ARC
  5
32B
330
157
100
AcDbEntity
  8
0
 62
     7
100
AcDbCircle
 10
103.17163
 20
174.348028
 30
0.0
 40
0.4999717248758357
100
AcDbArc
 50
89.999012
 51
180.000988
  0
LINE
  5
32C
330
157
100
AcDbEntity
  8
0
 62
     7
100
AcDbLine
 10
102.671658
 20
174.34802
 30
0.0
 11
102.671658
 21
112.34887
 31
0.0
  0
ARC
  5
32D
330
157
100
AcDbEntity
  8
0
 62
     7
100
AcDbCircle
 10
103.17163
 20
112.348862
 30
0.0
 40
0.4999717248758463
100
AcDbArc
 50
179.999012
 51
270.000988
  0
LINE
  5
32E
330
157
100
AcDbEntity
  8
0
 62
     7
100
AcDbLine
 10
122.46203
 20
111.848889
 30
0.0
 11
103.171639
 21
111.848889
 31
0.0
  0
LINE
  5
32F
330
157
100
AcDbEntity
  8
0
 62
     7
100
AcDbLine
 10
116.312736
 20
101.197998
 30
0.0
 11
122.46203
 21
111.848889
 31
0.0
  0
LINE
  5
330
330
157
100
AcDbEntity
  8
0
 62
     7
100
AcDbLine
 10
103.171639
 20
101.197998
 30
0.0
 11
116.312736
 21
101.197998
 31
0.0
  0
ARC
  5
331
330
157
100
AcDbEntity
  8
0
 62
     7
100
AcDbCircle
 10
103.17163
 20
100.698026
 30
0.0
 40
0.4999717248758572
100
AcDbArc
 50
89.999012
 51
180.000988
  0
LINE
  5
332
330
157
100
AcDbEntity
  8
0
 62
     7
100
AcDbLine
 10
102.671658
 20
100.698017
 30
0.0
 11
102.671658
 21
52.34887
 31
0.0
  0
ARC
  5
333
330
157
100
AcDbEntity
  8
0
 62
     7
100
AcDbCircle
 10
103.17163
 20
52.348862
 30
0.0
 40
0.4999717248758572
100
AcDbArc
 50
179.999012
 51
270.000988
  0
LINE
  5
334
330
157
100
AcDbEntity
  8
0
 62
     7
100
AcDbLine
 10
122.46203
 20
51.848889
 30
0.0
 11
103.171639
 21
51.848889
 31
0.0
  0
LINE
  5
335
330
157
100
AcDbEntity
  8
0
 62
     7
100
AcDbLine
 10
116.312736
 20
41.197998
 30
0.0
 11
122.46203
 21
51.848889
 31
0.0
  0
LINE
  5
336
330
157
100
AcDbEntity
  8
0
 62
     7
100
AcDbLine
 10
103.171639
 20
41.197998
 30
0.0
 11
116.312736
 21
41.197998
 31
0.0
  0
ARC
  5
337
330
157
100
AcDbEntity
  8
0
 62
     7
100
AcDbCircle
 10
103.17163
 20
40.698026
 30
0.0
 40
0.4999717248758515
100
AcDbArc
 50
89.999012
 51
180.000988
  0
LINE
  5
338
330
157
100
AcDbEntity
  8
0
 62
     7
100
AcDbLine
 10
102.671658
 20
40.698017
 30
0.0
 11
102.671658
 21
0.499981
 31
0.0
  0
ARC
  5
339
330
157
100
AcDbEntity
  8
0
 62
     7
100
AcDbCircle
 10
103.17163
 20
0.499972
 30
0.0
 40
0.4999717248758566
100
AcDbArc
 50
179.999012
 51
270.000988
  0
LINE
  5
33A
330
157
100
AcDbEntity
  8
0
 62
     7
100
AcDbLine
 10
111.171677
 20
0.0
 30
0.0
 11
103.171639
 21
0.0
 31
0.0
  0
ARC
  5
33B
330
157
100
AcDbEntity
  8
0
 62
     7
100
AcDbCircle
 10
111.171686
 20
0.499972
 30
0.0
 40
0.4999717248757805
100
AcDbArc
 50
269.999012
 51
0.000988
  0
LINE
  5
33C
330
157
100
AcDbEntity
  8
0
 62
     7
100
AcDbLine
 10
111.671658
 20
7.463889
 30
0.0
 11
111.671658
 21
0.499981
 31
0.0
  0
LINE
  5
33D
330
157
100
AcDbEntity
  8
0
 62
     7
100
AcDbLine
 10
111.671658
 20
7.463889
 30
0.0
 11
114.756658
 21
7.463889
 31
0.0
  0
ARC
  5
33E
330
157
100
AcDbEntity
  8
0
 62
     7
100
AcDbCircle
 10
114.756658
 20
9.563889
 30
0.0
 40
2.099999999999967
100
AcDbArc
 50
90.0
 51
270.0
  0
LINE
  5
33F
330
157
100
AcDbEntity
  8
0
 62
     7
100
AcDbLine
 10
111.671658
 20
11.663889
 30
0.0
 11
114.756658
 21
11.663889
 31
0.0
  0
LINE
  5
340
330
157
100
AcDbEntity
  8
0
 62
     7
100
AcDbLine
 10
111.671658
 20
39.697998
 30
0.0
 11
111.671658
 21
11.663889
 31
0.0
  0
LINE
  5
341
330
157
100
AcDbEntity
  8
0
 62
     7
100
AcDbLine
 10
116.024104
 20
39.697998
 30
0.0
 11
111.671658
 21
39.697998
 31
0.0
  0
ARC
  5
342
330
157
100
AcDbEntity
  8
0
 62
     7
100
AcDbCircle
 10
116.024112
 20
41.69791
 30
0.0
 40
1.999911065909008
100
AcDbArc
 50
269.999794
 51
330.000206
  0
LINE
  5
343
330
157
100
AcDbEntity
  8
0
 62
     7
100
AcDbLine
 10
126.832252
 20
56.418336
 30
0.0
 11
117.756089
 21
40.69796
 31
0.0
  0
ARC
  5
344
330
157
100
AcDbEntity
  8
0
 62
     7
100
AcDbCircle
 10
126.399276
 20
56.668335
 30
0.0
 40
0.4999661220980766
100
AcDbArc
 50
329.998005
 51
75.001994
  0
LINE
  5
345
330
157
100
AcDbEntity
  8
0
 62
     7
100
AcDbLine
 10
116.270264
 20
59.9
 30
0.0
 11
126.528661
 21
57.151271
 31
0.0
  0
LINE
  5
346
330
157
100
AcDbEntity
  8
0
 62
     7
100
AcDbLine
 10
111.671658
 20
59.9
 30
0.0
 11
116.270264
 21
59.9
 31
0.0
  0
LINE
  5
347
330
157
100
AcDbEntity
  8
0
 62
     7
100
AcDbLine
 10
111.671658
 20
67.448889
 30
0.0
 11
111.671658
 21
59.9
 31
0.0
  0
LINE
  5
348
330
157
100
AcDbEntity
  8
0
 62
     7
100
AcDbLine
 10
114.756658
 20
67.448889
 30
0.0
 11
111.671658
 21
67.448889
 31
0.0
  0
ARC
  5
349
330
157
100
AcDbEntity
  8
0
 62
     7
100
AcDbCircle
 10
114.756658
 20
69.548889
 30
0.0
 40
2.099999999997423
100
AcDbArc
 50
90.0
 51
270.0
  0
LINE
  5
34A
330
157
100
AcDbEntity
  8
0
 62
     7
100
AcDbLine
 10
114.756658
 20
71.648889
 30
0.0
 11
111.671658
 21
71.648889
 31
0.0
  0
LINE
  5
34B
330
157
100
AcDbEntity
  8
0
 62
     7
100
AcDbLine
 10
111.671658
 20
99.697998
 30
0.0
 11
111.671658
 21
71.648889
 31
0.0
  0
LINE
  5
34C
330
157
100
AcDbEntity
  8
0
 62
     7
100
AcDbLine
 10
116.024104
 20
99.697998
 30
0.0
 11
111.671658
 21
99.697998
 31
0.0
  0
ARC
  5
34D
330
157
100
AcDbEntity
  8
0
 62
     7
100
AcDbCircle
 10
116.024112
 20
101.69791
 30
0.0
 40
1.999911065909012
100
AcDbArc
 50
269.999794
 51
330.000206
  0
LINE
  5
34E
330
157
100
AcDbEntity
  8
0
 62
     7
100
AcDbLine
 10
126.832252
 20
116.418336
 30
0.0
 11
117.756089
 21
100.69796
 31
0.0
  0
ARC
  5
34F
330
157
100
AcDbEntity
  8
0
 62
     7
100
AcDbCircle
 10
126.399276
 20
116.668335
 30
0.0
 40
0.4999661220980719
100
AcDbArc
 50
329.998005
 51
75.001994
  0
LINE
  5
350
330
157
100
AcDbEntity
  8
0
 62
     7
100
AcDbLine
 10
116.270264
 20
119.9
 30
0.0
 11
126.528661
 21
117.151271
 31
0.0
  0
LINE
  5
351
330
157
100
AcDbEntity
  8
0
 62
     7
100
AcDbLine
 10
111.671658
 20
119.9
 30
0.0
 11
116.270264
 21
119.9
 31
0.0
  0
LINE
  5
352
330
157
100
AcDbEntity
  8
0
 62
     7
100
AcDbLine
 10
111.671658
 20
165.548001
 30
0.0
 11
111.671658
 21
119.9
 31
0.0
  0
CIRCLE
  5
353
330
157
100
AcDbEntity
  8
0
 62
     7
100
AcDbCircle
 10
114.756658
 20
9.563889
 30
0.0
 40
2.06478521405423
  0
ARC
  5
354
330
157
100
AcDbEntity
  8
0
 62
     7
100
AcDbCircle
 10
114.756658
 20
9.563889
 30
0.0
 40
2.099999999984721
100
AcDbArc
 50
270.0
 51
90.0
  0
CIRCLE
  5
355
330
157
100
AcDbEntity
  8
0
 62
     7
100
AcDbCircle
 10
114.756658
 20
9.563889
 30
0.0
 40
1.6
  0
ARC
  5
356
330
157
100
AcDbEntity
  8
0
 62
     7
100
AcDbCircle
 10
114.756658
 20
69.548889
 30
0.0
 40
2.099999999985861
100
AcDbArc
 50
270.0
 51
90.0
  0
CIRCLE
  5
357
330
157
100
AcDbEntity
  8
0
 62
     7
100
AcDbCircle
 10
114.756658
 20
69.548889
 30
0.0
 40
2.064785214054221
  0
CIRCLE
  5
358
330
157
100
AcDbEntity
  8
0
 62
     7
100
AcDbCircle
 10
114.756658
 20
69.548889
 30
0.0
 40
1.599999999999994
  0
ARC
  5
359
330
157
100
AcDbEntity
  8
0
 62
     7
100
AcDbCircle
 10
115.256658
 20
167.648001
 30
0.0
 40
2.09999999998584
100
AcDbArc
 50
270.0
 51
90.0
  0
CIRCLE
  5
35A
330
157
100
AcDbEntity
  8
0
 62
     7
100
AcDbCircle
 10
115.256658
 20
167.648001
 30
0.0
 40
2.064785214054217
  0
CIRCLE
  5
35B
330
157
100
AcDbEntity
  8
0
 62
     7
100
AcDbCircle
 10
115.256658
 20
167.648001
 30
0.0
 40
1.599999999999994
  0
ENDBLK
  5
159
330
157
100
AcDbEntity
  8
0
100
AcDbBlockEnd
  0
BLOCK
  5
15B
330
15A
100
AcDbEntity
  8
0
100
AcDbBlockBegin
  2
BLOCK766
 70
     0
 10
0.0
 20
0.0
 30
0.0
  3
BLOCK766
  1

  0
TEXT
  5
35C
330
15A
100
AcDbEntity
  8
0
 62
     7
100
AcDbText
 10
90.0
 20
16.530979
 30
0.0
 40
2.5
  1
Schienenabdeckung
 41
1.025412
 72
     5
 11
126.865997
 21
16.530979
 31
0.0
100
AcDbText
  0
ENDBLK
  5
15C
330
15A
100
AcDbEntity
  8
0
100
AcDbBlockEnd
  0
BLOCK
  5
15E
330
15D
100
AcDbEntity
  8
0
100
AcDbBlockBegin
  2
*D80
 70
     1
 10
0.0
 20
0.0
 30
0.0
  3
*D80
  1

  0
SOLID
  5
35D
330
15D
100
AcDbEntity
  8
0
 62
     7
100
AcDbTrace
 10
144.760705
 20
246.406095
 30
0.0
 11
145.152283
 21
243.431761
 31
0.0
 12
144.760705
 22
246.406095
 32
0.0
 13
145.543862
 23
246.406095
 33
0.0
  0
SOLID
  5
35E
330
15D
100
AcDbEntity
  8
0
 62
     7
100
AcDbTrace
 10
145.543862
 20
252.857426
 30
0.0
 11
145.152283
 21
255.83176
 31
0.0
 12
145.543862
 22
252.857426
 32
0.0
 13
144.760705
 23
252.857426
 33
0.0
  0
TEXT
  5
35F
330
15D
100
AcDbEntity
  8
0
 62
     7
100
AcDbText
 10
144.152283
 20
228.25741
 30
0.0
 40
2.5
  1
12.4
 50
90.0
 41
1.256832
 72
     5
 11
144.152283
 21
238.431761
 31
0.0
100
AcDbText
  0
LINE
  5
360
330
15D
100
AcDbEntity
  8
0
 62
     7
100
AcDbLine
 10
150.506936
 20
243.431761
 30
0.0
 11
143.152283
 21
243.431761
 31
0.0
  0
LINE
  5
361
330
15D
100
AcDbEntity
  8
0
 62
     7
100
AcDbLine
 10
150.398721
 20
255.83176
 30
0.0
 11
143.152283
 21
255.83176
 31
0.0
  0
LINE
  5
362
330
15D
100
AcDbEntity
  8
0
 62
     7
100
AcDbLine
 10
145.152283
 20
228.257408
 30
0.0
 11
145.152283
 21
243.431761
 31
0.0
  0
LINE
  5
363
330
15D
100
AcDbEntity
  8
0
 62
     7
100
AcDbLine
 10
145.152283
 20
246.406095
 30
0.0
 11
145.152283
 21
252.857426
 31
0.0
  0
POLYLINE
  5
364
330
15D
100
AcDbEntity
  8
0
 62
     7
100
AcDb2dPolyline
 66
     1
 10
0.0
 20
0.0
 30
0.0
 70
     1
  0
VERTEX
  5
365
330
364
100
AcDbEntity
  8
0
100
AcDbVertex
100
AcDb2dVertex
 10
144.760705
 20
246.406095
 30
0.0
  0
VERTEX
  5
366
330
364
100
AcDbEntity
  8
0
100
AcDbVertex
100
AcDb2dVertex
 10
145.152283
 20
243.431761
 30
0.0
  0
VERTEX
  5
367
330
364
100
AcDbEntity
  8
0
100
AcDbVertex
100
AcDb2dVertex
 10
145.543862
 20
246.406095
 30
0.0
  0
SEQEND
  5
368
330
364
100
AcDbEntity
  8
0
 62
     7
  0
POLYLINE
  5
369
330
15D
100
AcDbEntity
  8
0
 62
     7
100
AcDb2dPolyline
 66
     1
 10
0.0
 20
0.0
 30
0.0
 70
     1
  0
VERTEX
  5
36A
330
369
100
AcDbEntity
  8
0
100
AcDbVertex
100
AcDb2dVertex
 10
145.543862
 20
252.857426
 30
0.0
  0
VERTEX
  5
36B
330
369
100
AcDbEntity
  8
0
100
AcDbVertex
100
AcDb2dVertex
 10
145.152283
 20
255.83176
 30
0.0
  0
VERTEX
  5
36C
330
369
100
AcDbEntity
  8
0
100
AcDbVertex
100
AcDb2dVertex
 10
144.760705
 20
252.857426
 30
0.0
  0
SEQEND
  5
36D
330
369
100
AcDbEntity
  8
0
 62
     7
  0
ENDBLK
  5
15F
330
15D
100
AcDbEntity
  8
0
100
AcDbBlockEnd
  0
BLOCK
  5
161
330
160
100
AcDbEntity
  8
0
100
AcDbBlockBegin
  2
*D81
 70
     1
 10
0.0
 20
0.0
 30
0.0
  3
*D81
  1

  0
SOLID
  5
36E
330
160
100
AcDbEntity
  8
0
 62
     7
100
AcDbTrace
 10
137.071923
 20
240.457426
 30
0.0
 11
136.680344
 21
243.431761
 31
0.0
 12
137.071923
 22
240.457426
 32
0.0
 13
136.288766
 23
240.457426
 33
0.0
  0
SOLID
  5
36F
330
160
100
AcDbEntity
  8
0
 62
     7
100
AcDbTrace
 10
136.288766
 20
263.306095
 30
0.0
 11
136.680344
 21
260.33176
 31
0.0
 12
136.288766
 22
263.306095
 32
0.0
 13
137.071923
 23
263.306095
 33
0.0
  0
TEXT
  5
370
330
160
100
AcDbEntity
  8
0
 62
     7
100
AcDbText
 10
135.680344
 20
246.794584
 30
0.0
 40
2.5
  1
16.9
 50
90.0
 41
1.294918
 72
     5
 11
135.680344
 21
256.968936
 31
0.0
100
AcDbText
  0
LINE
  5
371
330
160
100
AcDbEntity
  8
0
 62
     7
100
AcDbLine
 10
150.506936
 20
243.431761
 30
0.0
 11
134.680344
 21
243.431761
 31
0.0
  0
LINE
  5
372
330
160
100
AcDbEntity
  8
0
 62
     7
100
AcDbLine
 10
161.983743
 20
260.33176
 30
0.0
 11
134.680344
 21
260.33176
 31
0.0
  0
LINE
  5
373
330
160
100
AcDbEntity
  8
0
 62
     7
100
AcDbLine
 10
136.680344
 20
238.431761
 30
0.0
 11
136.680344
 21
240.457426
 31
0.0
  0
LINE
  5
374
330
160
100
AcDbEntity
  8
0
 62
     7
100
AcDbLine
 10
136.680344
 20
243.431761
 30
0.0
 11
136.680344
 21
260.33176
 31
0.0
  0
LINE
  5
375
330
160
100
AcDbEntity
  8
0
 62
     7
100
AcDbLine
 10
136.680344
 20
263.306095
 30
0.0
 11
136.680344
 21
265.33176
 31
0.0
  0
POLYLINE
  5
376
330
160
100
AcDbEntity
  8
0
 62
     7
100
AcDb2dPolyline
 66
     1
 10
0.0
 20
0.0
 30
0.0
 70
     1
  0
VERTEX
  5
377
330
376
100
AcDbEntity
  8
0
100
AcDbVertex
100
AcDb2dVertex
 10
137.071923
 20
240.457426
 30
0.0
  0
VERTEX
  5
378
330
376
100
AcDbEntity
  8
0
100
AcDbVertex
100
AcDb2dVertex
 10
136.680344
 20
243.431761
 30
0.0
  0
VERTEX
  5
379
330
376
100
AcDbEntity
  8
0
100
AcDbVertex
100
AcDb2dVertex
 10
136.288766
 20
240.457426
 30
0.0
  0
SEQEND
  5
37A
330
376
100
AcDbEntity
  8
0
 62
     7
  0
POLYLINE
  5
37B
330
160
100
AcDbEntity
  8
0
 62
     7
100
AcDb2dPolyline
 66
     1
 10
0.0
 20
0.0
 30
0.0
 70
     1
  0
VERTEX
  5
37C
330
37B
100
AcDbEntity
  8
0
100
AcDbVertex
100
AcDb2dVertex
 10
136.288766
 20
263.306095
 30
0.0
  0
VERTEX
  5
37D
330
37B
100
AcDbEntity
  8
0
100
AcDbVertex
100
AcDb2dVertex
 10
136.680344
 20
260.33176
 30
0.0
  0
VERTEX
  5
37E
330
37B
100
AcDbEntity
  8
0
100
AcDbVertex
100
AcDb2dVertex
 10
137.071923
 20
263.306095
 30
0.0
  0
SEQEND
  5
37F
330
37B
100
AcDbEntity
  8
0
 62
     7
  0
ENDBLK
  5
162
330
160
100
AcDbEntity
  8
0
100
AcDbBlockEnd
  0
BLOCK
  5
164
330
163
100
AcDbEntity
  8
0
100
AcDbBlockBegin
  2
BLOCK767
 70
     0
 10
0.0
 20
0.0
 30
0.0
  3
BLOCK767
  1

  0
LINE
  5
380
330
163
100
AcDbEntity
  8
0
 62
     7
100
AcDbLine
 10
122.46203
 20
2.0
 30
0.0
 11
117.756082
 21
2.0
 31
0.0
  0
LINE
  5
381
330
163
100
AcDbEntity
  8
0
 62
     7
100
AcDbLine
 10
102.671658
 20
2.0
 30
0.0
 11
103.171639
 21
2.0
 31
0.0
  0
LINE
  5
382
330
163
100
AcDbEntity
  8
0
 62
     7
100
AcDbLine
 10
111.171677
 20
2.0
 30
0.0
 11
103.171639
 21
2.0
 31
0.0
  0
LINE
  5
383
330
163
100
AcDbEntity
  8
0
 62
     7
100
AcDbLine
 10
111.171677
 20
2.0
 30
0.0
 11
111.671658
 21
2.0
 31
0.0
  0
LINE
  5
384
330
163
100
AcDbEntity
  8
0
 62
     7
100
AcDbLine
 10
111.671658
 20
2.0
 30
0.0
 11
114.756658
 21
2.0
 31
0.0
  0
LINE
  5
385
330
163
100
AcDbEntity
  8
0
 62
     7
100
AcDbLine
 10
116.856658
 20
2.0
 30
0.0
 11
117.756089
 21
2.0
 31
0.0
  0
LINE
  5
386
330
163
100
AcDbEntity
  8
0
 62
     7
100
AcDbLine
 10
126.832252
 20
2.0
 30
0.0
 11
117.756089
 21
2.0
 31
0.0
  0
LINE
  5
387
330
163
100
AcDbEntity
  8
0
 62
     7
100
AcDbLine
 10
126.832252
 20
2.0
 30
0.0
 11
126.899242
 21
2.0
 31
0.0
  0
LINE
  5
388
330
163
100
AcDbEntity
  8
0
 62
     7
100
AcDbLine
 10
124.59688
 20
0.0
 30
0.0
 11
126.805764
 21
0.0
 31
0.0
  0
LINE
  5
389
330
163
100
AcDbEntity
  8
0
 62
     7
100
AcDbLine
 10
126.805764
 20
0.0
 30
0.0
 11
126.872754
 21
0.0
 31
0.0
  0
LINE
  5
38A
330
163
100
AcDbEntity
  8
0
 62
     7
100
AcDbLine
 10
102.689112
 20
0.0
 30
0.0
 11
103.189093
 21
0.0
 31
0.0
  0
LINE
  5
38B
330
163
100
AcDbEntity
  8
0
 62
     7
100
AcDbLine
 10
111.154223
 20
0.0
 30
0.0
 11
103.189093
 21
0.0
 31
0.0
  0
LINE
  5
38C
330
163
100
AcDbEntity
  8
0
 62
     7
100
AcDbLine
 10
111.154223
 20
0.0
 30
0.0
 11
111.654204
 21
0.0
 31
0.0
  0
LINE
  5
38D
330
163
100
AcDbEntity
  8
0
 62
     7
100
AcDbLine
 10
111.654204
 20
0.0
 30
0.0
 11
114.756658
 21
0.0
 31
0.0
  0
LINE
  5
38E
330
163
100
AcDbEntity
  8
0
 62
     7
100
AcDbLine
 10
116.839204
 20
0.0
 30
0.0
 11
114.756658
 21
0.0
 31
0.0
  0
LINE
  5
38F
330
163
100
AcDbEntity
  8
0
 62
     7
100
AcDbLine
 10
117.693612
 20
-10.4
 30
0.0
 11
124.43968
 21
-10.4
 31
0.0
  0
LINE
  5
390
330
163
100
AcDbEntity
  8
0
 62
     7
100
AcDbLine
 10
124.59688
 20
0.0
 30
0.0
 11
124.43968
 21
-10.4
 31
0.0
  0
LINE
  5
391
330
163
100
AcDbEntity
  8
0
 62
     7
100
AcDbLine
 10
126.832252
 20
2.0
 30
0.0
 11
126.805764
 21
0.0
 31
0.0
  0
LINE
  5
392
330
163
100
AcDbEntity
  8
0
 62
     7
100
AcDbLine
 10
117.756089
 20
2.0
 30
0.0
 11
117.693612
 21
-10.4
 31
0.0
  0
LINE
  5
393
330
163
100
AcDbEntity
  8
0
 62
     7
100
AcDbLine
 10
116.014027
 20
0.0
 30
0.0
 11
115.961627
 21
-10.4
 31
0.0
  0
LINE
  5
394
330
163
100
AcDbEntity
  8
0
 62
     7
100
AcDbLine
 10
111.563441
 20
-10.4
 30
0.0
 11
115.961627
 21
-10.4
 31
0.0
  0
LINE
  5
395
330
163
100
AcDbEntity
  8
0
 62
     7
100
AcDbLine
 10
111.654204
 20
0.0
 30
0.0
 11
111.563445
 21
-10.4
 31
0.0
  0
LINE
  5
396
330
163
100
AcDbEntity
  8
0
 62
     7
100
AcDbLine
 10
111.671658
 20
2.0
 30
0.0
 11
111.654204
 21
0.0
 31
0.0
  0
LINE
  5
397
330
163
100
AcDbEntity
  8
0
 62
     7
100
AcDbLine
 10
111.171677
 20
2.0
 30
0.0
 11
111.154223
 21
0.0
 31
0.0
  0
LINE
  5
398
330
163
100
AcDbEntity
  8
0
 62
     7
100
AcDbLine
 10
103.171639
 20
2.0
 30
0.0
 11
103.189093
 21
0.0
 31
0.0
  0
LINE
  5
399
330
163
100
AcDbEntity
  8
0
 62
     7
100
AcDbLine
 10
102.671658
 20
2.0
 30
0.0
 11
102.689112
 21
0.0
 31
0.0
  0
LINE
  5
39A
330
163
100
AcDbEntity
  8
0
 62
     7
100
AcDbLine
 10
102.779871
 20
-10.4
 30
0.0
 11
102.689112
 21
0.0
 31
0.0
  0
LINE
  5
39B
330
163
100
AcDbEntity
  8
0
 62
     7
100
AcDbLine
 10
112.691873
 20
6.035215
 30
0.0
 11
114.756658
 21
6.035215
 31
0.0
  0
LINE
  5
39C
330
163
100
AcDbEntity
  8
0
 62
     7
100
AcDbLine
 10
114.756658
 20
2.0
 30
0.0
 11
116.856658
 21
2.0
 31
0.0
  0
LINE
  5
39D
330
163
100
AcDbEntity
  8
0
 62
     7
100
AcDbLine
 10
114.756658
 20
6.035215
 30
0.0
 11
116.821443
 21
6.035215
 31
0.0
  0
LINE
  5
39E
330
163
100
AcDbEntity
  8
0
 62
     7
100
AcDbLine
 10
113.156658
 20
6.5
 30
0.0
 11
114.756658
 21
6.5
 31
0.0
  0
LINE
  5
39F
330
163
100
AcDbEntity
  8
0
 62
     7
100
AcDbLine
 10
114.756658
 20
6.5
 30
0.0
 11
116.356658
 21
6.5
 31
0.0
  0
LINE
  5
3A0
330
163
100
AcDbEntity
  8
0
 62
     7
100
AcDbLine
 10
114.756658
 20
0.0
 30
0.0
 11
114.756658
 21
2.0
 31
0.0
  0
LINE
  5
3A1
330
163
100
AcDbEntity
  8
0
 62
     7
100
AcDbLine
 10
117.356658
 20
2.0
 30
0.0
 11
116.856652
 21
2.0
 31
0.0
  0
LINE
  5
3A2
330
163
100
AcDbEntity
  8
0
 62
     7
100
AcDbLine
 10
116.821443
 20
6.035215
 30
0.0
 11
117.321443
 21
6.035215
 31
0.0
  0
LINE
  5
3A3
330
163
100
AcDbEntity
  8
0
 62
     7
100
AcDbLine
 10
116.271687
 20
6.5
 30
0.0
 11
116.856658
 21
6.5
 31
0.0
  0
LINE
  5
3A4
330
163
100
AcDbEntity
  8
0
 62
     7
100
AcDbLine
 10
115.961627
 20
-10.4
 30
0.0
 11
117.693612
 21
-10.4
 31
0.0
  0
LINE
  5
3A5
330
163
100
AcDbEntity
  8
0
 62
     7
100
AcDbLine
 10
124.43968
 20
-10.4
 30
0.0
 11
124.506675
 21
-10.4
 31
0.0
  0
LINE
  5
3A6
330
163
100
AcDbEntity
  8
0
 62
     7
100
AcDbLine
 10
102.779871
 20
-10.4
 30
0.0
 11
103.279852
 21
-10.4
 31
0.0
  0
LINE
  5
3A7
330
163
100
AcDbEntity
  8
0
 62
     7
100
AcDbLine
 10
103.279852
 20
-10.4
 30
0.0
 11
111.063464
 21
-10.4
 31
0.0
  0
LINE
  5
3A8
330
163
100
AcDbEntity
  8
0
 62
     7
100
AcDbLine
 10
111.063464
 20
-10.4
 30
0.0
 11
111.563445
 21
-10.4
 31
0.0
  0
LINE
  5
3A9
330
163
100
AcDbEntity
  8
0
 62
     7
100
AcDbLine
 10
111.154223
 20
0.0
 30
0.0
 11
111.063464
 21
-10.4
 31
0.0
  0
LINE
  5
3AA
330
163
100
AcDbEntity
  8
0
 62
     7
100
AcDbLine
 10
103.279852
 20
-10.4
 30
0.0
 11
103.189093
 21
0.0
 31
0.0
  0
LINE
  5
3AB
330
163
100
AcDbEntity
  8
0
 62
     7
100
AcDbLine
 10
126.872754
 20
0.0
 30
0.0
 11
126.899242
 21
2.0
 31
0.0
  0
LINE
  5
3AC
330
163
100
AcDbEntity
  8
0
 62
     7
100
AcDbLine
 10
126.872754
 20
0.0
 30
0.0
 11
126.899242
 21
2.0
 31
0.0
  0
LINE
  5
3AD
330
163
100
AcDbEntity
  8
0
 62
     7
100
AcDbLine
 10
112.691873
 20
6.035215
 30
0.0
 11
112.656658
 21
2.0
 31
0.0
  0
LINE
  5
3AE
330
163
100
AcDbEntity
  8
0
 62
     7
100
AcDbLine
 10
116.821443
 20
6.035215
 30
0.0
 11
116.856658
 21
2.0
 31
0.0
  0
LINE
  5
3AF
330
163
100
AcDbEntity
  8
0
 62
     7
100
AcDbLine
 10
113.156658
 20
6.5
 30
0.0
 11
112.691873
 21
6.035215
 31
0.0
  0
LINE
  5
3B0
330
163
100
AcDbEntity
  8
0
 62
     7
100
AcDbLine
 10
116.356658
 20
6.5
 30
0.0
 11
116.821443
 21
6.035215
 31
0.0
  0
LINE
  5
3B1
330
163
100
AcDbEntity
  8
0
 62
     7
100
AcDbLine
 10
116.839204
 20
0.0
 30
0.0
 11
116.856658
 21
2.0
 31
0.0
  0
LINE
  5
3B2
330
163
100
AcDbEntity
  8
0
 62
     7
100
AcDbLine
 10
116.821443
 20
6.035215
 30
0.0
 11
116.856658
 21
2.0
 31
0.0
  0
LINE
  5
3B3
330
163
100
AcDbEntity
  8
0
 62
     7
100
AcDbLine
 10
113.156658
 20
6.5
 30
0.0
 11
112.691873
 21
6.035215
 31
0.0
  0
LINE
  5
3B4
330
163
100
AcDbEntity
  8
0
 62
     7
100
AcDbLine
 10
116.356658
 20
6.5
 30
0.0
 11
116.821443
 21
6.035215
 31
0.0
  0
LINE
  5
3B5
330
163
100
AcDbEntity
  8
0
 62
     7
100
AcDbLine
 10
117.321443
 20
6.035215
 30
0.0
 11
117.356658
 21
2.0
 31
0.0
  0
LINE
  5
3B6
330
163
100
AcDbEntity
  8
0
 62
     7
100
AcDbLine
 10
116.856658
 20
6.5
 30
0.0
 11
117.321443
 21
6.035215
 31
0.0
  0
LINE
  5
3B7
330
163
100
AcDbEntity
  8
0
 62
     7
100
AcDbLine
 10
124.506675
 20
-10.4
 30
0.0
 11
124.663875
 21
0.0
 31
0.0
  0
LINE
  5
3B8
330
163
100
AcDbEntity
  8
0
 62
     7
100
AcDbLine
 10
124.506675
 20
-10.4
 30
0.0
 11
124.663875
 21
0.0
 31
0.0
  0
ENDBLK
  5
165
330
163
100
AcDbEntity
  8
0
100
AcDbBlockEnd
  0
BLOCK
  5
167
330
166
100
AcDbEntity
  8
0
100
AcDbBlockBegin
  2
BLOCK768
 70
     0
 10
0.0
 20
0.0
 30
0.0
  3
BLOCK768
  1

  0
ELLIPSE
  5
3B9
330
166
100
AcDbEntity
  8
0
 62
     7
100
AcDbEllipse
 10
122.506256
 20
57.583424
 30
0.0
 11
12.25
 21
0.0
 31
0.0
210
0.0
220
0.0
230
1.0
 40
0.57735
 41
0.5300108744590892
 42
2.524953476241076
  0
ELLIPSE
  5
3BA
330
166
100
AcDbEntity
  8
0
 62
     7
100
AcDbEllipse
 10
122.432495
 20
57.823921
 30
0.0
 11
13.93465518951416
 21
-0.06694678217172623
 31
0.0
210
0.0
220
0.0
230
1.0
 40
0.585971
 41
4.827415303712766
 42
5.271191244354767
  0
LINE
  5
3BB
330
166
100
AcDbEntity
  8
0
 62
     7
100
AcDbLine
 10
129.78698
 20
50.865138
 30
0.0
 11
134.142668
 21
53.379895
 31
0.0
  0
LINE
  5
3BC
330
166
100
AcDbEntity
  8
0
 62
     7
100
AcDbLine
 10
134.142668
 20
53.379895
 30
0.0
 11
134.173897
 21
53.408849
 31
0.0
  0
LINE
  5
3BD
330
166
100
AcDbEntity
  8
0
 62
     7
100
AcDbLine
 10
134.161221
 20
55.575909
 30
0.0
 11
134.141249
 21
53.378586
 31
0.0
  0
LINE
  5
3BE
330
166
100
AcDbEntity
  8
0
 62
     7
100
AcDbLine
 10
129.801749
 20
53.058966
 30
0.0
 11
129.789247
 21
50.865957
 31
0.0
  0
LINE
  5
3BF
330
166
100
AcDbEntity
  8
0
 62
     7
100
AcDbLine
 10
112.484247
 20
60.692799
 30
0.0
 11
112.591607
 21
61.401284
 31
0.0
  0
LINE
  5
3C0
330
166
100
AcDbEntity
  8
0
 62
     7
100
AcDbLine
 10
112.591607
 20
61.401284
 30
0.0
 11
112.594693
 21
61.669292
 31
0.0
  0
LINE
  5
3C1
330
166
100
AcDbEntity
  8
0
 62
     7
100
AcDbLine
 10
112.450724
 20
60.719221
 30
0.0
 11
112.594693
 21
61.669292
 31
0.0
  0
LINE
  5
3C2
330
166
100
AcDbEntity
  8
0
 62
     7
100
AcDbLine
 10
112.594693
 20
61.669292
 30
0.0
 11
112.512378
 21
61.67345
 31
0.0
  0
LINE
  5
3C3
330
166
100
AcDbEntity
  8
0
 62
     7
100
AcDbLine
 10
133.291835
 20
52.47968
 30
0.0
 11
133.008168
 21
52.72489
 31
0.0
  0
POLYLINE
  5
3C4
330
166
100
AcDbEntity
  8
0
 62
     7
100
AcDb2dPolyline
 66
     1
 10
0.0
 20
0.0
 30
0.0
  0
VERTEX
  5
3C5
330
3C4
100
AcDbEntity
  8
0
100
AcDbVertex
100
AcDb2dVertex
 10
136.221909
 20
56.55444
 30
0.0
  0
VERTEX
  5
3C6
330
3C4
100
AcDbEntity
  8
0
100
AcDbVertex
100
AcDb2dVertex
 10
136.19873
 20
56.141235
 30
0.0
  0
VERTEX
  5
3C7
330
3C4
100
AcDbEntity
  8
0
100
AcDbVertex
100
AcDb2dVertex
 10
136.138245
 20
55.729301
 30
0.0
  0
VERTEX
  5
3C8
330
3C4
100
AcDbEntity
  8
0
100
AcDbVertex
100
AcDb2dVertex
 10
136.040665
 20
55.319778
 30
0.0
  0
VERTEX
  5
3C9
330
3C4
100
AcDbEntity
  8
0
100
AcDbVertex
100
AcDb2dVertex
 10
135.943283
 20
55.014893
 30
0.0
  0
VERTEX
  5
3CA
330
3C4
100
AcDbEntity
  8
0
100
AcDbVertex
100
AcDb2dVertex
 10
135.825317
 20
54.712467
 30
0.0
  0
VERTEX
  5
3CB
330
3C4
100
AcDbEntity
  8
0
100
AcDbVertex
100
AcDb2dVertex
 10
135.528427
 20
54.116844
 30
0.0
  0
VERTEX
  5
3CC
330
3C4
100
AcDbEntity
  8
0
100
AcDbVertex
100
AcDb2dVertex
 10
135.151764
 20
53.536518
 30
0.0
  0
VERTEX
  5
3CD
330
3C4
100
AcDbEntity
  8
0
100
AcDbVertex
100
AcDb2dVertex
 10
134.69754
 20
52.974949
 30
0.0
  0
VERTEX
  5
3CE
330
3C4
100
AcDbEntity
  8
0
100
AcDbVertex
100
AcDb2dVertex
 10
134.168396
 20
52.435402
 30
0.0
  0
SEQEND
  5
3CF
330
3C4
100
AcDbEntity
  8
0
 62
     7
  0
LINE
  5
3D0
330
166
100
AcDbEntity
  8
0
 62
     7
100
AcDbLine
 10
133.291835
 20
52.47968
 30
0.0
 11
134.168394
 21
52.435403
 31
0.0
  0
LINE
  5
3D1
330
166
100
AcDbEntity
  8
0
 62
     7
100
AcDbLine
 10
134.168394
 20
52.435403
 30
0.0
 11
134.173902
 21
53.408852
 31
0.0
  0
LINE
  5
3D2
330
166
100
AcDbEntity
  8
0
 62
     7
100
AcDbLine
 10
91.716261
 20
28.884998
 30
0.0
 11
91.74749
 21
28.913951
 31
0.0
  0
LINE
  5
3D3
330
166
100
AcDbEntity
  8
0
 62
     7
100
AcDbLine
 10
87.360573
 20
26.37024
 30
0.0
 11
91.716261
 21
28.884998
 31
0.0
  0
ELLIPSE
  5
3D4
330
166
100
AcDbEntity
  8
0
 62
     7
100
AcDbEllipse
 10
80.006088
 20
33.329025
 30
0.0
 11
13.93465518951416
 21
-0.06694678217172623
 31
0.0
210
0.0
220
0.0
230
1.0
 40
0.585971
 41
4.827415303718711
 42
5.271191244355372
  0
ELLIPSE
  5
3D5
330
166
100
AcDbEntity
  8
0
 62
     7
100
AcDbEllipse
 10
80.079849
 20
33.088528
 30
0.0
 11
-12.25
 21
1.500192334859827E-15
 31
0.0
210
0.0
220
0.0
230
1.0
 40
0.57735
 41
3.671603528003215
 42
5.666546129830695
  0
LINE
  5
3D6
330
166
100
AcDbEntity
  8
0
 62
     7
100
AcDbLine
 10
91.734815
 20
31.081012
 30
0.0
 11
91.714842
 21
28.883689
 31
0.0
  0
LINE
  5
3D7
330
166
100
AcDbEntity
  8
0
 62
     7
100
AcDbLine
 10
87.375342
 20
28.564069
 30
0.0
 11
87.36284
 21
26.371059
 31
0.0
  0
LINE
  5
3D8
330
166
100
AcDbEntity
  8
0
 62
     7
100
AcDbLine
 10
70.05784
 20
36.197902
 30
0.0
 11
70.1652
 21
36.906386
 31
0.0
  0
LINE
  5
3D9
330
166
100
AcDbEntity
  8
0
 62
     7
100
AcDbLine
 10
70.1652
 20
36.906386
 30
0.0
 11
70.168286
 21
37.174395
 31
0.0
  0
LINE
  5
3DA
330
166
100
AcDbEntity
  8
0
 62
     7
100
AcDbLine
 10
70.024317
 20
36.224324
 30
0.0
 11
70.168286
 21
37.174395
 31
0.0
  0
LINE
  5
3DB
330
166
100
AcDbEntity
  8
0
 62
     7
100
AcDbLine
 10
70.168286
 20
37.174395
 30
0.0
 11
70.085971
 21
37.178553
 31
0.0
  0
LINE
  5
3DC
330
166
100
AcDbEntity
  8
0
 62
     7
100
AcDbLine
 10
90.865428
 20
27.984783
 30
0.0
 11
90.581761
 21
28.229993
 31
0.0
  0
POLYLINE
  5
3DD
330
166
100
AcDbEntity
  8
0
 62
     7
100
AcDb2dPolyline
 66
     1
 10
0.0
 20
0.0
 30
0.0
  0
VERTEX
  5
3DE
330
3DD
100
AcDbEntity
  8
0
100
AcDbVertex
100
AcDb2dVertex
 10
93.795509
 20
32.059544
 30
0.0
  0
VERTEX
  5
3DF
330
3DD
100
AcDbEntity
  8
0
100
AcDbVertex
100
AcDb2dVertex
 10
93.772316
 20
31.646338
 30
0.0
  0
VERTEX
  5
3E0
330
3DD
100
AcDbEntity
  8
0
100
AcDbVertex
100
AcDb2dVertex
 10
93.711845
 20
31.234404
 30
0.0
  0
VERTEX
  5
3E1
330
3DD
100
AcDbEntity
  8
0
100
AcDbVertex
100
AcDb2dVertex
 10
93.614258
 20
30.824881
 30
0.0
  0
VERTEX
  5
3E2
330
3DD
100
AcDbEntity
  8
0
100
AcDbVertex
100
AcDb2dVertex
 10
93.516869
 20
30.519995
 30
0.0
  0
VERTEX
  5
3E3
330
3DD
100
AcDbEntity
  8
0
100
AcDbVertex
100
AcDb2dVertex
 10
93.398911
 20
30.217571
 30
0.0
  0
VERTEX
  5
3E4
330
3DD
100
AcDbEntity
  8
0
100
AcDbVertex
100
AcDb2dVertex
 10
93.10202
 20
29.621944
 30
0.0
  0
VERTEX
  5
3E5
330
3DD
100
AcDbEntity
  8
0
100
AcDbVertex
100
AcDb2dVertex
 10
92.725357
 20
29.04162
 30
0.0
  0
VERTEX
  5
3E6
330
3DD
100
AcDbEntity
  8
0
100
AcDbVertex
100
AcDb2dVertex
 10
92.271133
 20
28.480053
 30
0.0
  0
VERTEX
  5
3E7
330
3DD
100
AcDbEntity
  8
0
100
AcDbVertex
100
AcDb2dVertex
 10
91.741989
 20
27.940506
 30
0.0
  0
SEQEND
  5
3E8
330
3DD
100
AcDbEntity
  8
0
 62
     7
  0
LINE
  5
3E9
330
166
100
AcDbEntity
  8
0
 62
     7
100
AcDbLine
 10
90.865428
 20
27.984783
 30
0.0
 11
91.741987
 21
27.940506
 31
0.0
  0
LINE
  5
3EA
330
166
100
AcDbEntity
  8
0
 62
     7
100
AcDbLine
 10
91.741987
 20
27.940506
 30
0.0
 11
91.747495
 21
28.913954
 31
0.0
  0
ELLIPSE
  5
3EB
330
166
100
AcDbEntity
  8
0
 62
     7
100
AcDbEllipse
 10
37.579678
 20
8.834126
 30
0.0
 11
13.93465518951416
 21
-0.06694678217172623
 31
0.0
210
0.0
220
0.0
230
1.0
 40
0.585971
 41
4.827415303726513
 42
5.27119124435812
  0
LINE
  5
3EC
330
166
100
AcDbEntity
  8
0
 62
     7
100
AcDbLine
 10
44.934166
 20
1.875343
 30
0.0
 11
49.289854
 21
4.3901
 31
0.0
  0
LINE
  5
3ED
330
166
100
AcDbEntity
  8
0
 62
     7
100
AcDbLine
 10
49.289854
 20
4.3901
 30
0.0
 11
49.321083
 21
4.419054
 31
0.0
  0
ELLIPSE
  5
3EE
330
166
100
AcDbEntity
  8
0
 62
     7
100
AcDbEllipse
 10
37.653442
 20
8.593629
 30
0.0
 11
12.25
 21
0.0
 31
0.0
210
0.0
220
0.0
230
1.0
 40
0.57735
 41
0.5300108744647701
 42
2.524952268843117
  0
LINE
  5
3EF
330
166
100
AcDbEntity
  8
0
 62
     7
100
AcDbLine
 10
44.948935
 20
4.069171
 30
0.0
 11
44.936433
 21
1.876162
 31
0.0
  0
LINE
  5
3F0
330
166
100
AcDbEntity
  8
0
 62
     7
100
AcDbLine
 10
49.308408
 20
6.586114
 30
0.0
 11
49.288435
 21
4.388791
 31
0.0
  0
LINE
  5
3F1
330
166
100
AcDbEntity
  8
0
 62
     7
100
AcDbLine
 10
27.631433
 20
11.703004
 30
0.0
 11
27.738793
 21
12.411489
 31
0.0
  0
LINE
  5
3F2
330
166
100
AcDbEntity
  8
0
 62
     7
100
AcDbLine
 10
27.738793
 20
12.411489
 30
0.0
 11
27.741879
 21
12.679497
 31
0.0
  0
LINE
  5
3F3
330
166
100
AcDbEntity
  8
0
 62
     7
100
AcDbLine
 10
27.59791
 20
11.729427
 30
0.0
 11
27.741879
 21
12.679497
 31
0.0
  0
LINE
  5
3F4
330
166
100
AcDbEntity
  8
0
 62
     7
100
AcDbLine
 10
27.741879
 20
12.679497
 30
0.0
 11
27.659565
 21
12.683655
 31
0.0
  0
LINE
  5
3F5
330
166
100
AcDbEntity
  8
0
 62
     7
100
AcDbLine
 10
48.439022
 20
3.489885
 30
0.0
 11
48.155354
 21
3.735096
 31
0.0
  0
POLYLINE
  5
3F6
330
166
100
AcDbEntity
  8
0
 62
     7
100
AcDb2dPolyline
 66
     1
 10
0.0
 20
0.0
 30
0.0
  0
VERTEX
  5
3F7
330
3F6
100
AcDbEntity
  8
0
100
AcDbVertex
100
AcDb2dVertex
 10
51.369102
 20
7.564645
 30
0.0
  0
VERTEX
  5
3F8
330
3F6
100
AcDbEntity
  8
0
100
AcDbVertex
100
AcDb2dVertex
 10
51.345913
 20
7.151439
 30
0.0
  0
VERTEX
  5
3F9
330
3F6
100
AcDbEntity
  8
0
100
AcDbVertex
100
AcDb2dVertex
 10
51.285435
 20
6.739506
 30
0.0
  0
VERTEX
  5
3FA
330
3F6
100
AcDbEntity
  8
0
100
AcDbVertex
100
AcDb2dVertex
 10
51.187847
 20
6.329982
 30
0.0
  0
VERTEX
  5
3FB
330
3F6
100
AcDbEntity
  8
0
100
AcDbVertex
100
AcDb2dVertex
 10
51.090466
 20
6.025098
 30
0.0
  0
VERTEX
  5
3FC
330
3F6
100
AcDbEntity
  8
0
100
AcDbVertex
100
AcDb2dVertex
 10
50.972507
 20
5.722673
 30
0.0
  0
VERTEX
  5
3FD
330
3F6
100
AcDbEntity
  8
0
100
AcDbVertex
100
AcDb2dVertex
 10
50.675617
 20
5.127048
 30
0.0
  0
VERTEX
  5
3FE
330
3F6
100
AcDbEntity
  8
0
100
AcDbVertex
100
AcDb2dVertex
 10
50.29895
 20
4.546722
 30
0.0
  0
VERTEX
  5
3FF
330
3F6
100
AcDbEntity
  8
0
100
AcDbVertex
100
AcDb2dVertex
 10
49.844727
 20
3.985156
 30
0.0
  0
VERTEX
  5
400
330
3F6
100
AcDbEntity
  8
0
100
AcDbVertex
100
AcDb2dVertex
 10
49.315578
 20
3.445609
 30
0.0
  0
SEQEND
  5
401
330
3F6
100
AcDbEntity
  8
0
 62
     7
  0
LINE
  5
402
330
166
100
AcDbEntity
  8
0
 62
     7
100
AcDbLine
 10
48.439022
 20
3.489885
 30
0.0
 11
49.31558
 21
3.445609
 31
0.0
  0
LINE
  5
403
330
166
100
AcDbEntity
  8
0
 62
     7
100
AcDbLine
 10
49.31558
 20
3.445609
 30
0.0
 11
49.321088
 21
4.419057
 31
0.0
  0
LINE
  5
404
330
166
100
AcDbEntity
  8
0
 62
     7
100
AcDbLine
 10
19.304002
 20
-10.736938
 30
0.0
 11
19.304002
 21
-8.262478
 31
0.0
  0
LINE
  5
405
330
166
100
AcDbEntity
  8
0
 62
     7
100
AcDbLine
 10
19.304002
 20
-10.736938
 30
0.0
 11
44.948935
 21
4.069171
 31
0.0
  0
LINE
  5
406
330
166
100
AcDbEntity
  8
0
 62
     7
100
AcDbLine
 10
49.308408
 20
6.586114
 30
0.0
 11
87.375342
 21
28.564069
 31
0.0
  0
LINE
  5
407
330
166
100
AcDbEntity
  8
0
 62
     7
100
AcDbLine
 10
91.734815
 20
31.081012
 30
0.0
 11
129.801749
 21
53.058966
 31
0.0
  0
LINE
  5
408
330
166
100
AcDbEntity
  8
0
 62
     7
100
AcDbLine
 10
134.161221
 20
55.575909
 30
0.0
 11
160.018278
 21
70.504488
 31
0.0
  0
LINE
  5
409
330
166
100
AcDbEntity
  8
0
 62
     7
100
AcDbLine
 10
160.018278
 20
70.504488
 30
0.0
 11
159.981199
 21
72.95754
 31
0.0
  0
LINE
  5
40A
330
166
100
AcDbEntity
  8
0
 62
     7
100
AcDbLine
 10
159.981199
 20
72.95754
 30
0.0
 11
157.881477
 21
71.745265
 31
0.0
  0
LINE
  5
40B
330
166
100
AcDbEntity
  8
0
 62
     7
100
AcDbLine
 10
157.881477
 20
71.745265
 30
0.0
 11
157.844452
 21
74.194754
 31
0.0
  0
LINE
  5
40C
330
166
100
AcDbEntity
  8
0
 62
     7
100
AcDbLine
 10
157.844452
 20
74.194754
 30
0.0
 11
21.403724
 21
-4.579337
 31
0.0
  0
LINE
  5
40D
330
166
100
AcDbEntity
  8
0
 62
     7
100
AcDbLine
 10
21.403724
 20
-4.579337
 30
0.0
 11
21.403724
 21
-7.050203
 31
0.0
  0
LINE
  5
40E
330
166
100
AcDbEntity
  8
0
 62
     7
100
AcDbLine
 10
21.403724
 20
-7.050203
 30
0.0
 11
19.304002
 21
-8.262478
 31
0.0
  0
LINE
  5
40F
330
166
100
AcDbEntity
  8
0
 62
     7
100
AcDbLine
 10
-3.483055
 20
10.193738
 30
0.0
 11
132.957673
 21
88.967829
 31
0.0
  0
LINE
  5
410
330
166
100
AcDbEntity
  8
0
 62
     7
100
AcDbLine
 10
157.490912
 20
74.803556
 30
0.0
 11
132.957673
 21
88.967829
 31
0.0
  0
LINE
  5
411
330
166
100
AcDbEntity
  8
0
 62
     7
100
AcDbLine
 10
157.490912
 20
74.803556
 30
0.0
 11
21.050184
 21
-3.970535
 31
0.0
  0
LINE
  5
412
330
166
100
AcDbEntity
  8
0
 62
     7
100
AcDbLine
 10
-3.483055
 20
10.193738
 30
0.0
 11
21.050184
 21
-3.970535
 31
0.0
  0
LINE
  5
413
330
166
100
AcDbEntity
  8
0
 62
     7
100
AcDbLine
 10
90.729391
 20
54.842816
 30
0.0
 11
97.837484
 21
58.946676
 31
0.0
  0
LINE
  5
414
330
166
100
AcDbEntity
  8
0
 62
     7
100
AcDbLine
 10
90.729391
 20
54.842816
 30
0.0
 11
104.748618
 21
46.748812
 31
0.0
  0
LINE
  5
415
330
166
100
AcDbEntity
  8
0
 62
     7
100
AcDbLine
 10
104.748618
 20
46.748812
 30
0.0
 11
111.856711
 21
50.852671
 31
0.0
  0
LINE
  5
416
330
166
100
AcDbEntity
  8
0
 62
     7
100
AcDbLine
 10
97.837484
 20
58.946676
 30
0.0
 11
111.856711
 21
50.852671
 31
0.0
  0
LINE
  5
417
330
166
100
AcDbEntity
  8
0
 62
     7
100
AcDbLine
 10
48.302984
 20
30.347919
 30
0.0
 11
55.411077
 21
34.451778
 31
0.0
  0
LINE
  5
418
330
166
100
AcDbEntity
  8
0
 62
     7
100
AcDbLine
 10
48.302984
 20
30.347919
 30
0.0
 11
62.322211
 21
22.253915
 31
0.0
  0
LINE
  5
419
330
166
100
AcDbEntity
  8
0
 62
     7
100
AcDbLine
 10
62.322211
 20
22.253915
 30
0.0
 11
69.430304
 21
26.357774
 31
0.0
  0
LINE
  5
41A
330
166
100
AcDbEntity
  8
0
 62
     7
100
AcDbLine
 10
55.411077
 20
34.451778
 30
0.0
 11
69.430304
 21
26.357774
 31
0.0
  0
LINE
  5
41B
330
166
100
AcDbEntity
  8
0
 62
     7
100
AcDbLine
 10
5.876577
 20
5.853021
 30
0.0
 11
12.98467
 21
9.956881
 31
0.0
  0
LINE
  5
41C
330
166
100
AcDbEntity
  8
0
 62
     7
100
AcDbLine
 10
5.876577
 20
5.853021
 30
0.0
 11
19.895804
 21
-2.240983
 31
0.0
  0
LINE
  5
41D
330
166
100
AcDbEntity
  8
0
 62
     7
100
AcDbLine
 10
19.895804
 20
-2.240983
 30
0.0
 11
27.003897
 21
1.862876
 31
0.0
  0
LINE
  5
41E
330
166
100
AcDbEntity
  8
0
 62
     7
100
AcDbLine
 10
12.98467
 20
9.956881
 30
0.0
 11
27.003897
 21
1.862876
 31
0.0
  0
POLYLINE
  5
41F
330
166
100
AcDbEntity
  8
0
 62
     7
100
AcDb2dPolyline
 66
     1
 10
0.0
 20
0.0
 30
0.0
  0
VERTEX
  5
420
330
41F
100
AcDbEntity
  8
0
100
AcDbVertex
100
AcDb2dVertex
 10
113.436951
 20
70.331367
 30
0.0
  0
VERTEX
  5
421
330
41F
100
AcDbEntity
  8
0
100
AcDbVertex
100
AcDb2dVertex
 10
113.019958
 20
70.078827
 30
0.0
  0
VERTEX
  5
422
330
41F
100
AcDbEntity
  8
0
100
AcDbVertex
100
AcDb2dVertex
 10
112.623848
 20
69.815239
 30
0.0
  0
VERTEX
  5
423
330
41F
100
AcDbEntity
  8
0
100
AcDbVertex
100
AcDb2dVertex
 10
112.2519
 20
69.542946
 30
0.0
  0
VERTEX
  5
424
330
41F
100
AcDbEntity
  8
0
100
AcDbVertex
100
AcDb2dVertex
 10
111.902374
 20
69.26091
 30
0.0
  0
VERTEX
  5
425
330
41F
100
AcDbEntity
  8
0
100
AcDbVertex
100
AcDb2dVertex
 10
111.471313
 20
68.869484
 30
0.0
  0
VERTEX
  5
426
330
41F
100
AcDbEntity
  8
0
100
AcDbVertex
100
AcDb2dVertex
 10
111.083557
 20
68.463249
 30
0.0
  0
VERTEX
  5
427
330
41F
100
AcDbEntity
  8
0
100
AcDbVertex
100
AcDb2dVertex
 10
110.740677
 20
68.043793
 30
0.0
  0
VERTEX
  5
428
330
41F
100
AcDbEntity
  8
0
100
AcDbVertex
100
AcDb2dVertex
 10
110.37722
 20
67.503403
 30
0.0
  0
VERTEX
  5
429
330
41F
100
AcDbEntity
  8
0
100
AcDbVertex
100
AcDb2dVertex
 10
110.088181
 20
66.948242
 30
0.0
  0
VERTEX
  5
42A
330
41F
100
AcDbEntity
  8
0
100
AcDbVertex
100
AcDb2dVertex
 10
109.875305
 20
66.381721
 30
0.0
  0
VERTEX
  5
42B
330
41F
100
AcDbEntity
  8
0
100
AcDbVertex
100
AcDb2dVertex
 10
109.739845
 20
65.80732
 30
0.0
  0
VERTEX
  5
42C
330
41F
100
AcDbEntity
  8
0
100
AcDbVertex
100
AcDb2dVertex
 10
109.682602
 20
65.228546
 30
0.0
  0
VERTEX
  5
42D
330
41F
100
AcDbEntity
  8
0
100
AcDbVertex
100
AcDb2dVertex
 10
109.703888
 20
64.648956
 30
0.0
  0
VERTEX
  5
42E
330
41F
100
AcDbEntity
  8
0
100
AcDbVertex
100
AcDb2dVertex
 10
109.79808
 20
64.095085
 30
0.0
  0
VERTEX
  5
42F
330
41F
100
AcDbEntity
  8
0
100
AcDbVertex
100
AcDb2dVertex
 10
109.963989
 20
63.546864
 30
0.0
  0
VERTEX
  5
430
330
41F
100
AcDbEntity
  8
0
100
AcDbVertex
100
AcDb2dVertex
 10
110.200691
 20
63.007393
 30
0.0
  0
VERTEX
  5
431
330
41F
100
AcDbEntity
  8
0
100
AcDbVertex
100
AcDb2dVertex
 10
110.506882
 20
62.479725
 30
0.0
  0
VERTEX
  5
432
330
41F
100
AcDbEntity
  8
0
100
AcDbVertex
100
AcDb2dVertex
 10
110.880867
 20
61.966839
 30
0.0
  0
VERTEX
  5
433
330
41F
100
AcDbEntity
  8
0
100
AcDbVertex
100
AcDb2dVertex
 10
111.242821
 20
61.552818
 30
0.0
  0
VERTEX
  5
434
330
41F
100
AcDbEntity
  8
0
100
AcDbVertex
100
AcDb2dVertex
 10
111.649017
 20
61.152702
 30
0.0
  0
VERTEX
  5
435
330
41F
100
AcDbEntity
  8
0
100
AcDbVertex
100
AcDb2dVertex
 10
112.09787
 20
60.768051
 30
0.0
  0
VERTEX
  5
436
330
41F
100
AcDbEntity
  8
0
100
AcDbVertex
100
AcDb2dVertex
 10
112.458626
 20
60.492672
 30
0.0
  0
VERTEX
  5
437
330
41F
100
AcDbEntity
  8
0
100
AcDbVertex
100
AcDb2dVertex
 10
112.84124
 20
60.227295
 30
0.0
  0
VERTEX
  5
438
330
41F
100
AcDbEntity
  8
0
100
AcDbVertex
100
AcDb2dVertex
 10
113.251144
 20
59.968708
 30
0.0
  0
VERTEX
  5
439
330
41F
100
AcDbEntity
  8
0
100
AcDbVertex
100
AcDb2dVertex
 10
113.681763
 20
59.721588
 30
0.0
  0
VERTEX
  5
43A
330
41F
100
AcDbEntity
  8
0
100
AcDbVertex
100
AcDb2dVertex
 10
114.484314
 20
59.317375
 30
0.0
  0
VERTEX
  5
43B
330
41F
100
AcDbEntity
  8
0
100
AcDbVertex
100
AcDb2dVertex
 10
115.342064
 20
58.952995
 30
0.0
  0
VERTEX
  5
43C
330
41F
100
AcDbEntity
  8
0
100
AcDbVertex
100
AcDb2dVertex
 10
116.249161
 20
58.631001
 30
0.0
  0
VERTEX
  5
43D
330
41F
100
AcDbEntity
  8
0
100
AcDbVertex
100
AcDb2dVertex
 10
117.199387
 20
58.353622
 30
0.0
  0
VERTEX
  5
43E
330
41F
100
AcDbEntity
  8
0
100
AcDbVertex
100
AcDb2dVertex
 10
118.186211
 20
58.122757
 30
0.0
  0
VERTEX
  5
43F
330
41F
100
AcDbEntity
  8
0
100
AcDbVertex
100
AcDb2dVertex
 10
119.031624
 20
57.967037
 30
0.0
  0
VERTEX
  5
440
330
41F
100
AcDbEntity
  8
0
100
AcDbVertex
100
AcDb2dVertex
 10
119.893692
 20
57.845444
 30
0.0
  0
VERTEX
  5
441
330
41F
100
AcDbEntity
  8
0
100
AcDbVertex
100
AcDb2dVertex
 10
120.768288
 20
57.758541
 30
0.0
  0
VERTEX
  5
442
330
41F
100
AcDbEntity
  8
0
100
AcDbVertex
100
AcDb2dVertex
 10
121.429932
 20
57.716381
 30
0.0
  0
VERTEX
  5
443
330
41F
100
AcDbEntity
  8
0
100
AcDbVertex
100
AcDb2dVertex
 10
122.09449
 20
57.69408
 30
0.0
  0
VERTEX
  5
444
330
41F
100
AcDbEntity
  8
0
100
AcDbVertex
100
AcDb2dVertex
 10
123.404381
 20
57.708393
 30
0.0
  0
VERTEX
  5
445
330
41F
100
AcDbEntity
  8
0
100
AcDbVertex
100
AcDb2dVertex
 10
124.704918
 20
57.799732
 30
0.0
  0
VERTEX
  5
446
330
41F
100
AcDbEntity
  8
0
100
AcDbVertex
100
AcDb2dVertex
 10
125.982491
 20
57.96719
 30
0.0
  0
VERTEX
  5
447
330
41F
100
AcDbEntity
  8
0
100
AcDbVertex
100
AcDb2dVertex
 10
126.60849
 20
58.07896
 30
0.0
  0
VERTEX
  5
448
330
41F
100
AcDbEntity
  8
0
100
AcDbVertex
100
AcDb2dVertex
 10
127.223778
 20
58.209064
 30
0.0
  0
VERTEX
  5
449
330
41F
100
AcDbEntity
  8
0
100
AcDbVertex
100
AcDb2dVertex
 10
128.181946
 20
58.454502
 30
0.0
  0
VERTEX
  5
44A
330
41F
100
AcDbEntity
  8
0
100
AcDbVertex
100
AcDb2dVertex
 10
129.102188
 20
58.74435
 30
0.0
  0
VERTEX
  5
44B
330
41F
100
AcDbEntity
  8
0
100
AcDbVertex
100
AcDb2dVertex
 10
129.978348
 20
59.076641
 30
0.0
  0
VERTEX
  5
44C
330
41F
100
AcDbEntity
  8
0
100
AcDbVertex
100
AcDb2dVertex
 10
130.804642
 20
59.449074
 30
0.0
  0
VERTEX
  5
44D
330
41F
100
AcDbEntity
  8
0
100
AcDbVertex
100
AcDb2dVertex
 10
131.575577
 20
59.859028
 30
0.0
  0
SEQEND
  5
44E
330
41F
100
AcDbEntity
  8
0
 62
     7
  0
POLYLINE
  5
44F
330
166
100
AcDbEntity
  8
0
 62
     7
100
AcDb2dPolyline
 66
     1
 10
0.0
 20
0.0
 30
0.0
  0
VERTEX
  5
450
330
44F
100
AcDbEntity
  8
0
100
AcDbVertex
100
AcDb2dVertex
 10
131.575562
 20
59.859016
 30
0.0
  0
VERTEX
  5
451
330
44F
100
AcDbEntity
  8
0
100
AcDbVertex
100
AcDb2dVertex
 10
131.992554
 20
60.111557
 30
0.0
  0
VERTEX
  5
452
330
44F
100
AcDbEntity
  8
0
100
AcDbVertex
100
AcDb2dVertex
 10
132.388657
 20
60.375149
 30
0.0
  0
VERTEX
  5
453
330
44F
100
AcDbEntity
  8
0
100
AcDbVertex
100
AcDb2dVertex
 10
132.760605
 20
60.647438
 30
0.0
  0
VERTEX
  5
454
330
44F
100
AcDbEntity
  8
0
100
AcDbVertex
100
AcDb2dVertex
 10
133.110138
 20
60.929478
 30
0.0
  0
VERTEX
  5
455
330
44F
100
AcDbEntity
  8
0
100
AcDbVertex
100
AcDb2dVertex
 10
133.541199
 20
61.320904
 30
0.0
  0
VERTEX
  5
456
330
44F
100
AcDbEntity
  8
0
100
AcDbVertex
100
AcDb2dVertex
 10
133.928955
 20
61.727139
 30
0.0
  0
VERTEX
  5
457
330
44F
100
AcDbEntity
  8
0
100
AcDbVertex
100
AcDb2dVertex
 10
134.271835
 20
62.146591
 30
0.0
  0
VERTEX
  5
458
330
44F
100
AcDbEntity
  8
0
100
AcDbVertex
100
AcDb2dVertex
 10
134.635284
 20
62.686985
 30
0.0
  0
VERTEX
  5
459
330
44F
100
AcDbEntity
  8
0
100
AcDbVertex
100
AcDb2dVertex
 10
134.924332
 20
63.242142
 30
0.0
  0
VERTEX
  5
45A
330
44F
100
AcDbEntity
  8
0
100
AcDbVertex
100
AcDb2dVertex
 10
135.137207
 20
63.808662
 30
0.0
  0
VERTEX
  5
45B
330
44F
100
AcDbEntity
  8
0
100
AcDbVertex
100
AcDb2dVertex
 10
135.272659
 20
64.383072
 30
0.0
  0
VERTEX
  5
45C
330
44F
100
AcDbEntity
  8
0
100
AcDbVertex
100
AcDb2dVertex
 10
135.32991
 20
64.961838
 30
0.0
  0
VERTEX
  5
45D
330
44F
100
AcDbEntity
  8
0
100
AcDbVertex
100
AcDb2dVertex
 10
135.308624
 20
65.541428
 30
0.0
  0
VERTEX
  5
45E
330
44F
100
AcDbEntity
  8
0
100
AcDbVertex
100
AcDb2dVertex
 10
135.214432
 20
66.095299
 30
0.0
  0
VERTEX
  5
45F
330
44F
100
AcDbEntity
  8
0
100
AcDbVertex
100
AcDb2dVertex
 10
135.048523
 20
66.643524
 30
0.0
  0
VERTEX
  5
460
330
44F
100
AcDbEntity
  8
0
100
AcDbVertex
100
AcDb2dVertex
 10
134.811813
 20
67.182991
 30
0.0
  0
VERTEX
  5
461
330
44F
100
AcDbEntity
  8
0
100
AcDbVertex
100
AcDb2dVertex
 10
134.50563
 20
67.710655
 30
0.0
  0
VERTEX
  5
462
330
44F
100
AcDbEntity
  8
0
100
AcDbVertex
100
AcDb2dVertex
 10
134.131638
 20
68.223549
 30
0.0
  0
VERTEX
  5
463
330
44F
100
AcDbEntity
  8
0
100
AcDbVertex
100
AcDb2dVertex
 10
133.769684
 20
68.637566
 30
0.0
  0
VERTEX
  5
464
330
44F
100
AcDbEntity
  8
0
100
AcDbVertex
100
AcDb2dVertex
 10
133.363495
 20
69.037682
 30
0.0
  0
VERTEX
  5
465
330
44F
100
AcDbEntity
  8
0
100
AcDbVertex
100
AcDb2dVertex
 10
132.914642
 20
69.422333
 30
0.0
  0
VERTEX
  5
466
330
44F
100
AcDbEntity
  8
0
100
AcDbVertex
100
AcDb2dVertex
 10
132.553879
 20
69.697708
 30
0.0
  0
VERTEX
  5
467
330
44F
100
AcDbEntity
  8
0
100
AcDbVertex
100
AcDb2dVertex
 10
132.171265
 20
69.963089
 30
0.0
  0
VERTEX
  5
468
330
44F
100
AcDbEntity
  8
0
100
AcDbVertex
100
AcDb2dVertex
 10
131.761368
 20
70.22168
 30
0.0
  0
VERTEX
  5
469
330
44F
100
AcDbEntity
  8
0
100
AcDbVertex
100
AcDb2dVertex
 10
131.33075
 20
70.468796
 30
0.0
  0
VERTEX
  5
46A
330
44F
100
AcDbEntity
  8
0
100
AcDbVertex
100
AcDb2dVertex
 10
130.528198
 20
70.873009
 30
0.0
  0
VERTEX
  5
46B
330
44F
100
AcDbEntity
  8
0
100
AcDbVertex
100
AcDb2dVertex
 10
129.670441
 20
71.237389
 30
0.0
  0
VERTEX
  5
46C
330
44F
100
AcDbEntity
  8
0
100
AcDbVertex
100
AcDb2dVertex
 10
128.763351
 20
71.55938
 30
0.0
  0
VERTEX
  5
46D
330
44F
100
AcDbEntity
  8
0
100
AcDbVertex
100
AcDb2dVertex
 10
127.813118
 20
71.836761
 30
0.0
  0
VERTEX
  5
46E
330
44F
100
AcDbEntity
  8
0
100
AcDbVertex
100
AcDb2dVertex
 10
126.826294
 20
72.067627
 30
0.0
  0
VERTEX
  5
46F
330
44F
100
AcDbEntity
  8
0
100
AcDbVertex
100
AcDb2dVertex
 10
125.980881
 20
72.223351
 30
0.0
  0
VERTEX
  5
470
330
44F
100
AcDbEntity
  8
0
100
AcDbVertex
100
AcDb2dVertex
 10
125.118813
 20
72.34494
 30
0.0
  0
VERTEX
  5
471
330
44F
100
AcDbEntity
  8
0
100
AcDbVertex
100
AcDb2dVertex
 10
124.244217
 20
72.431847
 30
0.0
  0
VERTEX
  5
472
330
44F
100
AcDbEntity
  8
0
100
AcDbVertex
100
AcDb2dVertex
 10
123.582573
 20
72.474007
 30
0.0
  0
VERTEX
  5
473
330
44F
100
AcDbEntity
  8
0
100
AcDbVertex
100
AcDb2dVertex
 10
122.918022
 20
72.496307
 30
0.0
  0
VERTEX
  5
474
330
44F
100
AcDbEntity
  8
0
100
AcDbVertex
100
AcDb2dVertex
 10
121.608124
 20
72.481995
 30
0.0
  0
VERTEX
  5
475
330
44F
100
AcDbEntity
  8
0
100
AcDbVertex
100
AcDb2dVertex
 10
120.307594
 20
72.390648
 30
0.0
  0
VERTEX
  5
476
330
44F
100
AcDbEntity
  8
0
100
AcDbVertex
100
AcDb2dVertex
 10
119.030014
 20
72.223198
 30
0.0
  0
VERTEX
  5
477
330
44F
100
AcDbEntity
  8
0
100
AcDbVertex
100
AcDb2dVertex
 10
118.404015
 20
72.11142
 30
0.0
  0
VERTEX
  5
478
330
44F
100
AcDbEntity
  8
0
100
AcDbVertex
100
AcDb2dVertex
 10
117.788734
 20
71.981323
 30
0.0
  0
VERTEX
  5
479
330
44F
100
AcDbEntity
  8
0
100
AcDbVertex
100
AcDb2dVertex
 10
116.830566
 20
71.735886
 30
0.0
  0
VERTEX
  5
47A
330
44F
100
AcDbEntity
  8
0
100
AcDbVertex
100
AcDb2dVertex
 10
115.910324
 20
71.446037
 30
0.0
  0
VERTEX
  5
47B
330
44F
100
AcDbEntity
  8
0
100
AcDbVertex
100
AcDb2dVertex
 10
115.034157
 20
71.113747
 30
0.0
  0
VERTEX
  5
47C
330
44F
100
AcDbEntity
  8
0
100
AcDbVertex
100
AcDb2dVertex
 10
114.20787
 20
70.74131
 30
0.0
  0
VERTEX
  5
47D
330
44F
100
AcDbEntity
  8
0
100
AcDbVertex
100
AcDb2dVertex
 10
113.436935
 20
70.331352
 30
0.0
  0
SEQEND
  5
47E
330
44F
100
AcDbEntity
  8
0
 62
     7
  0
POLYLINE
  5
47F
330
166
100
AcDbEntity
  8
0
 62
     7
100
AcDb2dPolyline
 66
     1
 10
0.0
 20
0.0
 30
0.0
  0
VERTEX
  5
480
330
47F
100
AcDbEntity
  8
0
100
AcDbVertex
100
AcDb2dVertex
 10
71.010544
 20
45.836472
 30
0.0
  0
VERTEX
  5
481
330
47F
100
AcDbEntity
  8
0
100
AcDbVertex
100
AcDb2dVertex
 10
70.593552
 20
45.583931
 30
0.0
  0
VERTEX
  5
482
330
47F
100
AcDbEntity
  8
0
100
AcDbVertex
100
AcDb2dVertex
 10
70.197441
 20
45.320339
 30
0.0
  0
VERTEX
  5
483
330
47F
100
AcDbEntity
  8
0
100
AcDbVertex
100
AcDb2dVertex
 10
69.825493
 20
45.04805
 30
0.0
  0
VERTEX
  5
484
330
47F
100
AcDbEntity
  8
0
100
AcDbVertex
100
AcDb2dVertex
 10
69.475967
 20
44.76601
 30
0.0
  0
VERTEX
  5
485
330
47F
100
AcDbEntity
  8
0
100
AcDbVertex
100
AcDb2dVertex
 10
69.044907
 20
44.374584
 30
0.0
  0
VERTEX
  5
486
330
47F
100
AcDbEntity
  8
0
100
AcDbVertex
100
AcDb2dVertex
 10
68.65715
 20
43.968349
 30
0.0
  0
VERTEX
  5
487
330
47F
100
AcDbEntity
  8
0
100
AcDbVertex
100
AcDb2dVertex
 10
68.31427
 20
43.548897
 30
0.0
  0
VERTEX
  5
488
330
47F
100
AcDbEntity
  8
0
100
AcDbVertex
100
AcDb2dVertex
 10
67.950813
 20
43.008503
 30
0.0
  0
VERTEX
  5
489
330
47F
100
AcDbEntity
  8
0
100
AcDbVertex
100
AcDb2dVertex
 10
67.661774
 20
42.453346
 30
0.0
  0
VERTEX
  5
48A
330
47F
100
AcDbEntity
  8
0
100
AcDbVertex
100
AcDb2dVertex
 10
67.448898
 20
41.886826
 30
0.0
  0
VERTEX
  5
48B
330
47F
100
AcDbEntity
  8
0
100
AcDbVertex
100
AcDb2dVertex
 10
67.313438
 20
41.31242
 30
0.0
  0
VERTEX
  5
48C
330
47F
100
AcDbEntity
  8
0
100
AcDbVertex
100
AcDb2dVertex
 10
67.256195
 20
40.733646
 30
0.0
  0
VERTEX
  5
48D
330
47F
100
AcDbEntity
  8
0
100
AcDbVertex
100
AcDb2dVertex
 10
67.277481
 20
40.15406
 30
0.0
  0
VERTEX
  5
48E
330
47F
100
AcDbEntity
  8
0
100
AcDbVertex
100
AcDb2dVertex
 10
67.371674
 20
39.600185
 30
0.0
  0
VERTEX
  5
48F
330
47F
100
AcDbEntity
  8
0
100
AcDbVertex
100
AcDb2dVertex
 10
67.537582
 20
39.051964
 30
0.0
  0
VERTEX
  5
490
330
47F
100
AcDbEntity
  8
0
100
AcDbVertex
100
AcDb2dVertex
 10
67.774284
 20
38.512497
 30
0.0
  0
VERTEX
  5
491
330
47F
100
AcDbEntity
  8
0
100
AcDbVertex
100
AcDb2dVertex
 10
68.080475
 20
37.984829
 30
0.0
  0
VERTEX
  5
492
330
47F
100
AcDbEntity
  8
0
100
AcDbVertex
100
AcDb2dVertex
 10
68.45446
 20
37.471943
 30
0.0
  0
VERTEX
  5
493
330
47F
100
AcDbEntity
  8
0
100
AcDbVertex
100
AcDb2dVertex
 10
68.816414
 20
37.057922
 30
0.0
  0
VERTEX
  5
494
330
47F
100
AcDbEntity
  8
0
100
AcDbVertex
100
AcDb2dVertex
 10
69.22261
 20
36.657803
 30
0.0
  0
VERTEX
  5
495
330
47F
100
AcDbEntity
  8
0
100
AcDbVertex
100
AcDb2dVertex
 10
69.671463
 20
36.273155
 30
0.0
  0
VERTEX
  5
496
330
47F
100
AcDbEntity
  8
0
100
AcDbVertex
100
AcDb2dVertex
 10
70.032219
 20
35.997776
 30
0.0
  0
VERTEX
  5
497
330
47F
100
AcDbEntity
  8
0
100
AcDbVertex
100
AcDb2dVertex
 10
70.414833
 20
35.732395
 30
0.0
  0
VERTEX
  5
498
330
47F
100
AcDbEntity
  8
0
100
AcDbVertex
100
AcDb2dVertex
 10
70.824738
 20
35.473812
 30
0.0
  0
VERTEX
  5
499
330
47F
100
AcDbEntity
  8
0
100
AcDbVertex
100
AcDb2dVertex
 10
71.255356
 20
35.226692
 30
0.0
  0
VERTEX
  5
49A
330
47F
100
AcDbEntity
  8
0
100
AcDbVertex
100
AcDb2dVertex
 10
72.057907
 20
34.822479
 30
0.0
  0
VERTEX
  5
49B
330
47F
100
AcDbEntity
  8
0
100
AcDbVertex
100
AcDb2dVertex
 10
72.915657
 20
34.458099
 30
0.0
  0
VERTEX
  5
49C
330
47F
100
AcDbEntity
  8
0
100
AcDbVertex
100
AcDb2dVertex
 10
73.822754
 20
34.136105
 30
0.0
  0
VERTEX
  5
49D
330
47F
100
AcDbEntity
  8
0
100
AcDbVertex
100
AcDb2dVertex
 10
74.77298
 20
33.858727
 30
0.0
  0
VERTEX
  5
49E
330
47F
100
AcDbEntity
  8
0
100
AcDbVertex
100
AcDb2dVertex
 10
75.759804
 20
33.627857
 30
0.0
  0
VERTEX
  5
49F
330
47F
100
AcDbEntity
  8
0
100
AcDbVertex
100
AcDb2dVertex
 10
76.605217
 20
33.472141
 30
0.0
  0
VERTEX
  5
4A0
330
47F
100
AcDbEntity
  8
0
100
AcDbVertex
100
AcDb2dVertex
 10
77.467285
 20
33.350544
 30
0.0
  0
VERTEX
  5
4A1
330
47F
100
AcDbEntity
  8
0
100
AcDbVertex
100
AcDb2dVertex
 10
78.341881
 20
33.263641
 30
0.0
  0
VERTEX
  5
4A2
330
47F
100
AcDbEntity
  8
0
100
AcDbVertex
100
AcDb2dVertex
 10
79.003525
 20
33.221485
 30
0.0
  0
VERTEX
  5
4A3
330
47F
100
AcDbEntity
  8
0
100
AcDbVertex
100
AcDb2dVertex
 10
79.668083
 20
33.199184
 30
0.0
  0
VERTEX
  5
4A4
330
47F
100
AcDbEntity
  8
0
100
AcDbVertex
100
AcDb2dVertex
 10
80.977974
 20
33.213497
 30
0.0
  0
VERTEX
  5
4A5
330
47F
100
AcDbEntity
  8
0
100
AcDbVertex
100
AcDb2dVertex
 10
82.278511
 20
33.304836
 30
0.0
  0
VERTEX
  5
4A6
330
47F
100
AcDbEntity
  8
0
100
AcDbVertex
100
AcDb2dVertex
 10
83.556084
 20
33.472294
 30
0.0
  0
VERTEX
  5
4A7
330
47F
100
AcDbEntity
  8
0
100
AcDbVertex
100
AcDb2dVertex
 10
84.182083
 20
33.584064
 30
0.0
  0
VERTEX
  5
4A8
330
47F
100
AcDbEntity
  8
0
100
AcDbVertex
100
AcDb2dVertex
 10
84.797371
 20
33.714169
 30
0.0
  0
VERTEX
  5
4A9
330
47F
100
AcDbEntity
  8
0
100
AcDbVertex
100
AcDb2dVertex
 10
85.755539
 20
33.959606
 30
0.0
  0
VERTEX
  5
4AA
330
47F
100
AcDbEntity
  8
0
100
AcDbVertex
100
AcDb2dVertex
 10
86.675774
 20
34.249451
 30
0.0
  0
VERTEX
  5
4AB
330
47F
100
AcDbEntity
  8
0
100
AcDbVertex
100
AcDb2dVertex
 10
87.551949
 20
34.581741
 30
0.0
  0
VERTEX
  5
4AC
330
47F
100
AcDbEntity
  8
0
100
AcDbVertex
100
AcDb2dVertex
 10
88.378235
 20
34.954178
 30
0.0
  0
VERTEX
  5
4AD
330
47F
100
AcDbEntity
  8
0
100
AcDbVertex
100
AcDb2dVertex
 10
89.14917
 20
35.364132
 30
0.0
  0
SEQEND
  5
4AE
330
47F
100
AcDbEntity
  8
0
 62
     7
  0
POLYLINE
  5
4AF
330
166
100
AcDbEntity
  8
0
 62
     7
100
AcDb2dPolyline
 66
     1
 10
0.0
 20
0.0
 30
0.0
  0
VERTEX
  5
4B0
330
4AF
100
AcDbEntity
  8
0
100
AcDbVertex
100
AcDb2dVertex
 10
89.149147
 20
35.36412
 30
0.0
  0
VERTEX
  5
4B1
330
4AF
100
AcDbEntity
  8
0
100
AcDbVertex
100
AcDb2dVertex
 10
89.566147
 20
35.616657
 30
0.0
  0
VERTEX
  5
4B2
330
4AF
100
AcDbEntity
  8
0
100
AcDbVertex
100
AcDb2dVertex
 10
89.96225
 20
35.880253
 30
0.0
  0
VERTEX
  5
4B3
330
4AF
100
AcDbEntity
  8
0
100
AcDbVertex
100
AcDb2dVertex
 10
90.334206
 20
36.152542
 30
0.0
  0
VERTEX
  5
4B4
330
4AF
100
AcDbEntity
  8
0
100
AcDbVertex
100
AcDb2dVertex
 10
90.683723
 20
36.434582
 30
0.0
  0
VERTEX
  5
4B5
330
4AF
100
AcDbEntity
  8
0
100
AcDbVertex
100
AcDb2dVertex
 10
91.114792
 20
36.826008
 30
0.0
  0
VERTEX
  5
4B6
330
4AF
100
AcDbEntity
  8
0
100
AcDbVertex
100
AcDb2dVertex
 10
91.502541
 20
37.232243
 30
0.0
  0
VERTEX
  5
4B7
330
4AF
100
AcDbEntity
  8
0
100
AcDbVertex
100
AcDb2dVertex
 10
91.845421
 20
37.651695
 30
0.0
  0
VERTEX
  5
4B8
330
4AF
100
AcDbEntity
  8
0
100
AcDbVertex
100
AcDb2dVertex
 10
92.208885
 20
38.192089
 30
0.0
  0
VERTEX
  5
4B9
330
4AF
100
AcDbEntity
  8
0
100
AcDbVertex
100
AcDb2dVertex
 10
92.497925
 20
38.747246
 30
0.0
  0
VERTEX
  5
4BA
330
4AF
100
AcDbEntity
  8
0
100
AcDbVertex
100
AcDb2dVertex
 10
92.7108
 20
39.313766
 30
0.0
  0
VERTEX
  5
4BB
330
4AF
100
AcDbEntity
  8
0
100
AcDbVertex
100
AcDb2dVertex
 10
92.846252
 20
39.888172
 30
0.0
  0
VERTEX
  5
4BC
330
4AF
100
AcDbEntity
  8
0
100
AcDbVertex
100
AcDb2dVertex
 10
92.903496
 20
40.466942
 30
0.0
  0
VERTEX
  5
4BD
330
4AF
100
AcDbEntity
  8
0
100
AcDbVertex
100
AcDb2dVertex
 10
92.88221
 20
41.046532
 30
0.0
  0
VERTEX
  5
4BE
330
4AF
100
AcDbEntity
  8
0
100
AcDbVertex
100
AcDb2dVertex
 10
92.788017
 20
41.600403
 30
0.0
  0
VERTEX
  5
4BF
330
4AF
100
AcDbEntity
  8
0
100
AcDbVertex
100
AcDb2dVertex
 10
92.622116
 20
42.148624
 30
0.0
  0
VERTEX
  5
4C0
330
4AF
100
AcDbEntity
  8
0
100
AcDbVertex
100
AcDb2dVertex
 10
92.385414
 20
42.688095
 30
0.0
  0
VERTEX
  5
4C1
330
4AF
100
AcDbEntity
  8
0
100
AcDbVertex
100
AcDb2dVertex
 10
92.079224
 20
43.215763
 30
0.0
  0
VERTEX
  5
4C2
330
4AF
100
AcDbEntity
  8
0
100
AcDbVertex
100
AcDb2dVertex
 10
91.705238
 20
43.728649
 30
0.0
  0
VERTEX
  5
4C3
330
4AF
100
AcDbEntity
  8
0
100
AcDbVertex
100
AcDb2dVertex
 10
91.343277
 20
44.14267
 30
0.0
  0
VERTEX
  5
4C4
330
4AF
100
AcDbEntity
  8
0
100
AcDbVertex
100
AcDb2dVertex
 10
90.93708
 20
44.542786
 30
0.0
  0
VERTEX
  5
4C5
330
4AF
100
AcDbEntity
  8
0
100
AcDbVertex
100
AcDb2dVertex
 10
90.488235
 20
44.927437
 30
0.0
  0
VERTEX
  5
4C6
330
4AF
100
AcDbEntity
  8
0
100
AcDbVertex
100
AcDb2dVertex
 10
90.12748
 20
45.202816
 30
0.0
  0
VERTEX
  5
4C7
330
4AF
100
AcDbEntity
  8
0
100
AcDbVertex
100
AcDb2dVertex
 10
89.744858
 20
45.468193
 30
0.0
  0
VERTEX
  5
4C8
330
4AF
100
AcDbEntity
  8
0
100
AcDbVertex
100
AcDb2dVertex
 10
89.334953
 20
45.72678
 30
0.0
  0
VERTEX
  5
4C9
330
4AF
100
AcDbEntity
  8
0
100
AcDbVertex
100
AcDb2dVertex
 10
88.904343
 20
45.9739
 30
0.0
  0
VERTEX
  5
4CA
330
4AF
100
AcDbEntity
  8
0
100
AcDbVertex
100
AcDb2dVertex
 10
88.101784
 20
46.378113
 30
0.0
  0
VERTEX
  5
4CB
330
4AF
100
AcDbEntity
  8
0
100
AcDbVertex
100
AcDb2dVertex
 10
87.244034
 20
46.742493
 30
0.0
  0
VERTEX
  5
4CC
330
4AF
100
AcDbEntity
  8
0
100
AcDbVertex
100
AcDb2dVertex
 10
86.336937
 20
47.064487
 30
0.0
  0
VERTEX
  5
4CD
330
4AF
100
AcDbEntity
  8
0
100
AcDbVertex
100
AcDb2dVertex
 10
85.386711
 20
47.341866
 30
0.0
  0
VERTEX
  5
4CE
330
4AF
100
AcDbEntity
  8
0
100
AcDbVertex
100
AcDb2dVertex
 10
84.399887
 20
47.572731
 30
0.0
  0
VERTEX
  5
4CF
330
4AF
100
AcDbEntity
  8
0
100
AcDbVertex
100
AcDb2dVertex
 10
83.554474
 20
47.728451
 30
0.0
  0
VERTEX
  5
4D0
330
4AF
100
AcDbEntity
  8
0
100
AcDbVertex
100
AcDb2dVertex
 10
82.692406
 20
47.850044
 30
0.0
  0
VERTEX
  5
4D1
330
4AF
100
AcDbEntity
  8
0
100
AcDbVertex
100
AcDb2dVertex
 10
81.81781
 20
47.936947
 30
0.0
  0
VERTEX
  5
4D2
330
4AF
100
AcDbEntity
  8
0
100
AcDbVertex
100
AcDb2dVertex
 10
81.156166
 20
47.979107
 30
0.0
  0
VERTEX
  5
4D3
330
4AF
100
AcDbEntity
  8
0
100
AcDbVertex
100
AcDb2dVertex
 10
80.491615
 20
48.001408
 30
0.0
  0
VERTEX
  5
4D4
330
4AF
100
AcDbEntity
  8
0
100
AcDbVertex
100
AcDb2dVertex
 10
79.181717
 20
47.987095
 30
0.0
  0
VERTEX
  5
4D5
330
4AF
100
AcDbEntity
  8
0
100
AcDbVertex
100
AcDb2dVertex
 10
77.881187
 20
47.895756
 30
0.0
  0
VERTEX
  5
4D6
330
4AF
100
AcDbEntity
  8
0
100
AcDbVertex
100
AcDb2dVertex
 10
76.603607
 20
47.728298
 30
0.0
  0
VERTEX
  5
4D7
330
4AF
100
AcDbEntity
  8
0
100
AcDbVertex
100
AcDb2dVertex
 10
75.977608
 20
47.616524
 30
0.0
  0
VERTEX
  5
4D8
330
4AF
100
AcDbEntity
  8
0
100
AcDbVertex
100
AcDb2dVertex
 10
75.362328
 20
47.486423
 30
0.0
  0
VERTEX
  5
4D9
330
4AF
100
AcDbEntity
  8
0
100
AcDbVertex
100
AcDb2dVertex
 10
74.40416
 20
47.240986
 30
0.0
  0
VERTEX
  5
4DA
330
4AF
100
AcDbEntity
  8
0
100
AcDbVertex
100
AcDb2dVertex
 10
73.483917
 20
46.951138
 30
0.0
  0
VERTEX
  5
4DB
330
4AF
100
AcDbEntity
  8
0
100
AcDbVertex
100
AcDb2dVertex
 10
72.60775
 20
46.618847
 30
0.0
  0
VERTEX
  5
4DC
330
4AF
100
AcDbEntity
  8
0
100
AcDbVertex
100
AcDb2dVertex
 10
71.781464
 20
46.24641
 30
0.0
  0
VERTEX
  5
4DD
330
4AF
100
AcDbEntity
  8
0
100
AcDbVertex
100
AcDb2dVertex
 10
71.010529
 20
45.83646
 30
0.0
  0
SEQEND
  5
4DE
330
4AF
100
AcDbEntity
  8
0
 62
     7
  0
POLYLINE
  5
4DF
330
166
100
AcDbEntity
  8
0
 62
     7
100
AcDb2dPolyline
 66
     1
 10
0.0
 20
0.0
 30
0.0
  0
VERTEX
  5
4E0
330
4DF
100
AcDbEntity
  8
0
100
AcDbVertex
100
AcDb2dVertex
 10
28.584141
 20
21.341574
 30
0.0
  0
VERTEX
  5
4E1
330
4DF
100
AcDbEntity
  8
0
100
AcDbVertex
100
AcDb2dVertex
 10
28.167143
 20
21.089035
 30
0.0
  0
VERTEX
  5
4E2
330
4DF
100
AcDbEntity
  8
0
100
AcDbVertex
100
AcDb2dVertex
 10
27.771038
 20
20.825441
 30
0.0
  0
VERTEX
  5
4E3
330
4DF
100
AcDbEntity
  8
0
100
AcDbVertex
100
AcDb2dVertex
 10
27.399084
 20
20.553152
 30
0.0
  0
VERTEX
  5
4E4
330
4DF
100
AcDbEntity
  8
0
100
AcDbVertex
100
AcDb2dVertex
 10
27.049562
 20
20.271112
 30
0.0
  0
VERTEX
  5
4E5
330
4DF
100
AcDbEntity
  8
0
100
AcDbVertex
100
AcDb2dVertex
 10
26.618496
 20
19.879686
 30
0.0
  0
VERTEX
  5
4E6
330
4DF
100
AcDbEntity
  8
0
100
AcDbVertex
100
AcDb2dVertex
 10
26.230745
 20
19.47345
 30
0.0
  0
VERTEX
  5
4E7
330
4DF
100
AcDbEntity
  8
0
100
AcDbVertex
100
AcDb2dVertex
 10
25.887863
 20
19.053997
 30
0.0
  0
VERTEX
  5
4E8
330
4DF
100
AcDbEntity
  8
0
100
AcDbVertex
100
AcDb2dVertex
 10
25.524403
 20
18.513605
 30
0.0
  0
VERTEX
  5
4E9
330
4DF
100
AcDbEntity
  8
0
100
AcDbVertex
100
AcDb2dVertex
 10
25.235367
 20
17.958447
 30
0.0
  0
VERTEX
  5
4EA
330
4DF
100
AcDbEntity
  8
0
100
AcDbVertex
100
AcDb2dVertex
 10
25.02249
 20
17.391928
 30
0.0
  0
VERTEX
  5
4EB
330
4DF
100
AcDbEntity
  8
0
100
AcDbVertex
100
AcDb2dVertex
 10
24.887033
 20
16.817522
 30
0.0
  0
VERTEX
  5
4EC
330
4DF
100
AcDbEntity
  8
0
100
AcDbVertex
100
AcDb2dVertex
 10
24.82979
 20
16.23875
 30
0.0
  0
VERTEX
  5
4ED
330
4DF
100
AcDbEntity
  8
0
100
AcDbVertex
100
AcDb2dVertex
 10
24.851078
 20
15.659162
 30
0.0
  0
VERTEX
  5
4EE
330
4DF
100
AcDbEntity
  8
0
100
AcDbVertex
100
AcDb2dVertex
 10
24.945269
 20
15.105289
 30
0.0
  0
VERTEX
  5
4EF
330
4DF
100
AcDbEntity
  8
0
100
AcDbVertex
100
AcDb2dVertex
 10
25.111174
 20
14.557068
 30
0.0
  0
VERTEX
  5
4F0
330
4DF
100
AcDbEntity
  8
0
100
AcDbVertex
100
AcDb2dVertex
 10
25.347876
 20
14.017599
 30
0.0
  0
VERTEX
  5
4F1
330
4DF
100
AcDbEntity
  8
0
100
AcDbVertex
100
AcDb2dVertex
 10
25.654066
 20
13.489931
 30
0.0
  0
VERTEX
  5
4F2
330
4DF
100
AcDbEntity
  8
0
100
AcDbVertex
100
AcDb2dVertex
 10
26.028051
 20
12.977045
 30
0.0
  0
VERTEX
  5
4F3
330
4DF
100
AcDbEntity
  8
0
100
AcDbVertex
100
AcDb2dVertex
 10
26.390007
 20
12.563025
 30
0.0
  0
VERTEX
  5
4F4
330
4DF
100
AcDbEntity
  8
0
100
AcDbVertex
100
AcDb2dVertex
 10
26.796204
 20
12.162907
 30
0.0
  0
VERTEX
  5
4F5
330
4DF
100
AcDbEntity
  8
0
100
AcDbVertex
100
AcDb2dVertex
 10
27.245054
 20
11.778257
 30
0.0
  0
VERTEX
  5
4F6
330
4DF
100
AcDbEntity
  8
0
100
AcDbVertex
100
AcDb2dVertex
 10
27.605808
 20
11.502878
 30
0.0
  0
VERTEX
  5
4F7
330
4DF
100
AcDbEntity
  8
0
100
AcDbVertex
100
AcDb2dVertex
 10
27.988426
 20
11.237499
 30
0.0
  0
VERTEX
  5
4F8
330
4DF
100
AcDbEntity
  8
0
100
AcDbVertex
100
AcDb2dVertex
 10
28.398333
 20
10.978913
 30
0.0
  0
VERTEX
  5
4F9
330
4DF
100
AcDbEntity
  8
0
100
AcDbVertex
100
AcDb2dVertex
 10
28.828949
 20
10.731793
 30
0.0
  0
VERTEX
  5
4FA
330
4DF
100
AcDbEntity
  8
0
100
AcDbVertex
100
AcDb2dVertex
 10
29.631502
 20
10.327581
 30
0.0
  0
VERTEX
  5
4FB
330
4DF
100
AcDbEntity
  8
0
100
AcDbVertex
100
AcDb2dVertex
 10
30.489252
 20
9.963201
 30
0.0
  0
VERTEX
  5
4FC
330
4DF
100
AcDbEntity
  8
0
100
AcDbVertex
100
AcDb2dVertex
 10
31.396349
 20
9.641207
 30
0.0
  0
VERTEX
  5
4FD
330
4DF
100
AcDbEntity
  8
0
100
AcDbVertex
100
AcDb2dVertex
 10
32.346573
 20
9.363828
 30
0.0
  0
VERTEX
  5
4FE
330
4DF
100
AcDbEntity
  8
0
100
AcDbVertex
100
AcDb2dVertex
 10
33.333397
 20
9.132961
 30
0.0
  0
VERTEX
  5
4FF
330
4DF
100
AcDbEntity
  8
0
100
AcDbVertex
100
AcDb2dVertex
 10
34.178814
 20
8.977242
 30
0.0
  0
VERTEX
  5
500
330
4DF
100
AcDbEntity
  8
0
100
AcDbVertex
100
AcDb2dVertex
 10
35.040882
 20
8.855647
 30
0.0
  0
VERTEX
  5
501
330
4DF
100
AcDbEntity
  8
0
100
AcDbVertex
100
AcDb2dVertex
 10
35.915474
 20
8.768744
 30
0.0
  0
VERTEX
  5
502
330
4DF
100
AcDbEntity
  8
0
100
AcDbVertex
100
AcDb2dVertex
 10
36.577122
 20
8.726586
 30
0.0
  0
VERTEX
  5
503
330
4DF
100
AcDbEntity
  8
0
100
AcDbVertex
100
AcDb2dVertex
 10
37.241673
 20
8.704286
 30
0.0
  0
VERTEX
  5
504
330
4DF
100
AcDbEntity
  8
0
100
AcDbVertex
100
AcDb2dVertex
 10
38.551571
 20
8.718598
 30
0.0
  0
VERTEX
  5
505
330
4DF
100
AcDbEntity
  8
0
100
AcDbVertex
100
AcDb2dVertex
 10
39.8521
 20
8.809938
 30
0.0
  0
VERTEX
  5
506
330
4DF
100
AcDbEntity
  8
0
100
AcDbVertex
100
AcDb2dVertex
 10
41.129681
 20
8.977395
 30
0.0
  0
VERTEX
  5
507
330
4DF
100
AcDbEntity
  8
0
100
AcDbVertex
100
AcDb2dVertex
 10
41.75568
 20
9.089168
 30
0.0
  0
VERTEX
  5
508
330
4DF
100
AcDbEntity
  8
0
100
AcDbVertex
100
AcDb2dVertex
 10
42.37096
 20
9.219271
 30
0.0
  0
VERTEX
  5
509
330
4DF
100
AcDbEntity
  8
0
100
AcDbVertex
100
AcDb2dVertex
 10
43.329132
 20
9.464707
 30
0.0
  0
VERTEX
  5
50A
330
4DF
100
AcDbEntity
  8
0
100
AcDbVertex
100
AcDb2dVertex
 10
44.249367
 20
9.754555
 30
0.0
  0
VERTEX
  5
50B
330
4DF
100
AcDbEntity
  8
0
100
AcDbVertex
100
AcDb2dVertex
 10
45.125542
 20
10.086845
 30
0.0
  0
VERTEX
  5
50C
330
4DF
100
AcDbEntity
  8
0
100
AcDbVertex
100
AcDb2dVertex
 10
45.951828
 20
10.459281
 30
0.0
  0
VERTEX
  5
50D
330
4DF
100
AcDbEntity
  8
0
100
AcDbVertex
100
AcDb2dVertex
 10
46.722763
 20
10.869234
 30
0.0
  0
SEQEND
  5
50E
330
4DF
100
AcDbEntity
  8
0
 62
     7
  0
POLYLINE
  5
50F
330
166
100
AcDbEntity
  8
0
 62
     7
100
AcDb2dPolyline
 66
     1
 10
0.0
 20
0.0
 30
0.0
  0
VERTEX
  5
510
330
50F
100
AcDbEntity
  8
0
100
AcDbVertex
100
AcDb2dVertex
 10
46.72274
 20
10.869223
 30
0.0
  0
VERTEX
  5
511
330
50F
100
AcDbEntity
  8
0
100
AcDbVertex
100
AcDb2dVertex
 10
47.13974
 20
11.121761
 30
0.0
  0
VERTEX
  5
512
330
50F
100
AcDbEntity
  8
0
100
AcDbVertex
100
AcDb2dVertex
 10
47.535843
 20
11.385354
 30
0.0
  0
VERTEX
  5
513
330
50F
100
AcDbEntity
  8
0
100
AcDbVertex
100
AcDb2dVertex
 10
47.907795
 20
11.657643
 30
0.0
  0
VERTEX
  5
514
330
50F
100
AcDbEntity
  8
0
100
AcDbVertex
100
AcDb2dVertex
 10
48.25732
 20
11.939683
 30
0.0
  0
VERTEX
  5
515
330
50F
100
AcDbEntity
  8
0
100
AcDbVertex
100
AcDb2dVertex
 10
48.688385
 20
12.331109
 30
0.0
  0
VERTEX
  5
516
330
50F
100
AcDbEntity
  8
0
100
AcDbVertex
100
AcDb2dVertex
 10
49.076138
 20
12.737345
 30
0.0
  0
VERTEX
  5
517
330
50F
100
AcDbEntity
  8
0
100
AcDbVertex
100
AcDb2dVertex
 10
49.419018
 20
13.156797
 30
0.0
  0
VERTEX
  5
518
330
50F
100
AcDbEntity
  8
0
100
AcDbVertex
100
AcDb2dVertex
 10
49.782478
 20
13.69719
 30
0.0
  0
VERTEX
  5
519
330
50F
100
AcDbEntity
  8
0
100
AcDbVertex
100
AcDb2dVertex
 10
50.071514
 20
14.252348
 30
0.0
  0
VERTEX
  5
51A
330
50F
100
AcDbEntity
  8
0
100
AcDbVertex
100
AcDb2dVertex
 10
50.284393
 20
14.818868
 30
0.0
  0
VERTEX
  5
51B
330
50F
100
AcDbEntity
  8
0
100
AcDbVertex
100
AcDb2dVertex
 10
50.419846
 20
15.393274
 30
0.0
  0
VERTEX
  5
51C
330
50F
100
AcDbEntity
  8
0
100
AcDbVertex
100
AcDb2dVertex
 10
50.477093
 20
15.972046
 30
0.0
  0
VERTEX
  5
51D
330
50F
100
AcDbEntity
  8
0
100
AcDbVertex
100
AcDb2dVertex
 10
50.455803
 20
16.551634
 30
0.0
  0
VERTEX
  5
51E
330
50F
100
AcDbEntity
  8
0
100
AcDbVertex
100
AcDb2dVertex
 10
50.361614
 20
17.105507
 30
0.0
  0
VERTEX
  5
51F
330
50F
100
AcDbEntity
  8
0
100
AcDbVertex
100
AcDb2dVertex
 10
50.195709
 20
17.653727
 30
0.0
  0
VERTEX
  5
520
330
50F
100
AcDbEntity
  8
0
100
AcDbVertex
100
AcDb2dVertex
 10
49.959007
 20
18.193195
 30
0.0
  0
VERTEX
  5
521
330
50F
100
AcDbEntity
  8
0
100
AcDbVertex
100
AcDb2dVertex
 10
49.652817
 20
18.720863
 30
0.0
  0
VERTEX
  5
522
330
50F
100
AcDbEntity
  8
0
100
AcDbVertex
100
AcDb2dVertex
 10
49.278828
 20
19.233749
 30
0.0
  0
VERTEX
  5
523
330
50F
100
AcDbEntity
  8
0
100
AcDbVertex
100
AcDb2dVertex
 10
48.916874
 20
19.64777
 30
0.0
  0
VERTEX
  5
524
330
50F
100
AcDbEntity
  8
0
100
AcDbVertex
100
AcDb2dVertex
 10
48.510677
 20
20.047888
 30
0.0
  0
VERTEX
  5
525
330
50F
100
AcDbEntity
  8
0
100
AcDbVertex
100
AcDb2dVertex
 10
48.061825
 20
20.432537
 30
0.0
  0
VERTEX
  5
526
330
50F
100
AcDbEntity
  8
0
100
AcDbVertex
100
AcDb2dVertex
 10
47.701073
 20
20.707916
 30
0.0
  0
VERTEX
  5
527
330
50F
100
AcDbEntity
  8
0
100
AcDbVertex
100
AcDb2dVertex
 10
47.318455
 20
20.973295
 30
0.0
  0
VERTEX
  5
528
330
50F
100
AcDbEntity
  8
0
100
AcDbVertex
100
AcDb2dVertex
 10
46.908546
 20
21.231882
 30
0.0
  0
VERTEX
  5
529
330
50F
100
AcDbEntity
  8
0
100
AcDbVertex
100
AcDb2dVertex
 10
46.477932
 20
21.479002
 30
0.0
  0
VERTEX
  5
52A
330
50F
100
AcDbEntity
  8
0
100
AcDbVertex
100
AcDb2dVertex
 10
45.675377
 20
21.883215
 30
0.0
  0
VERTEX
  5
52B
330
50F
100
AcDbEntity
  8
0
100
AcDbVertex
100
AcDb2dVertex
 10
44.817627
 20
22.247595
 30
0.0
  0
VERTEX
  5
52C
330
50F
100
AcDbEntity
  8
0
100
AcDbVertex
100
AcDb2dVertex
 10
43.910534
 20
22.569588
 30
0.0
  0
VERTEX
  5
52D
330
50F
100
AcDbEntity
  8
0
100
AcDbVertex
100
AcDb2dVertex
 10
42.960308
 20
22.846968
 30
0.0
  0
VERTEX
  5
52E
330
50F
100
AcDbEntity
  8
0
100
AcDbVertex
100
AcDb2dVertex
 10
41.973484
 20
23.077835
 30
0.0
  0
VERTEX
  5
52F
330
50F
100
AcDbEntity
  8
0
100
AcDbVertex
100
AcDb2dVertex
 10
41.128071
 20
23.233553
 30
0.0
  0
VERTEX
  5
530
330
50F
100
AcDbEntity
  8
0
100
AcDbVertex
100
AcDb2dVertex
 10
40.265999
 20
23.355148
 30
0.0
  0
VERTEX
  5
531
330
50F
100
AcDbEntity
  8
0
100
AcDbVertex
100
AcDb2dVertex
 10
39.391407
 20
23.442051
 30
0.0
  0
VERTEX
  5
532
330
50F
100
AcDbEntity
  8
0
100
AcDbVertex
100
AcDb2dVertex
 10
38.729759
 20
23.484209
 30
0.0
  0
VERTEX
  5
533
330
50F
100
AcDbEntity
  8
0
100
AcDbVertex
100
AcDb2dVertex
 10
38.065208
 20
23.50651
 30
0.0
  0
VERTEX
  5
534
330
50F
100
AcDbEntity
  8
0
100
AcDbVertex
100
AcDb2dVertex
 10
36.75531
 20
23.492197
 30
0.0
  0
VERTEX
  5
535
330
50F
100
AcDbEntity
  8
0
100
AcDbVertex
100
AcDb2dVertex
 10
35.454781
 20
23.400856
 30
0.0
  0
VERTEX
  5
536
330
50F
100
AcDbEntity
  8
0
100
AcDbVertex
100
AcDb2dVertex
 10
34.1772
 20
23.2334
 30
0.0
  0
VERTEX
  5
537
330
50F
100
AcDbEntity
  8
0
100
AcDbVertex
100
AcDb2dVertex
 10
33.551205
 20
23.121628
 30
0.0
  0
VERTEX
  5
538
330
50F
100
AcDbEntity
  8
0
100
AcDbVertex
100
AcDb2dVertex
 10
32.935921
 20
22.991524
 30
0.0
  0
VERTEX
  5
539
330
50F
100
AcDbEntity
  8
0
100
AcDbVertex
100
AcDb2dVertex
 10
31.977751
 20
22.746088
 30
0.0
  0
VERTEX
  5
53A
330
50F
100
AcDbEntity
  8
0
100
AcDbVertex
100
AcDb2dVertex
 10
31.057512
 20
22.45624
 30
0.0
  0
VERTEX
  5
53B
330
50F
100
AcDbEntity
  8
0
100
AcDbVertex
100
AcDb2dVertex
 10
30.181339
 20
22.123951
 30
0.0
  0
VERTEX
  5
53C
330
50F
100
AcDbEntity
  8
0
100
AcDbVertex
100
AcDb2dVertex
 10
29.355055
 20
21.751514
 30
0.0
  0
VERTEX
  5
53D
330
50F
100
AcDbEntity
  8
0
100
AcDbVertex
100
AcDb2dVertex
 10
28.58412
 20
21.34156
 30
0.0
  0
SEQEND
  5
53E
330
50F
100
AcDbEntity
  8
0
 62
     7
  0
LINE
  5
53F
330
166
100
AcDbEntity
  8
0
 62
     7
100
AcDbLine
 10
142.004724
 20
78.553633
 30
0.0
 11
138.192491
 21
76.352639
 31
0.0
  0
LINE
  5
540
330
166
100
AcDbEntity
  8
0
 62
     7
100
AcDbLine
 10
138.192491
 20
76.352639
 30
0.0
 11
142.004724
 21
74.151646
 31
0.0
  0
LINE
  5
541
330
166
100
AcDbEntity
  8
0
 62
     7
100
AcDbLine
 10
142.004724
 20
74.151646
 30
0.0
 11
145.816957
 21
76.352639
 31
0.0
  0
LINE
  5
542
330
166
100
AcDbEntity
  8
0
 62
     7
100
AcDbLine
 10
145.816957
 20
76.352639
 30
0.0
 11
142.004724
 21
78.553633
 31
0.0
  0
LINE
  5
543
330
166
100
AcDbEntity
  8
0
 62
     7
100
AcDbLine
 10
-3.867503
 20
7.540101
 30
0.0
 11
-3.836595
 21
9.584936
 31
0.0
  0
LINE
  5
544
330
166
100
AcDbEntity
  8
0
 62
     7
100
AcDbLine
 10
-3.870561
 20
7.541897
 30
0.0
 11
20.699703
 21
-6.643751
 31
0.0
  0
LINE
  5
545
330
166
100
AcDbEntity
  8
0
 62
     7
100
AcDbLine
 10
20.696644
 20
-4.579337
 30
0.0
 11
20.696644
 21
-6.642016
 31
0.0
  0
LINE
  5
546
330
166
100
AcDbEntity
  8
0
 62
     7
100
AcDbLine
 10
-3.836595
 20
9.584936
 30
0.0
 11
20.696644
 21
-4.579337
 31
0.0
  0
LINE
  5
547
330
166
100
AcDbEntity
  8
0
 62
     7
100
AcDbLine
 10
159.627659
 20
73.566342
 30
0.0
 11
157.974977
 21
74.520518
 31
0.0
  0
LINE
  5
548
330
166
100
AcDbEntity
  8
0
 62
     7
100
AcDbLine
 10
159.627659
 20
73.566342
 30
0.0
 11
158.01755
 21
72.636745
 31
0.0
  0
LINE
  5
549
330
166
100
AcDbEntity
  8
0
 62
     7
100
AcDbLine
 10
20.699703
 20
-6.643751
 30
0.0
 11
18.950462
 21
-7.653676
 31
0.0
  0
LINE
  5
54A
330
166
100
AcDbEntity
  8
0
 62
     7
100
AcDbLine
 10
18.950462
 20
-7.653676
 30
0.0
 11
-5.619802
 21
6.531973
 31
0.0
  0
LINE
  5
54B
330
166
100
AcDbEntity
  8
0
 62
     7
100
AcDbLine
 10
-5.619802
 20
6.531973
 30
0.0
 11
-3.870561
 21
7.541897
 31
0.0
  0
LINE
  5
54C
330
166
100
AcDbEntity
  8
0
 62
     7
100
AcDbLine
 10
-5.973342
 20
5.923171
 30
0.0
 11
-6.010421
 21
3.470118
 31
0.0
  0
LINE
  5
54D
330
166
100
AcDbEntity
  8
0
 62
     7
100
AcDbLine
 10
-6.010421
 20
3.470118
 30
0.0
 11
18.596922
 21
-10.736938
 31
0.0
  0
LINE
  5
54E
330
166
100
AcDbEntity
  8
0
 62
     7
100
AcDbLine
 10
18.596922
 20
-10.736938
 30
0.0
 11
18.596922
 21
-8.262478
 31
0.0
  0
LINE
  5
54F
330
166
100
AcDbEntity
  8
0
 62
     7
100
AcDbLine
 10
18.596922
 20
-8.262478
 30
0.0
 11
-5.973342
 21
5.923171
 31
0.0
  0
ELLIPSE
  5
550
330
166
100
AcDbEntity
  8
0
 62
     7
100
AcDbEllipse
 10
159.664688
 20
70.708603
 30
0.0
 11
0.5000379085540771
 21
0.0
 31
0.0
210
0.0
220
0.0
230
1.0
 40
0.577306
 41
5.497825221615734
 42
6.291960288294138
  0
ELLIPSE
  5
551
330
166
100
AcDbEntity
  8
0
 62
     7
100
AcDbEllipse
 10
-5.656827
 20
3.674235
 30
0.0
 11
0.5000380873680115
 21
0.0
 31
0.0
210
0.0
220
0.0
230
1.0
 40
0.577306
 41
3.132817673793294
 42
3.926952740806952
  0
ELLIPSE
  5
552
330
166
100
AcDbEntity
  8
0
 62
     7
100
AcDbEllipse
 10
18.950462
 20
-10.53279
 30
0.0
 11
0.5
 21
0.0
 31
0.0
210
0.0
220
0.0
230
1.0
 40
0.577394
 41
3.927028893195753
 42
5.497749067569683
  0
LINE
  5
553
330
166
100
AcDbEntity
  8
0
 62
     7
100
AcDbLine
 10
12.98467
 20
8.721448
 30
0.0
 11
6.946491
 21
5.235303
 31
0.0
  0
LINE
  5
554
330
166
100
AcDbEntity
  8
0
 62
     7
100
AcDbLine
 10
55.411077
 20
33.216345
 30
0.0
 11
49.372898
 21
29.730201
 31
0.0
  0
LINE
  5
555
330
166
100
AcDbEntity
  8
0
 62
     7
100
AcDbLine
 10
97.837484
 20
57.711243
 30
0.0
 11
91.799305
 21
54.225098
 31
0.0
  0
LINE
  5
556
330
166
100
AcDbEntity
  8
0
 62
     7
100
AcDbLine
 10
8.016405
 20
4.617585
 30
0.0
 11
12.98467
 21
7.486015
 31
0.0
  0
LINE
  5
557
330
166
100
AcDbEntity
  8
0
 62
     7
100
AcDbLine
 10
12.98467
 20
8.721448
 30
0.0
 11
12.98467
 21
7.486015
 31
0.0
  0
LINE
  5
558
330
166
100
AcDbEntity
  8
0
 62
     7
100
AcDbLine
 10
11.118259
 20
7.317278
 30
0.0
 11
11.123239
 21
7.646749
 31
0.0
  0
LINE
  5
559
330
166
100
AcDbEntity
  8
0
 62
     7
100
AcDbLine
 10
9.171849
 20
6.520112
 30
0.0
 11
9.454688
 21
6.356815
 31
0.0
  0
LINE
  5
55A
330
166
100
AcDbEntity
  8
0
 62
     7
100
AcDbLine
 10
9.454688
 20
6.356815
 30
0.0
 11
10.076274
 21
6.715688
 31
0.0
  0
LINE
  5
55B
330
166
100
AcDbEntity
  8
0
 62
     7
100
AcDbLine
 10
10.076274
 20
6.715688
 30
0.0
 11
10.076274
 21
7.042283
 31
0.0
  0
LINE
  5
55C
330
166
100
AcDbEntity
  8
0
 62
     7
100
AcDbLine
 10
10.076274
 20
6.715688
 30
0.0
 11
11.118259
 21
7.317278
 31
0.0
  0
LINE
  5
55D
330
166
100
AcDbEntity
  8
0
 62
     7
100
AcDbLine
 10
7.229171
 20
5.071913
 30
0.0
 11
7.234151
 21
5.401383
 31
0.0
  0
LINE
  5
55E
330
166
100
AcDbEntity
  8
0
 62
     7
100
AcDbLine
 10
50.442812
 20
29.112483
 30
0.0
 11
55.411077
 21
31.980912
 31
0.0
  0
LINE
  5
55F
330
166
100
AcDbEntity
  8
0
 62
     7
100
AcDbLine
 10
55.411077
 20
33.216345
 30
0.0
 11
55.411077
 21
31.980912
 31
0.0
  0
LINE
  5
560
330
166
100
AcDbEntity
  8
0
 62
     7
100
AcDbLine
 10
49.660558
 20
29.89628
 30
0.0
 11
49.655578
 21
29.56681
 31
0.0
  0
LINE
  5
561
330
166
100
AcDbEntity
  8
0
 62
     7
100
AcDbLine
 10
53.549646
 20
32.141646
 30
0.0
 11
53.544666
 21
31.812176
 31
0.0
  0
LINE
  5
562
330
166
100
AcDbEntity
  8
0
 62
     7
100
AcDbLine
 10
51.598256
 20
31.01501
 30
0.0
 11
51.881097
 21
30.851711
 31
0.0
  0
LINE
  5
563
330
166
100
AcDbEntity
  8
0
 62
     7
100
AcDbLine
 10
52.502681
 20
31.210586
 30
0.0
 11
51.881097
 21
30.851714
 31
0.0
  0
LINE
  5
564
330
166
100
AcDbEntity
  8
0
 62
     7
100
AcDbLine
 10
52.502681
 20
31.537181
 30
0.0
 11
52.502681
 21
31.210586
 31
0.0
  0
LINE
  5
565
330
166
100
AcDbEntity
  8
0
 62
     7
100
AcDbLine
 10
52.502681
 20
31.210586
 30
0.0
 11
53.544666
 21
31.812176
 31
0.0
  0
LINE
  5
566
330
166
100
AcDbEntity
  8
0
 62
     7
100
AcDbLine
 10
92.869219
 20
53.60738
 30
0.0
 11
97.837484
 21
56.475809
 31
0.0
  0
LINE
  5
567
330
166
100
AcDbEntity
  8
0
 62
     7
100
AcDbLine
 10
97.837484
 20
57.711243
 30
0.0
 11
97.837484
 21
56.475809
 31
0.0
  0
LINE
  5
568
330
166
100
AcDbEntity
  8
0
 62
     7
100
AcDbLine
 10
92.086965
 20
54.391178
 30
0.0
 11
92.081985
 21
54.061708
 31
0.0
  0
LINE
  5
569
330
166
100
AcDbEntity
  8
0
 62
     7
100
AcDbLine
 10
95.976053
 20
56.636543
 30
0.0
 11
95.971072
 21
56.307073
 31
0.0
  0
LINE
  5
56A
330
166
100
AcDbEntity
  8
0
 62
     7
100
AcDbLine
 10
94.024663
 20
55.509907
 30
0.0
 11
94.307504
 21
55.346609
 31
0.0
  0
LINE
  5
56B
330
166
100
AcDbEntity
  8
0
 62
     7
100
AcDbLine
 10
94.929088
 20
55.705483
 30
0.0
 11
94.307504
 21
55.346611
 31
0.0
  0
LINE
  5
56C
330
166
100
AcDbEntity
  8
0
 62
     7
100
AcDbLine
 10
94.929088
 20
56.032078
 30
0.0
 11
94.929088
 21
55.705483
 31
0.0
  0
LINE
  5
56D
330
166
100
AcDbEntity
  8
0
 62
     7
100
AcDbLine
 10
94.929088
 20
55.705483
 30
0.0
 11
95.971072
 21
56.307073
 31
0.0
  0
LINE
  5
56E
330
166
100
AcDbEntity
  8
0
 62
     7
100
AcDbLine
 10
142.004724
 20
77.740714
 30
0.0
 11
142.004724
 21
74.320903
 31
0.0
  0
LINE
  5
56F
330
166
100
AcDbEntity
  8
0
 62
     7
100
AcDbLine
 10
144.966502
 20
76.030731
 30
0.0
 11
142.004724
 21
77.740714
 31
0.0
  0
LINE
  5
570
330
166
100
AcDbEntity
  8
0
 62
     7
100
AcDbLine
 10
142.004724
 20
77.740714
 30
0.0
 11
139.04296
 21
76.030739
 31
0.0
  0
LINE
  5
571
330
166
100
AcDbEntity
  8
0
 62
     7
100
AcDbLine
 10
97.837484
 20
58.946676
 30
0.0
 11
97.837484
 21
57.711243
 31
0.0
  0
LINE
  5
572
330
166
100
AcDbEntity
  8
0
 62
     7
100
AcDbLine
 10
109.716881
 20
49.617237
 30
0.0
 11
97.837484
 21
56.475809
 31
0.0
  0
LINE
  5
573
330
166
100
AcDbEntity
  8
0
 62
     7
100
AcDbLine
 10
55.411077
 20
34.451778
 30
0.0
 11
55.411077
 21
33.216345
 31
0.0
  0
LINE
  5
574
330
166
100
AcDbEntity
  8
0
 62
     7
100
AcDbLine
 10
67.290474
 20
25.122339
 30
0.0
 11
55.411077
 21
31.980912
 31
0.0
  0
LINE
  5
575
330
166
100
AcDbEntity
  8
0
 62
     7
100
AcDbLine
 10
12.98467
 20
9.956881
 30
0.0
 11
12.98467
 21
8.721448
 31
0.0
  0
LINE
  5
576
330
166
100
AcDbEntity
  8
0
 62
     7
100
AcDbLine
 10
24.864067
 20
0.627442
 30
0.0
 11
12.98467
 21
7.486015
 31
0.0
  0
ELLIPSE
  5
577
330
166
100
AcDbEntity
  8
0
 62
     7
100
AcDbEllipse
 10
122.506256
 20
57.583424
 30
0.0
 11
12.25
 21
0.0
 31
0.0
210
0.0
220
0.0
230
1.0
 40
0.57735
 41
2.524953476244158
 42
2.611464458208329
  0
LINE
  5
578
330
166
100
AcDbEntity
  8
0
 62
     7
100
AcDbLine
 10
134.831908
 20
64.640161
 30
0.0
 11
134.831978
 21
64.64631
 31
0.0
  0
ELLIPSE
  5
579
330
166
100
AcDbEntity
  8
0
 62
     7
100
AcDbEllipse
 10
122.506256
 20
64.690506
 30
0.0
 11
12.32596302032471
 21
0.0
 31
0.0
210
0.0
220
0.0
230
1.0
 40
0.57735
 41
6.276974634145257
 42
9.430917358692767
  0
ELLIPSE
  5
57A
330
166
100
AcDbEntity
  8
0
 62
     7
100
AcDbEllipse
 10
80.079849
 20
33.088528
 30
0.0
 11
-12.25
 21
1.500192334859827E-15
 31
0.0
210
0.0
220
0.0
230
1.0
 40
0.57735
 41
5.66654612983382
 42
5.75305711146885
  0
LINE
  5
57B
330
166
100
AcDbEntity
  8
0
 62
     7
100
AcDbLine
 10
92.405501
 20
40.145264
 30
0.0
 11
92.405572
 21
40.151412
 31
0.0
  0
ELLIPSE
  5
57C
330
166
100
AcDbEntity
  8
0
 62
     7
100
AcDbEllipse
 10
80.079849
 20
40.19561
 30
0.0
 11
12.32596206665039
 21
0.0
 31
0.0
210
0.0
220
0.0
230
1.0
 40
0.57735
 41
6.276974639016379
 42
9.43091735298628
  0
ELLIPSE
  5
57D
330
166
100
AcDbEntity
  8
0
 62
     7
100
AcDbEllipse
 10
37.653442
 20
8.593629
 30
0.0
 11
12.25
 21
0.0
 31
0.0
210
0.0
220
0.0
230
1.0
 40
0.57735
 41
2.524953476244177
 42
2.61146445800749
  0
LINE
  5
57E
330
166
100
AcDbEntity
  8
0
 62
     7
100
AcDbLine
 10
49.979094
 20
15.650366
 30
0.0
 11
49.979165
 21
15.656515
 31
0.0
  0
ELLIPSE
  5
57F
330
166
100
AcDbEntity
  8
0
 62
     7
100
AcDbEllipse
 10
37.653442
 20
15.700712
 30
0.0
 11
12.32596206665039
 21
-1.501339497167464E-8
 31
0.0
210
0.0
220
0.0
230
1.0
 40
0.57735
 41
6.276974650312717
 42
8.63937980038908
  0
ELLIPSE
  5
580
330
166
100
AcDbEntity
  8
0
 62
     7
100
AcDbEllipse
 10
37.653442
 20
15.700712
 30
0.0
 11
12.32596206665039
 21
0.0
 31
0.0
210
0.0
220
0.0
230
1.0
 40
0.57735
 41
2.356194491971419
 42
3.14773203504455
  0
ELLIPSE
  5
581
330
166
100
AcDbEntity
  8
0
 62
     7
100
AcDbEllipse
 10
-3.483055
 20
9.785489
 30
0.0
 11
0.25
 21
-0.4330126941204071
 31
0.0
210
0.0
220
0.0
230
1.0
 40
0.57735
 41
2.356194466362217
 42
3.141618648437148
  0
ELLIPSE
  5
582
330
166
100
AcDbEntity
  8
0
 62
     7
100
AcDbEllipse
 10
132.957672
 20
88.559578
 30
0.0
 11
0.25
 21
-0.4330127239227295
 31
0.0
210
0.0
220
0.0
230
1.0
 40
0.57735
 41
2.356194514049943
 42
3.141618662545025
  0
ELLIPSE
  5
583
330
166
100
AcDbEntity
  8
0
 62
     7
100
AcDbEllipse
 10
-5.619802
 20
6.123724
 30
0.0
 11
0.25
 21
-0.4330126941204071
 31
0.0
210
0.0
220
0.0
230
1.0
 40
0.57735
 41
2.356194466360311
 42
3.141618648436617
  0
LINE
  5
584
330
166
100
AcDbEntity
  8
0
 62
     7
100
AcDbLine
 10
-3.870548
 20
7.541905
 30
0.0
 11
-4.015837
 21
7.627125
 31
0.0
  0
ELLIPSE
  5
585
330
166
100
AcDbEntity
  8
0
 62
     7
100
AcDbEllipse
 10
18.950462
 20
-8.061924
 30
0.0
 11
0.4999999105930328
 21
0.0
 31
0.0
210
0.0
220
0.0
230
1.0
 40
0.56723
 41
3.927028924563884
 42
5.497749043480385
  0
ELLIPSE
  5
586
330
166
100
AcDbEntity
  8
0
 62
     7
100
AcDbEllipse
 10
157.490906
 20
74.395309
 30
0.0
 11
0.25
 21
-0.4330126941204071
 31
0.0
210
0.0
220
0.0
230
1.0
 40
0.57735
 41
0.7941247952597155
 42
2.356194496059144
  0
ELLIPSE
  5
587
330
166
100
AcDbEntity
  8
0
 62
     7
100
AcDbEllipse
 10
21.050184
 20
-4.378783
 30
0.0
 11
0.25
 21
-0.4330126941204071
 31
0.0
210
0.0
220
0.0
230
1.0
 40
0.57735
 41
0.7941248240526465
 42
2.356194484327402
  0
ELLIPSE
  5
588
330
166
100
AcDbEntity
  8
0
 62
     7
100
AcDbEllipse
 10
159.627655
 20
73.158096
 30
0.0
 11
0.25
 21
-0.4330126941204071
 31
0.0
210
0.0
220
0.0
230
1.0
 40
0.57735
 41
0.7941247952555068
 42
2.356194496062478
  0
POLYLINE
  5
589
330
166
100
AcDbEntity
  8
0
 62
     7
100
AcDb2dPolyline
 66
     1
 10
0.0
 20
0.0
 30
0.0
  0
VERTEX
  5
58A
330
589
100
AcDbEntity
  8
0
100
AcDbVertex
100
AcDb2dVertex
 10
158.023621
 20
72.242043
 30
0.0
  0
VERTEX
  5
58B
330
589
100
AcDbEntity
  8
0
100
AcDbVertex
100
AcDb2dVertex
 10
158.016022
 20
72.126869
 30
0.0
  0
VERTEX
  5
58C
330
589
100
AcDbEntity
  8
0
100
AcDbVertex
100
AcDb2dVertex
 10
157.992233
 20
72.012009
 30
0.0
  0
VERTEX
  5
58D
330
589
100
AcDbEntity
  8
0
100
AcDbVertex
100
AcDb2dVertex
 10
157.906799
 20
71.79213
 30
0.0
  0
VERTEX
  5
58E
330
589
100
AcDbEntity
  8
0
100
AcDbVertex
100
AcDb2dVertex
 10
157.88147
 20
71.745262
 30
0.0
  0
SEQEND
  5
58F
330
589
100
AcDbEntity
  8
0
 62
     7
  0
ARC
  5
590
330
166
100
AcDbEntity
  8
0
 62
     7
100
AcDbCircle
 10
-10.655615
 20
-61.765931
 30
0.0
 40
63.4161842503714
100
AcDbArc
 50
59.632876
 51
60.367343
  0
ELLIPSE
  5
591
330
166
100
AcDbEntity
  8
0
 62
     7
100
AcDbEllipse
 10
18.950462
 20
-8.061924
 30
0.0
 11
0.25
 21
-0.4330126941204071
 31
0.0
210
0.0
220
0.0
230
1.0
 40
0.57735
 41
0.7941248096574189
 42
2.356194490192345
  0
ELLIPSE
  5
592
330
166
100
AcDbEntity
  8
0
 62
     7
100
AcDbEllipse
 10
-5.619802
 20
6.123724
 30
0.0
 11
0.4999428987503052
 21
-0.007556825876235963
 31
0.0
210
0.0
220
0.0
230
1.0
 40
0.577306
 41
3.141543655284288
 42
3.935678722540042
  0
ELLIPSE
  5
593
330
166
100
AcDbEntity
  8
0
 62
     7
100
AcDbEllipse
 10
18.950462
 20
-8.061924
 30
0.0
 11
-0.25
 21
-0.4330126941204071
 31
0.0
210
0.0
220
0.0
230
1.0
 40
0.57735
 41
3.926990816987241
 42
5.489060497522168
  0
ELLIPSE
  5
594
330
166
100
AcDbEntity
  8
0
 62
     7
100
AcDbEllipse
 10
-5.619802
 20
6.123724
 30
0.0
 11
-0.25
 21
-0.4330126941204071
 31
0.0
210
0.0
220
0.0
230
1.0
 40
0.57735
 41
3.926990816987241
 42
5.489060497522168
  0
ELLIPSE
  5
595
330
166
100
AcDbEntity
  8
0
 62
     7
100
AcDbEllipse
 10
-3.483055
 20
9.785489
 30
0.0
 11
-0.4999428987503052
 21
0.007556825876235963
 31
0.0
210
0.0
220
0.0
230
1.0
 40
0.577306
 41
6.283136308874082
 42
7.07727137612986
  0
ELLIPSE
  5
596
330
166
100
AcDbEntity
  8
0
 62
     7
100
AcDbEllipse
 10
21.050184
 20
-4.378783
 30
0.0
 11
0.5
 21
0.0
 31
0.0
210
0.0
220
0.0
230
1.0
 40
0.56723
 41
3.927028893198174
 42
5.497749067571174
  0
ELLIPSE
  5
597
330
166
100
AcDbEntity
  8
0
 62
     7
100
AcDbEllipse
 10
-3.483055
 20
9.785489
 30
0.0
 11
0.25
 21
0.4330126941204071
 31
0.0
210
0.0
220
0.0
230
1.0
 40
0.57735
 41
0.7853981633972963
 42
2.347467843932516
  0
ELLIPSE
  5
598
330
166
100
AcDbEntity
  8
0
 62
     7
100
AcDbEllipse
 10
21.050184
 20
-4.378783
 30
0.0
 11
0.25
 21
0.4330126941204071
 31
0.0
210
0.0
220
0.0
230
1.0
 40
0.57735
 41
0.7853981633972963
 42
2.347467843932516
  0
ELLIPSE
  5
599
330
166
100
AcDbEntity
  8
0
 62
     7
100
AcDbEllipse
 10
157.490906
 20
74.395309
 30
0.0
 11
-0.25
 21
-0.4330126941204071
 31
0.0
210
0.0
220
0.0
230
1.0
 40
0.57735
 41
3.141566651692265
 42
3.926990816987154
  0
ELLIPSE
  5
59A
330
166
100
AcDbEntity
  8
0
 62
     7
100
AcDbEllipse
 10
132.957672
 20
88.559578
 30
0.0
 11
-0.25
 21
-0.4330126941204071
 31
0.0
210
0.0
220
0.0
230
1.0
 40
0.57735
 41
3.141566651692265
 42
3.926990816987098
  0
ELLIPSE
  5
59B
330
166
100
AcDbEntity
  8
0
 62
     7
100
AcDbEllipse
 10
157.490906
 20
74.395309
 30
0.0
 11
-0.4999428987503052
 21
-0.007556825876235963
 31
0.0
210
0.0
220
0.0
230
1.0
 40
0.577306
 41
2.347506584639468
 42
3.141779802708396
  0
ELLIPSE
  5
59C
330
166
100
AcDbEntity
  8
0
 62
     7
100
AcDbEllipse
 10
159.627655
 20
73.158096
 30
0.0
 11
-0.25
 21
-0.4330126941204071
 31
0.0
210
0.0
220
0.0
230
1.0
 40
0.57735
 41
3.141566651692234
 42
3.926990816987298
  0
ELLIPSE
  5
59D
330
166
100
AcDbEntity
  8
0
 62
     7
100
AcDbEllipse
 10
159.627655
 20
73.158096
 30
0.0
 11
-0.4999428987503052
 21
-0.007556825876235963
 31
0.0
210
0.0
220
0.0
230
1.0
 40
0.577306
 41
2.347506584639582
 42
3.141779790820841
  0
POLYLINE
  5
59E
330
166
100
AcDbEntity
  8
0
 62
     7
100
AcDb2dPolyline
 66
     1
 10
0.0
 20
0.0
 30
0.0
  0
VERTEX
  5
59F
330
59E
100
AcDbEntity
  8
0
100
AcDbVertex
100
AcDb2dVertex
 10
145.816956
 20
76.352638
 30
0.0
  0
VERTEX
  5
5A0
330
59E
100
AcDbEntity
  8
0
100
AcDbVertex
100
AcDb2dVertex
 10
145.557388
 20
76.324043
 30
0.0
  0
VERTEX
  5
5A1
330
59E
100
AcDbEntity
  8
0
100
AcDbVertex
100
AcDb2dVertex
 10
145.43277
 20
76.28717
 30
0.0
  0
VERTEX
  5
5A2
330
59E
100
AcDbEntity
  8
0
100
AcDbVertex
100
AcDb2dVertex
 10
145.316833
 20
76.233154
 30
0.0
  0
SEQEND
  5
5A3
330
59E
100
AcDbEntity
  8
0
 62
     7
  0
LINE
  5
5A4
330
166
100
AcDbEntity
  8
0
 62
     7
100
AcDbLine
 10
142.004724
 20
78.553633
 30
0.0
 11
142.004724
 21
77.740714
 31
0.0
  0
LINE
  5
5A5
330
166
100
AcDbEntity
  8
0
 62
     7
100
AcDbLine
 10
142.004724
 20
74.151646
 30
0.0
 11
142.004866
 21
74.32083
 31
0.0
  0
POLYLINE
  5
5A6
330
166
100
AcDbEntity
  8
0
 62
     7
100
AcDb2dPolyline
 66
     1
 10
0.0
 20
0.0
 30
0.0
  0
VERTEX
  5
5A7
330
5A6
100
AcDbEntity
  8
0
100
AcDbVertex
100
AcDb2dVertex
 10
138.19249
 20
76.352638
 30
0.0
  0
VERTEX
  5
5A8
330
5A6
100
AcDbEntity
  8
0
100
AcDbVertex
100
AcDb2dVertex
 10
138.452118
 20
76.324173
 30
0.0
  0
VERTEX
  5
5A9
330
5A6
100
AcDbEntity
  8
0
100
AcDbVertex
100
AcDb2dVertex
 10
138.57666
 20
76.287117
 30
0.0
  0
VERTEX
  5
5AA
330
5A6
100
AcDbEntity
  8
0
100
AcDbVertex
100
AcDb2dVertex
 10
138.692627
 20
76.232994
 30
0.0
  0
SEQEND
  5
5AB
330
5A6
100
AcDbEntity
  8
0
 62
     7
  0
LINE
  5
5AC
330
166
100
AcDbEntity
  8
0
 62
     7
100
AcDbLine
 10
136.221958
 20
56.554562
 30
0.0
 11
136.224229
 21
56.766981
 31
0.0
  0
LINE
  5
5AD
330
166
100
AcDbEntity
  8
0
 62
     7
100
AcDbLine
 10
93.795552
 20
32.059664
 30
0.0
 11
93.797822
 21
32.272084
 31
0.0
  0
LINE
  5
5AE
330
166
100
AcDbEntity
  8
0
 62
     7
100
AcDbLine
 10
51.369145
 20
7.564767
 30
0.0
 11
51.371415
 21
7.777187
 31
0.0
  0
POLYLINE
  5
5AF
330
166
100
AcDbEntity
  8
0
 62
     7
100
AcDb2dPolyline
 66
     1
 10
0.0
 20
0.0
 30
0.0
  0
VERTEX
  5
5B0
330
5AF
100
AcDbEntity
  8
0
100
AcDbVertex
100
AcDb2dVertex
 10
131.325897
 20
59.88398
 30
0.0
  0
VERTEX
  5
5B1
330
5AF
100
AcDbEntity
  8
0
100
AcDbVertex
100
AcDb2dVertex
 10
132.057053
 20
60.34383
 30
0.0
  0
VERTEX
  5
5B2
330
5AF
100
AcDbEntity
  8
0
100
AcDbVertex
100
AcDb2dVertex
 10
132.666321
 20
60.800941
 30
0.0
  0
VERTEX
  5
5B3
330
5AF
100
AcDbEntity
  8
0
100
AcDbVertex
100
AcDb2dVertex
 10
133.151047
 20
61.230366
 30
0.0
  0
VERTEX
  5
5B4
330
5AF
100
AcDbEntity
  8
0
100
AcDbVertex
100
AcDb2dVertex
 10
133.613937
 20
61.718903
 30
0.0
  0
VERTEX
  5
5B5
330
5AF
100
AcDbEntity
  8
0
100
AcDbVertex
100
AcDb2dVertex
 10
133.966003
 20
62.168606
 30
0.0
  0
VERTEX
  5
5B6
330
5AF
100
AcDbEntity
  8
0
100
AcDbVertex
100
AcDb2dVertex
 10
134.247589
 20
62.608227
 30
0.0
  0
VERTEX
  5
5B7
330
5AF
100
AcDbEntity
  8
0
100
AcDbVertex
100
AcDb2dVertex
 10
134.491211
 20
63.093159
 30
0.0
  0
VERTEX
  5
5B8
330
5AF
100
AcDbEntity
  8
0
100
AcDbVertex
100
AcDb2dVertex
 10
134.659714
 20
63.550243
 30
0.0
  0
VERTEX
  5
5B9
330
5AF
100
AcDbEntity
  8
0
100
AcDbVertex
100
AcDb2dVertex
 10
134.781876
 20
64.070534
 30
0.0
  0
VERTEX
  5
5BA
330
5AF
100
AcDbEntity
  8
0
100
AcDbVertex
100
AcDb2dVertex
 10
134.830811
 20
64.566727
 30
0.0
  0
VERTEX
  5
5BB
330
5AF
100
AcDbEntity
  8
0
100
AcDbVertex
100
AcDb2dVertex
 10
134.832596
 20
64.649429
 30
0.0
  0
SEQEND
  5
5BC
330
5AF
100
AcDbEntity
  8
0
 62
     7
  0
POLYLINE
  5
5BD
330
166
100
AcDbEntity
  8
0
 62
     7
100
AcDb2dPolyline
 66
     1
 10
0.0
 20
0.0
 30
0.0
  0
VERTEX
  5
5BE
330
5BD
100
AcDbEntity
  8
0
100
AcDbVertex
100
AcDb2dVertex
 10
131.325226
 20
59.883591
 30
0.0
  0
VERTEX
  5
5BF
330
5BD
100
AcDbEntity
  8
0
100
AcDbVertex
100
AcDb2dVertex
 10
130.50972
 20
59.452122
 30
0.0
  0
VERTEX
  5
5C0
330
5BD
100
AcDbEntity
  8
0
100
AcDbVertex
100
AcDb2dVertex
 10
129.618896
 20
59.061062
 30
0.0
  0
VERTEX
  5
5C1
330
5BD
100
AcDbEntity
  8
0
100
AcDbVertex
100
AcDb2dVertex
 10
128.876205
 20
58.78685
 30
0.0
  0
VERTEX
  5
5C2
330
5BD
100
AcDbEntity
  8
0
100
AcDbVertex
100
AcDb2dVertex
 10
127.949905
 20
58.50066
 30
0.0
  0
VERTEX
  5
5C3
330
5BD
100
AcDbEntity
  8
0
100
AcDbVertex
100
AcDb2dVertex
 10
126.981781
 20
58.259537
 30
0.0
  0
VERTEX
  5
5C4
330
5BD
100
AcDbEntity
  8
0
100
AcDbVertex
100
AcDb2dVertex
 10
125.979881
 20
58.065823
 30
0.0
  0
VERTEX
  5
5C5
330
5BD
100
AcDbEntity
  8
0
100
AcDbVertex
100
AcDb2dVertex
 10
124.952248
 20
57.921295
 30
0.0
  0
VERTEX
  5
5C6
330
5BD
100
AcDbEntity
  8
0
100
AcDbVertex
100
AcDb2dVertex
 10
123.906944
 20
57.827217
 30
0.0
  0
VERTEX
  5
5C7
330
5BD
100
AcDbEntity
  8
0
100
AcDbVertex
100
AcDb2dVertex
 10
122.852005
 20
57.784367
 30
0.0
  0
VERTEX
  5
5C8
330
5BD
100
AcDbEntity
  8
0
100
AcDbVertex
100
AcDb2dVertex
 10
121.795372
 20
57.793037
 30
0.0
  0
VERTEX
  5
5C9
330
5BD
100
AcDbEntity
  8
0
100
AcDbVertex
100
AcDb2dVertex
 10
120.744911
 20
57.853073
 30
0.0
  0
VERTEX
  5
5CA
330
5BD
100
AcDbEntity
  8
0
100
AcDbVertex
100
AcDb2dVertex
 10
119.708344
 20
57.963894
 30
0.0
  0
VERTEX
  5
5CB
330
5BD
100
AcDbEntity
  8
0
100
AcDbVertex
100
AcDb2dVertex
 10
118.69326
 20
58.124489
 30
0.0
  0
VERTEX
  5
5CC
330
5BD
100
AcDbEntity
  8
0
100
AcDbVertex
100
AcDb2dVertex
 10
117.707001
 20
58.33345
 30
0.0
  0
VERTEX
  5
5CD
330
5BD
100
AcDbEntity
  8
0
100
AcDbVertex
100
AcDb2dVertex
 10
116.756737
 20
58.588963
 30
0.0
  0
VERTEX
  5
5CE
330
5BD
100
AcDbEntity
  8
0
100
AcDbVertex
100
AcDb2dVertex
 10
115.849342
 20
58.888824
 30
0.0
  0
VERTEX
  5
5CF
330
5BD
100
AcDbEntity
  8
0
100
AcDbVertex
100
AcDb2dVertex
 10
114.94725
 20
59.249752
 30
0.0
  0
VERTEX
  5
5D0
330
5BD
100
AcDbEntity
  8
0
100
AcDbVertex
100
AcDb2dVertex
 10
114.090073
 20
59.662579
 30
0.0
  0
VERTEX
  5
5D1
330
5BD
100
AcDbEntity
  8
0
100
AcDbVertex
100
AcDb2dVertex
 10
113.43454
 20
60.03521
 30
0.0
  0
VERTEX
  5
5D2
330
5BD
100
AcDbEntity
  8
0
100
AcDbVertex
100
AcDb2dVertex
 10
112.724884
 20
60.510387
 30
0.0
  0
VERTEX
  5
5D3
330
5BD
100
AcDbEntity
  8
0
100
AcDbVertex
100
AcDb2dVertex
 10
112.160873
 20
60.959133
 30
0.0
  0
VERTEX
  5
5D4
330
5BD
100
AcDbEntity
  8
0
100
AcDbVertex
100
AcDb2dVertex
 10
111.728271
 20
61.362717
 30
0.0
  0
VERTEX
  5
5D5
330
5BD
100
AcDbEntity
  8
0
100
AcDbVertex
100
AcDb2dVertex
 10
111.298721
 20
61.837616
 30
0.0
  0
VERTEX
  5
5D6
330
5BD
100
AcDbEntity
  8
0
100
AcDbVertex
100
AcDb2dVertex
 10
110.963554
 20
62.287075
 30
0.0
  0
VERTEX
  5
5D7
330
5BD
100
AcDbEntity
  8
0
100
AcDbVertex
100
AcDb2dVertex
 10
110.708359
 20
62.706596
 30
0.0
  0
VERTEX
  5
5D8
330
5BD
100
AcDbEntity
  8
0
100
AcDbVertex
100
AcDb2dVertex
 10
110.519875
 20
63.092606
 30
0.0
  0
VERTEX
  5
5D9
330
5BD
100
AcDbEntity
  8
0
100
AcDbVertex
100
AcDb2dVertex
 10
110.379845
 20
63.460396
 30
0.0
  0
VERTEX
  5
5DA
330
5BD
100
AcDbEntity
  8
0
100
AcDbVertex
100
AcDb2dVertex
 10
110.245041
 20
63.983284
 30
0.0
  0
VERTEX
  5
5DB
330
5BD
100
AcDbEntity
  8
0
100
AcDbVertex
100
AcDb2dVertex
 10
110.198242
 20
64.31044
 30
0.0
  0
VERTEX
  5
5DC
330
5BD
100
AcDbEntity
  8
0
100
AcDbVertex
100
AcDb2dVertex
 10
110.180527
 20
64.64682
 30
0.0
  0
SEQEND
  5
5DD
330
5BD
100
AcDbEntity
  8
0
 62
     7
  0
POLYLINE
  5
5DE
330
166
100
AcDbEntity
  8
0
 62
     7
100
AcDb2dPolyline
 66
     1
 10
0.0
 20
0.0
 30
0.0
  0
VERTEX
  5
5DF
330
5DE
100
AcDbEntity
  8
0
100
AcDbVertex
100
AcDb2dVertex
 10
88.89949
 20
35.389084
 30
0.0
  0
VERTEX
  5
5E0
330
5DE
100
AcDbEntity
  8
0
100
AcDbVertex
100
AcDb2dVertex
 10
89.630653
 20
35.84893
 30
0.0
  0
VERTEX
  5
5E1
330
5DE
100
AcDbEntity
  8
0
100
AcDbVertex
100
AcDb2dVertex
 10
90.239922
 20
36.306042
 30
0.0
  0
VERTEX
  5
5E2
330
5DE
100
AcDbEntity
  8
0
100
AcDbVertex
100
AcDb2dVertex
 10
90.72464
 20
36.73547
 30
0.0
  0
VERTEX
  5
5E3
330
5DE
100
AcDbEntity
  8
0
100
AcDbVertex
100
AcDb2dVertex
 10
91.187531
 20
37.224007
 30
0.0
  0
VERTEX
  5
5E4
330
5DE
100
AcDbEntity
  8
0
100
AcDbVertex
100
AcDb2dVertex
 10
91.539597
 20
37.67371
 30
0.0
  0
VERTEX
  5
5E5
330
5DE
100
AcDbEntity
  8
0
100
AcDbVertex
100
AcDb2dVertex
 10
91.821182
 20
38.113327
 30
0.0
  0
VERTEX
  5
5E6
330
5DE
100
AcDbEntity
  8
0
100
AcDbVertex
100
AcDb2dVertex
 10
92.064812
 20
38.598263
 30
0.0
  0
VERTEX
  5
5E7
330
5DE
100
AcDbEntity
  8
0
100
AcDbVertex
100
AcDb2dVertex
 10
92.233299
 20
39.055347
 30
0.0
  0
VERTEX
  5
5E8
330
5DE
100
AcDbEntity
  8
0
100
AcDbVertex
100
AcDb2dVertex
 10
92.355469
 20
39.575634
 30
0.0
  0
VERTEX
  5
5E9
330
5DE
100
AcDbEntity
  8
0
100
AcDbVertex
100
AcDb2dVertex
 10
92.404404
 20
40.071831
 30
0.0
  0
VERTEX
  5
5EA
330
5DE
100
AcDbEntity
  8
0
100
AcDbVertex
100
AcDb2dVertex
 10
92.406197
 20
40.154533
 30
0.0
  0
SEQEND
  5
5EB
330
5DE
100
AcDbEntity
  8
0
 62
     7
  0
POLYLINE
  5
5EC
330
166
100
AcDbEntity
  8
0
 62
     7
100
AcDb2dPolyline
 66
     1
 10
0.0
 20
0.0
 30
0.0
  0
VERTEX
  5
5ED
330
5EC
100
AcDbEntity
  8
0
100
AcDbVertex
100
AcDb2dVertex
 10
88.898819
 20
35.388695
 30
0.0
  0
VERTEX
  5
5EE
330
5EC
100
AcDbEntity
  8
0
100
AcDbVertex
100
AcDb2dVertex
 10
88.083313
 20
34.957226
 30
0.0
  0
VERTEX
  5
5EF
330
5EC
100
AcDbEntity
  8
0
100
AcDbVertex
100
AcDb2dVertex
 10
87.192482
 20
34.566162
 30
0.0
  0
VERTEX
  5
5F0
330
5EC
100
AcDbEntity
  8
0
100
AcDbVertex
100
AcDb2dVertex
 10
86.449799
 20
34.29195
 30
0.0
  0
VERTEX
  5
5F1
330
5EC
100
AcDbEntity
  8
0
100
AcDbVertex
100
AcDb2dVertex
 10
85.523499
 20
34.00576
 30
0.0
  0
VERTEX
  5
5F2
330
5EC
100
AcDbEntity
  8
0
100
AcDbVertex
100
AcDb2dVertex
 10
84.555374
 20
33.764641
 30
0.0
  0
VERTEX
  5
5F3
330
5EC
100
AcDbEntity
  8
0
100
AcDbVertex
100
AcDb2dVertex
 10
83.553474
 20
33.570927
 30
0.0
  0
VERTEX
  5
5F4
330
5EC
100
AcDbEntity
  8
0
100
AcDbVertex
100
AcDb2dVertex
 10
82.525841
 20
33.426399
 30
0.0
  0
VERTEX
  5
5F5
330
5EC
100
AcDbEntity
  8
0
100
AcDbVertex
100
AcDb2dVertex
 10
81.480537
 20
33.332321
 30
0.0
  0
VERTEX
  5
5F6
330
5EC
100
AcDbEntity
  8
0
100
AcDbVertex
100
AcDb2dVertex
 10
80.425598
 20
33.289471
 30
0.0
  0
VERTEX
  5
5F7
330
5EC
100
AcDbEntity
  8
0
100
AcDbVertex
100
AcDb2dVertex
 10
79.368965
 20
33.298138
 30
0.0
  0
VERTEX
  5
5F8
330
5EC
100
AcDbEntity
  8
0
100
AcDbVertex
100
AcDb2dVertex
 10
78.318504
 20
33.358177
 30
0.0
  0
VERTEX
  5
5F9
330
5EC
100
AcDbEntity
  8
0
100
AcDbVertex
100
AcDb2dVertex
 10
77.281937
 20
33.468998
 30
0.0
  0
VERTEX
  5
5FA
330
5EC
100
AcDbEntity
  8
0
100
AcDbVertex
100
AcDb2dVertex
 10
76.266853
 20
33.629593
 30
0.0
  0
VERTEX
  5
5FB
330
5EC
100
AcDbEntity
  8
0
100
AcDbVertex
100
AcDb2dVertex
 10
75.280594
 20
33.838551
 30
0.0
  0
VERTEX
  5
5FC
330
5EC
100
AcDbEntity
  8
0
100
AcDbVertex
100
AcDb2dVertex
 10
74.33033
 20
34.094063
 30
0.0
  0
VERTEX
  5
5FD
330
5EC
100
AcDbEntity
  8
0
100
AcDbVertex
100
AcDb2dVertex
 10
73.422935
 20
34.393929
 30
0.0
  0
VERTEX
  5
5FE
330
5EC
100
AcDbEntity
  8
0
100
AcDbVertex
100
AcDb2dVertex
 10
72.520844
 20
34.754856
 30
0.0
  0
VERTEX
  5
5FF
330
5EC
100
AcDbEntity
  8
0
100
AcDbVertex
100
AcDb2dVertex
 10
71.663666
 20
35.167683
 30
0.0
  0
VERTEX
  5
600
330
5EC
100
AcDbEntity
  8
0
100
AcDbVertex
100
AcDb2dVertex
 10
71.008133
 20
35.540314
 30
0.0
  0
VERTEX
  5
601
330
5EC
100
AcDbEntity
  8
0
100
AcDbVertex
100
AcDb2dVertex
 10
70.298477
 20
36.015488
 30
0.0
  0
VERTEX
  5
602
330
5EC
100
AcDbEntity
  8
0
100
AcDbVertex
100
AcDb2dVertex
 10
69.734467
 20
36.464237
 30
0.0
  0
VERTEX
  5
603
330
5EC
100
AcDbEntity
  8
0
100
AcDbVertex
100
AcDb2dVertex
 10
69.301865
 20
36.867821
 30
0.0
  0
VERTEX
  5
604
330
5EC
100
AcDbEntity
  8
0
100
AcDbVertex
100
AcDb2dVertex
 10
68.872314
 20
37.342716
 30
0.0
  0
VERTEX
  5
605
330
5EC
100
AcDbEntity
  8
0
100
AcDbVertex
100
AcDb2dVertex
 10
68.537148
 20
37.792179
 30
0.0
  0
VERTEX
  5
606
330
5EC
100
AcDbEntity
  8
0
100
AcDbVertex
100
AcDb2dVertex
 10
68.281952
 20
38.2117
 30
0.0
  0
VERTEX
  5
607
330
5EC
100
AcDbEntity
  8
0
100
AcDbVertex
100
AcDb2dVertex
 10
68.093468
 20
38.59771
 30
0.0
  0
VERTEX
  5
608
330
5EC
100
AcDbEntity
  8
0
100
AcDbVertex
100
AcDb2dVertex
 10
67.953438
 20
38.965496
 30
0.0
  0
VERTEX
  5
609
330
5EC
100
AcDbEntity
  8
0
100
AcDbVertex
100
AcDb2dVertex
 10
67.818634
 20
39.488384
 30
0.0
  0
VERTEX
  5
60A
330
5EC
100
AcDbEntity
  8
0
100
AcDbVertex
100
AcDb2dVertex
 10
67.771835
 20
39.815544
 30
0.0
  0
VERTEX
  5
60B
330
5EC
100
AcDbEntity
  8
0
100
AcDbVertex
100
AcDb2dVertex
 10
67.75412
 20
40.15192
 30
0.0
  0
SEQEND
  5
60C
330
5EC
100
AcDbEntity
  8
0
 62
     7
  0
POLYLINE
  5
60D
330
166
100
AcDbEntity
  8
0
 62
     7
100
AcDb2dPolyline
 66
     1
 10
0.0
 20
0.0
 30
0.0
  0
VERTEX
  5
60E
330
60D
100
AcDbEntity
  8
0
100
AcDbVertex
100
AcDb2dVertex
 10
46.472404
 20
10.893794
 30
0.0
  0
VERTEX
  5
60F
330
60D
100
AcDbEntity
  8
0
100
AcDbVertex
100
AcDb2dVertex
 10
45.656902
 20
10.462327
 30
0.0
  0
VERTEX
  5
610
330
60D
100
AcDbEntity
  8
0
100
AcDbVertex
100
AcDb2dVertex
 10
44.766075
 20
10.071266
 30
0.0
  0
VERTEX
  5
611
330
60D
100
AcDbEntity
  8
0
100
AcDbVertex
100
AcDb2dVertex
 10
44.023388
 20
9.797054
 30
0.0
  0
VERTEX
  5
612
330
60D
100
AcDbEntity
  8
0
100
AcDbVertex
100
AcDb2dVertex
 10
43.097095
 20
9.510864
 30
0.0
  0
VERTEX
  5
613
330
60D
100
AcDbEntity
  8
0
100
AcDbVertex
100
AcDb2dVertex
 10
42.128971
 20
9.269742
 30
0.0
  0
VERTEX
  5
614
330
60D
100
AcDbEntity
  8
0
100
AcDbVertex
100
AcDb2dVertex
 10
41.127068
 20
9.076028
 30
0.0
  0
VERTEX
  5
615
330
60D
100
AcDbEntity
  8
0
100
AcDbVertex
100
AcDb2dVertex
 10
40.099438
 20
8.931499
 30
0.0
  0
VERTEX
  5
616
330
60D
100
AcDbEntity
  8
0
100
AcDbVertex
100
AcDb2dVertex
 10
39.054131
 20
8.837424
 30
0.0
  0
VERTEX
  5
617
330
60D
100
AcDbEntity
  8
0
100
AcDbVertex
100
AcDb2dVertex
 10
37.999187
 20
8.794572
 30
0.0
  0
VERTEX
  5
618
330
60D
100
AcDbEntity
  8
0
100
AcDbVertex
100
AcDb2dVertex
 10
36.942554
 20
8.803241
 30
0.0
  0
VERTEX
  5
619
330
60D
100
AcDbEntity
  8
0
100
AcDbVertex
100
AcDb2dVertex
 10
35.892094
 20
8.863279
 30
0.0
  0
VERTEX
  5
61A
330
60D
100
AcDbEntity
  8
0
100
AcDbVertex
100
AcDb2dVertex
 10
34.855534
 20
8.9741
 30
0.0
  0
VERTEX
  5
61B
330
60D
100
AcDbEntity
  8
0
100
AcDbVertex
100
AcDb2dVertex
 10
33.840446
 20
9.134695
 30
0.0
  0
VERTEX
  5
61C
330
60D
100
AcDbEntity
  8
0
100
AcDbVertex
100
AcDb2dVertex
 10
32.854187
 20
9.343655
 30
0.0
  0
VERTEX
  5
61D
330
60D
100
AcDbEntity
  8
0
100
AcDbVertex
100
AcDb2dVertex
 10
31.903921
 20
9.599166
 30
0.0
  0
VERTEX
  5
61E
330
60D
100
AcDbEntity
  8
0
100
AcDbVertex
100
AcDb2dVertex
 10
30.996531
 20
9.89903
 30
0.0
  0
VERTEX
  5
61F
330
60D
100
AcDbEntity
  8
0
100
AcDbVertex
100
AcDb2dVertex
 10
30.094435
 20
10.259959
 30
0.0
  0
VERTEX
  5
620
330
60D
100
AcDbEntity
  8
0
100
AcDbVertex
100
AcDb2dVertex
 10
29.237261
 20
10.672785
 30
0.0
  0
VERTEX
  5
621
330
60D
100
AcDbEntity
  8
0
100
AcDbVertex
100
AcDb2dVertex
 10
28.581724
 20
11.045415
 30
0.0
  0
VERTEX
  5
622
330
60D
100
AcDbEntity
  8
0
100
AcDbVertex
100
AcDb2dVertex
 10
27.872072
 20
11.520592
 30
0.0
  0
VERTEX
  5
623
330
60D
100
AcDbEntity
  8
0
100
AcDbVertex
100
AcDb2dVertex
 10
27.308056
 20
11.969339
 30
0.0
  0
VERTEX
  5
624
330
60D
100
AcDbEntity
  8
0
100
AcDbVertex
100
AcDb2dVertex
 10
26.875462
 20
12.372923
 30
0.0
  0
VERTEX
  5
625
330
60D
100
AcDbEntity
  8
0
100
AcDbVertex
100
AcDb2dVertex
 10
26.445908
 20
12.84782
 30
0.0
  0
VERTEX
  5
626
330
60D
100
AcDbEntity
  8
0
100
AcDbVertex
100
AcDb2dVertex
 10
26.110737
 20
13.297281
 30
0.0
  0
VERTEX
  5
627
330
60D
100
AcDbEntity
  8
0
100
AcDbVertex
100
AcDb2dVertex
 10
25.855547
 20
13.716803
 30
0.0
  0
VERTEX
  5
628
330
60D
100
AcDbEntity
  8
0
100
AcDbVertex
100
AcDb2dVertex
 10
25.667061
 20
14.102811
 30
0.0
  0
VERTEX
  5
629
330
60D
100
AcDbEntity
  8
0
100
AcDbVertex
100
AcDb2dVertex
 10
25.527035
 20
14.4706
 30
0.0
  0
VERTEX
  5
62A
330
60D
100
AcDbEntity
  8
0
100
AcDbVertex
100
AcDb2dVertex
 10
25.392225
 20
14.993487
 30
0.0
  0
VERTEX
  5
62B
330
60D
100
AcDbEntity
  8
0
100
AcDbVertex
100
AcDb2dVertex
 10
25.345425
 20
15.320646
 30
0.0
  0
VERTEX
  5
62C
330
60D
100
AcDbEntity
  8
0
100
AcDbVertex
100
AcDb2dVertex
 10
25.327711
 20
15.657022
 30
0.0
  0
SEQEND
  5
62D
330
60D
100
AcDbEntity
  8
0
 62
     7
  0
POLYLINE
  5
62E
330
166
100
AcDbEntity
  8
0
 62
     7
100
AcDb2dPolyline
 66
     1
 10
0.0
 20
0.0
 30
0.0
  0
VERTEX
  5
62F
330
62E
100
AcDbEntity
  8
0
100
AcDbVertex
100
AcDb2dVertex
 10
46.473087
 20
10.894188
 30
0.0
  0
VERTEX
  5
630
330
62E
100
AcDbEntity
  8
0
100
AcDbVertex
100
AcDb2dVertex
 10
47.204247
 20
11.354034
 30
0.0
  0
VERTEX
  5
631
330
62E
100
AcDbEntity
  8
0
100
AcDbVertex
100
AcDb2dVertex
 10
47.813511
 20
11.811146
 30
0.0
  0
VERTEX
  5
632
330
62E
100
AcDbEntity
  8
0
100
AcDbVertex
100
AcDb2dVertex
 10
48.298233
 20
12.240572
 30
0.0
  0
VERTEX
  5
633
330
62E
100
AcDbEntity
  8
0
100
AcDbVertex
100
AcDb2dVertex
 10
48.761127
 20
12.729108
 30
0.0
  0
VERTEX
  5
634
330
62E
100
AcDbEntity
  8
0
100
AcDbVertex
100
AcDb2dVertex
 10
49.11319
 20
13.178811
 30
0.0
  0
VERTEX
  5
635
330
62E
100
AcDbEntity
  8
0
100
AcDbVertex
100
AcDb2dVertex
 10
49.394775
 20
13.61843
 30
0.0
  0
VERTEX
  5
636
330
62E
100
AcDbEntity
  8
0
100
AcDbVertex
100
AcDb2dVertex
 10
49.638405
 20
14.103366
 30
0.0
  0
VERTEX
  5
637
330
62E
100
AcDbEntity
  8
0
100
AcDbVertex
100
AcDb2dVertex
 10
49.806896
 20
14.56045
 30
0.0
  0
VERTEX
  5
638
330
62E
100
AcDbEntity
  8
0
100
AcDbVertex
100
AcDb2dVertex
 10
49.929062
 20
15.080738
 30
0.0
  0
VERTEX
  5
639
330
62E
100
AcDbEntity
  8
0
100
AcDbVertex
100
AcDb2dVertex
 10
49.977993
 20
15.576935
 30
0.0
  0
VERTEX
  5
63A
330
62E
100
AcDbEntity
  8
0
100
AcDbVertex
100
AcDb2dVertex
 10
49.979786
 20
15.659635
 30
0.0
  0
SEQEND
  5
63B
330
62E
100
AcDbEntity
  8
0
 62
     7
  0
LINE
  5
63C
330
166
100
AcDbEntity
  8
0
 62
     7
100
AcDbLine
 10
132.707666
 20
88.992589
 30
0.0
 11
-3.733061
 21
10.218498
 31
0.0
  0
LINE
  5
63D
330
166
100
AcDbEntity
  8
0
 62
     7
100
AcDbLine
 10
-4.015837
 20
7.627125
 30
0.0
 11
-5.869809
 21
6.556733
 31
0.0
  0
LINE
  5
63E
330
166
100
AcDbEntity
  8
0
 62
     7
100
AcDbLine
 10
-6.156846
 20
3.676768
 30
0.0
 11
-6.119745
 21
6.131295
 31
0.0
  0
ARC
  5
63F
330
166
100
AcDbEntity
  8
0
 62
     7
100
AcDbCircle
 10
-5.619953
 20
6.123815
 30
0.0
 40
0.4998430923212671
100
AcDbArc
 50
119.991124
 51
179.142533
  0
LINE
  5
640
330
166
100
AcDbEntity
  8
0
 62
     7
100
AcDbLine
 10
-3.982998
 20
9.79306
 30
0.0
 11
-4.015837
 21
7.627125
 31
0.0
  0
ARC
  5
641
330
166
100
AcDbEntity
  8
0
 62
     7
100
AcDbCircle
 10
-3.483206
 20
9.78558
 30
0.0
 40
0.4998426090957125
100
AcDbArc
 50
119.991084
 51
179.142546
  0
LINE
  5
642
330
166
100
AcDbEntity
  8
0
 62
     7
100
AcDbLine
 10
133.207679
 20
88.992589
 30
0.0
 11
157.740918
 21
74.828317
 31
0.0
  0
ARC
  5
643
330
166
100
AcDbEntity
  8
0
 62
     7
100
AcDbCircle
 10
157.490963
 20
74.395337
 30
0.0
 40
0.4999490713994351
100
AcDbArc
 50
0.868988
 51
60.002544
  0
ARC
  5
644
330
166
100
AcDbEntity
  8
0
 62
     7
100
AcDbCircle
 10
132.957671
 20
88.559754
 30
0.0
 40
0.4998449311232972
100
AcDbArc
 50
59.988998
 51
120.010622
  0
LINE
  5
645
330
166
100
AcDbEntity
  8
0
 62
     7
100
AcDbLine
 10
157.990854
 20
74.402919
 30
0.0
 11
158.023516
 21
72.242099
 31
0.0
  0
LINE
  5
646
330
166
100
AcDbEntity
  8
0
 62
     7
100
AcDbLine
 10
157.786551
 20
74.798408
 30
0.0
 11
159.877666
 21
73.591103
 31
0.0
  0
ARC
  5
647
330
166
100
AcDbEntity
  8
0
 62
     7
100
AcDbCircle
 10
159.62771
 20
73.158122
 30
0.0
 40
0.4999490695959155
100
AcDbArc
 50
0.868987
 51
60.002544
  0
LINE
  5
648
330
166
100
AcDbEntity
  8
0
 62
     7
100
AcDbLine
 10
160.127601
 20
73.165704
 30
0.0
 11
160.164703
 21
70.711137
 31
0.0
  0
LINE
  5
649
330
166
100
AcDbEntity
  8
0
 62
     7
100
AcDbLine
 10
145.316826
 20
76.232991
 30
0.0
 11
142.004866
 21
74.32083
 31
0.0
  0
LINE
  5
64A
330
166
100
AcDbEntity
  8
0
 62
     7
100
AcDbLine
 10
142.004866
 20
74.32083
 30
0.0
 11
138.692621
 21
76.232991
 31
0.0
  0
LINE
  5
64B
330
166
100
AcDbEntity
  8
0
 62
     7
100
AcDbLine
 10
198.558878
 20
22.164348
 30
0.0
 11
196.023901
 21
23.627918
 31
0.0
  0
ELLIPSE
  5
64C
330
166
100
AcDbEntity
  8
0
 62
     7
100
AcDbEllipse
 10
200.043808
 20
23.021669
 30
0.0
 11
2.099999904632568
 21
3.654980831879762E-12
 31
0.0
210
0.0
220
0.0
230
1.0
 40
0.57735
 41
3.135453273745742
 42
6.277045927324942
  0
LINE
  5
64D
330
166
100
AcDbEntity
  8
0
 62
     7
100
AcDbLine
 10
202.246454
 20
27.220511
 30
0.0
 11
201.787047
 21
26.955272
 31
0.0
  0
ELLIPSE
  5
64E
330
166
100
AcDbEntity
  8
0
 62
     7
100
AcDbEllipse
 10
201.892853
 20
27.424627
 30
0.0
 11
-0.5000380873680115
 21
-5.092697531045021E-12
 31
0.0
210
0.0
220
0.0
230
1.0
 40
0.577306
 41
2.356232566389694
 42
3.132817676167076
  0
ELLIPSE
  5
64F
330
166
100
AcDbEntity
  8
0
 62
     7
100
AcDbEllipse
 10
201.892853
 20
27.424627
 30
0.0
 11
-0.5000380873680115
 21
-5.092697531045021E-12
 31
0.0
210
0.0
220
0.0
230
1.0
 40
0.577306
 41
3.132817676167076
 42
3.926952740763854
  0
LINE
  5
650
330
166
100
AcDbEntity
  8
0
 62
     7
100
AcDbLine
 10
202.246454
 20
27.628743
 30
0.0
 11
196.589573
 21
30.894745
 31
0.0
  0
ELLIPSE
  5
651
330
166
100
AcDbEntity
  8
0
 62
     7
100
AcDbEllipse
 10
196.236038
 20
30.690598
 30
0.0
 11
-0.5
 21
-5.135164429098671E-12
 31
0.0
210
0.0
220
0.0
230
1.0
 40
0.577394
 41
3.927028893191128
 42
5.497749067568432
  0
LINE
  5
652
330
166
100
AcDbEntity
  8
0
 62
     7
100
AcDbLine
 10
195.882493
 20
30.894745
 30
0.0
 11
152.042474
 21
5.583699
 31
0.0
  0
ELLIPSE
  5
653
330
166
100
AcDbEntity
  8
0
 62
     7
100
AcDbEllipse
 10
152.396072
 20
5.379582
 30
0.0
 11
0.5000380277633667
 21
0.0
 31
0.0
210
0.0
220
0.0
230
1.0
 40
0.577306
 41
2.356232562227071
 42
3.150367628009884
  0
ELLIPSE
  5
654
330
166
100
AcDbEntity
  8
0
 62
     7
100
AcDbEllipse
 10
152.396072
 20
5.379582
 30
0.0
 11
0.5000380277633667
 21
0.0
 31
0.0
210
0.0
220
0.0
230
1.0
 40
0.577306
 41
3.150367629933922
 42
3.926952738367325
  0
LINE
  5
655
330
166
100
AcDbEntity
  8
0
 62
     7
100
AcDbLine
 10
165.68284
 20
-2.699803
 30
0.0
 11
152.042474
 21
5.175466
 31
0.0
  0
LINE
  5
656
330
166
100
AcDbEntity
  8
0
 62
     7
100
AcDbLine
 10
153.803315
 20
-4.537572
 30
0.0
 11
165.68284
 21
-2.699803
 31
0.0
  0
LINE
  5
657
330
166
100
AcDbEntity
  8
0
 62
     7
100
AcDbLine
 10
144.511156
 20
0.827258
 30
0.0
 11
153.803315
 21
-4.537572
 31
0.0
  0
ELLIPSE
  5
658
330
166
100
AcDbEntity
  8
0
 62
     7
100
AcDbEllipse
 10
144.157623
 20
0.62311
 30
0.0
 11
0.5
 21
0.0
 31
0.0
210
0.0
220
0.0
230
1.0
 40
0.577394
 41
0.7854362419514299
 42
2.356156411609456
  0
LINE
  5
659
330
166
100
AcDbEntity
  8
0
 62
     7
100
AcDbLine
 10
143.804077
 20
0.827258
 30
0.0
 11
109.616067
 21
-18.911199
 31
0.0
  0
ELLIPSE
  5
65A
330
166
100
AcDbEntity
  8
0
 62
     7
100
AcDbEllipse
 10
109.969658
 20
-19.115314
 30
0.0
 11
0.5000380873680115
 21
0.0
 31
0.0
210
0.0
220
0.0
230
1.0
 40
0.577306
 41
2.356232566260765
 42
3.150367633238672
  0
ELLIPSE
  5
65B
330
166
100
AcDbEntity
  8
0
 62
     7
100
AcDbEllipse
 10
109.969658
 20
-19.115314
 30
0.0
 11
0.5000380277633667
 21
0.0
 31
0.0
210
0.0
220
0.0
230
1.0
 40
0.577306
 41
3.150367634986924
 42
3.926952742112503
  0
LINE
  5
65C
330
166
100
AcDbEntity
  8
0
 62
     7
100
AcDbLine
 10
123.256433
 20
-27.194701
 30
0.0
 11
109.616067
 21
-19.319432
 31
0.0
  0
LINE
  5
65D
330
166
100
AcDbEntity
  8
0
 62
     7
100
AcDbLine
 10
111.376908
 20
-29.03247
 30
0.0
 11
123.256433
 21
-27.194701
 31
0.0
  0
LINE
  5
65E
330
166
100
AcDbEntity
  8
0
 62
     7
100
AcDbLine
 10
102.08475
 20
-23.66764
 30
0.0
 11
111.376908
 21
-29.03247
 31
0.0
  0
ELLIPSE
  5
65F
330
166
100
AcDbEntity
  8
0
 62
     7
100
AcDbEllipse
 10
101.731209
 20
-23.871788
 30
0.0
 11
0.5000001192092896
 21
0.0
 31
0.0
210
0.0
220
0.0
230
1.0
 40
0.577394
 41
0.7854362420091743
 42
2.356156412975678
  0
LINE
  5
660
330
166
100
AcDbEntity
  8
0
 62
     7
100
AcDbLine
 10
101.37767
 20
-23.66764
 30
0.0
 11
72.953366
 21
-40.078419
 31
0.0
  0
ELLIPSE
  5
661
330
166
100
AcDbEntity
  8
0
 62
     7
100
AcDbEllipse
 10
73.306961
 20
-40.282536
 30
0.0
 11
0.5000380873680115
 21
0.0
 31
0.0
210
0.0
220
0.0
230
1.0
 40
0.577306
 41
2.356232566404913
 42
3.150367630400797
  0
ELLIPSE
  5
662
330
166
100
AcDbEntity
  8
0
 62
     7
100
AcDbEllipse
 10
73.306961
 20
-40.282536
 30
0.0
 11
0.5000379681587219
 21
0.0
 31
0.0
210
0.0
220
0.0
230
1.0
 40
0.577306
 41
3.15036763191
 42
3.926952742426899
  0
LINE
  5
663
330
166
100
AcDbEntity
  8
0
 62
     7
100
AcDbLine
 10
78.610247
 20
-43.752654
 30
0.0
 11
72.953366
 21
-40.486652
 31
0.0
  0
ELLIPSE
  5
664
330
166
100
AcDbEntity
  8
0
 62
     7
100
AcDbEllipse
 10
78.963783
 20
-43.548508
 30
0.0
 11
0.5000001192092896
 21
0.0
 31
0.0
210
0.0
220
0.0
230
1.0
 40
0.577394
 41
3.927028890691928
 42
5.497749067635945
  0
LINE
  5
665
330
166
100
AcDbEntity
  8
0
 62
     7
100
AcDbLine
 10
84.241553
 20
-40.90965
 30
0.0
 11
79.317327
 21
-43.752654
 31
0.0
  0
LINE
  5
666
330
166
100
AcDbEntity
  8
0
 62
     7
100
AcDbLine
 10
84.241553
 20
-40.90965
 30
0.0
 11
86.422978
 21
-42.169096
 31
0.0
  0
ELLIPSE
  5
667
330
166
100
AcDbEntity
  8
0
 62
     7
100
AcDbEllipse
 10
87.907906
 20
-41.311775
 30
0.0
 11
2.099999904632568
 21
2.141818840339926E-11
 31
0.0
210
0.0
220
0.0
230
1.0
 40
0.57735
 41
3.135453273745743
 42
3.926990816981353
  0
LINE
  5
668
330
166
100
AcDbEntity
  8
0
 62
     7
100
AcDbLine
 10
107.034511
 20
-27.75013
 30
0.0
 11
89.876038
 21
-37.656579
 31
0.0
  0
LINE
  5
669
330
166
100
AcDbEntity
  8
0
 62
     7
100
AcDbLine
 10
110.112155
 20
-29.527009
 30
0.0
 11
107.034511
 21
-27.75013
 31
0.0
  0
ELLIPSE
  5
66A
330
166
100
AcDbEntity
  8
0
 62
     7
100
AcDbEllipse
 10
111.52636
 20
-28.710445
 30
0.0
 11
2.000006914138794
 21
4.397177326609381E-5
 31
0.0
210
0.0
220
0.0
230
1.0
 40
0.577376
 41
3.926987413830325
 42
4.974140997851344
  0
LINE
  5
66B
330
166
100
AcDbEntity
  8
0
 62
     7
100
AcDbLine
 10
129.577734
 20
-27.113368
 30
0.0
 11
112.043933
 21
-29.825856
 31
0.0
  0
ELLIPSE
  5
66C
330
166
100
AcDbEntity
  8
0
 62
     7
100
AcDbEllipse
 10
129.448273
 20
-26.834526
 30
0.0
 11
0.5000438690185547
 21
-3.145635855617002E-5
 31
0.0
210
0.0
220
0.0
230
1.0
 40
0.577308
 41
4.974310629715743
 42
6.273820882031899
  0
ARC
  5
66D
330
166
100
AcDbEntity
  8
0
 62
     7
100
AcDbCircle
 10
129.744298
 20
-26.842826
 30
0.0
 40
0.2045425238514572
100
AcDbArc
 50
1.562742
 51
48.081238
  0
LINE
  5
66E
330
166
100
AcDbEntity
  8
0
 62
     7
100
AcDbLine
 10
124.571188
 20
-21.380071
 30
0.0
 11
129.881325
 21
-26.690208
 31
0.0
  0
LINE
  5
66F
330
166
100
AcDbEntity
  8
0
 62
     7
100
AcDbLine
 10
121.319483
 20
-19.502698
 30
0.0
 11
124.571188
 21
-21.380071
 31
0.0
  0
LINE
  5
670
330
166
100
AcDbEntity
  8
0
 62
     7
100
AcDbLine
 10
126.657354
 20
-16.420877
 30
0.0
 11
121.319483
 21
-19.502698
 31
0.0
  0
LINE
  5
671
330
166
100
AcDbEntity
  8
0
 62
     7
100
AcDbLine
 10
128.838778
 20
-17.680322
 30
0.0
 11
126.657354
 21
-16.420877
 31
0.0
  0
ELLIPSE
  5
672
330
166
100
AcDbEntity
  8
0
 62
     7
100
AcDbEllipse
 10
130.3237
 20
-16.823002
 30
0.0
 11
2.099999904632568
 21
3.664118487789469E-12
 31
0.0
210
0.0
220
0.0
230
1.0
 40
0.57735
 41
3.135453273745747
 42
6.277045927324949
  0
LINE
  5
673
330
166
100
AcDbEntity
  8
0
 62
     7
100
AcDbLine
 10
149.460917
 20
-3.255233
 30
0.0
 11
132.291838
 21
-13.167806
 31
0.0
  0
LINE
  5
674
330
166
100
AcDbEntity
  8
0
 62
     7
100
AcDbLine
 10
152.538562
 20
-5.032112
 30
0.0
 11
149.460917
 21
-3.255233
 31
0.0
  0
ELLIPSE
  5
675
330
166
100
AcDbEntity
  8
0
 62
     7
100
AcDbEllipse
 10
153.952774
 20
-4.215548
 30
0.0
 11
2.000006914138794
 21
4.397177326609381E-5
 31
0.0
210
0.0
220
0.0
230
1.0
 40
0.577376
 41
3.92698741383021
 42
4.974140997850713
  0
LINE
  5
676
330
166
100
AcDbEntity
  8
0
 62
     7
100
AcDbLine
 10
172.00414
 20
-2.61847
 30
0.0
 11
154.47034
 21
-5.330959
 31
0.0
  0
ELLIPSE
  5
677
330
166
100
AcDbEntity
  8
0
 62
     7
100
AcDbEllipse
 10
171.87468
 20
-2.339628
 30
0.0
 11
0.5000438690185547
 21
-3.145635855617002E-5
 31
0.0
210
0.0
220
0.0
230
1.0
 40
0.577308
 41
4.97431062971595
 42
6.273820882031695
  0
ARC
  5
678
330
166
100
AcDbEntity
  8
0
 62
     7
100
AcDbCircle
 10
172.170705
 20
-2.347928
 30
0.0
 40
0.2045425238517281
100
AcDbArc
 50
1.562742
 51
48.081238
  0
LINE
  5
679
330
166
100
AcDbEntity
  8
0
 62
     7
100
AcDbLine
 10
166.997595
 20
3.114827
 30
0.0
 11
172.307732
 21
-2.19531
 31
0.0
  0
LINE
  5
67A
330
166
100
AcDbEntity
  8
0
 62
     7
100
AcDbLine
 10
163.74589
 20
4.9922
 30
0.0
 11
166.997595
 21
3.114827
 31
0.0
  0
LINE
  5
67B
330
166
100
AcDbEntity
  8
0
 62
     7
100
AcDbLine
 10
196.023901
 20
23.627918
 30
0.0
 11
163.74589
 21
4.9922
 31
0.0
  0
LINE
  5
67C
330
166
100
AcDbEntity
  8
0
 62
     7
100
AcDbLine
 10
196.023901
 20
22.009176
 30
0.0
 11
188.786742
 21
17.8308
 31
0.0
  0
LINE
  5
67D
330
166
100
AcDbEntity
  8
0
 62
     7
100
AcDbLine
 10
196.023901
 20
22.009176
 30
0.0
 11
198.57122
 21
20.53848
 31
0.0
  0
ELLIPSE
  5
67E
330
166
100
AcDbEntity
  8
0
 62
     7
100
AcDbEllipse
 10
200.043808
 20
21.388676
 30
0.0
 11
2.082546234130859
 21
0.0
 31
0.0
210
0.0
220
0.0
230
1.0
 40
0.57735
 41
3.926990816988831
 42
6.277045927332422
  0
LINE
  5
67F
330
166
100
AcDbEntity
  8
0
 62
     7
100
AcDbLine
 10
202.22177
 20
25.587518
 30
0.0
 11
202.11706
 21
25.527063
 31
0.0
  0
ELLIPSE
  5
680
330
166
100
AcDbEntity
  8
0
 62
     7
100
AcDbEllipse
 10
201.868179
 20
25.791634
 30
0.0
 11
0.5000380277633667
 21
0.0
 31
0.0
210
0.0
220
0.0
230
1.0
 40
0.577306
 41
5.497825221290305
 42
6.27441033128552
  0
LINE
  5
681
330
166
100
AcDbEntity
  8
0
 62
     7
100
AcDbLine
 10
167.710415
 20
-4.905273
 30
0.0
 11
171.977652
 21
-4.245129
 31
0.0
  0
ELLIPSE
  5
682
330
166
100
AcDbEntity
  8
0
 62
     7
100
AcDbEllipse
 10
171.84819
 20
-3.966287
 30
0.0
 11
0.5000438690185547
 21
-3.145636583212763E-5
 31
0.0
210
0.0
220
0.0
230
1.0
 40
0.577308
 41
4.974310629717793
 42
6.273820882036858
  0
LINE
  5
683
330
166
100
AcDbEntity
  8
0
 62
     7
100
AcDbLine
 10
188.104291
 20
17.436787
 30
0.0
 11
165.147758
 21
4.182827
 31
0.0
  0
LINE
  5
684
330
166
100
AcDbEntity
  8
0
 62
     7
100
AcDbLine
 10
125.284008
 20
-29.40017
 30
0.0
 11
129.551245
 21
-28.740026
 31
0.0
  0
ELLIPSE
  5
685
330
166
100
AcDbEntity
  8
0
 62
     7
100
AcDbEllipse
 10
129.421783
 20
-28.461184
 30
0.0
 11
0.5000438690185547
 21
-3.145636947010644E-5
 31
0.0
210
0.0
220
0.0
230
1.0
 40
0.577308
 41
4.97431062973627
 42
6.273820882039455
  0
LINE
  5
686
330
166
100
AcDbEntity
  8
0
 62
     7
100
AcDbLine
 10
126.657354
 20
-18.039619
 30
0.0
 11
122.721351
 21
-20.312071
 31
0.0
  0
LINE
  5
687
330
166
100
AcDbEntity
  8
0
 62
     7
100
AcDbLine
 10
126.657354
 20
-18.039619
 30
0.0
 11
128.85112
 21
-19.30619
 31
0.0
  0
ELLIPSE
  5
688
330
166
100
AcDbEntity
  8
0
 62
     7
100
AcDbEllipse
 10
130.3237
 20
-18.455994
 30
0.0
 11
2.082546234130859
 21
0.0
 31
0.0
210
0.0
220
0.0
230
1.0
 40
0.57735
 41
3.926990816988837
 42
6.277045927332426
  0
LINE
  5
689
330
166
100
AcDbEntity
  8
0
 62
     7
100
AcDbLine
 10
145.677884
 20
-7.05811
 30
0.0
 11
132.401297
 21
-14.723352
 31
0.0
  0
ELLIPSE
  5
68A
330
166
100
AcDbEntity
  8
0
 62
     7
100
AcDbEllipse
 10
73.331642
 20
-41.915527
 30
0.0
 11
0.5000379681587219
 21
0.0
 31
0.0
210
0.0
220
0.0
230
1.0
 40
0.577306
 41
3.150367632442145
 42
3.926952743193071
  0
LINE
  5
68B
330
166
100
AcDbEntity
  8
0
 62
     7
100
AcDbLine
 10
78.610247
 20
-45.371396
 30
0.0
 11
72.978049
 21
-42.119645
 31
0.0
  0
ELLIPSE
  5
68C
330
166
100
AcDbEntity
  8
0
 62
     7
100
AcDbEllipse
 10
78.963783
 20
-45.167248
 30
0.0
 11
0.5
 21
0.0
 31
0.0
210
0.0
220
0.0
230
1.0
 40
0.577394
 41
3.927028893293317
 42
5.49774906757043
  0
LINE
  5
68D
330
166
100
AcDbEntity
  8
0
 62
     7
100
AcDbLine
 10
84.241553
 20
-42.528392
 30
0.0
 11
79.317327
 21
-45.371396
 31
0.0
  0
LINE
  5
68E
330
166
100
AcDbEntity
  8
0
 62
     7
100
AcDbLine
 10
84.241553
 20
-42.528392
 30
0.0
 11
86.43532
 21
-43.794964
 31
0.0
  0
ELLIPSE
  5
68F
330
166
100
AcDbEntity
  8
0
 62
     7
100
AcDbEllipse
 10
87.907906
 20
-42.944767
 30
0.0
 11
2.082546234130859
 21
0.0
 31
0.0
210
0.0
220
0.0
230
1.0
 40
0.57735
 41
3.926990816990428
 42
6.277045927346467
  0
LINE
  5
690
330
166
100
AcDbEntity
  8
0
 62
     7
100
AcDbLine
 10
103.251477
 20
-31.553008
 30
0.0
 11
89.985496
 21
-39.212125
 31
0.0
  0
LINE
  5
691
330
166
100
AcDbEntity
  8
0
 62
     7
100
AcDbLine
 10
107.034511
 20
-29.368873
 30
0.0
 11
103.933928
 21
-31.158995
 31
0.0
  0
LINE
  5
692
330
166
100
AcDbEntity
  8
0
 62
     7
100
AcDbLine
 10
149.460917
 20
-4.873975
 30
0.0
 11
146.360335
 21
-6.664097
 31
0.0
  0
LINE
  5
693
330
166
100
AcDbEntity
  8
0
 62
     7
100
AcDbLine
 10
112.076273
 20
-39.88073
 30
0.0
 11
125.108675
 21
-37.86461
 31
0.0
  0
LINE
  5
694
330
166
100
AcDbEntity
  8
0
 62
     7
100
AcDbLine
 10
125.284008
 20
-29.40017
 30
0.0
 11
125.108675
 21
-37.86461
 31
0.0
  0
LINE
  5
695
330
166
100
AcDbEntity
  8
0
 62
     7
100
AcDbLine
 10
129.577734
 20
-27.113368
 30
0.0
 11
129.551245
 21
-28.740026
 31
0.0
  0
LINE
  5
696
330
166
100
AcDbEntity
  8
0
 62
     7
100
AcDbLine
 10
112.043933
 20
-29.825856
 30
0.0
 11
112.076273
 21
-39.88073
 31
0.0
  0
LINE
  5
697
330
166
100
AcDbEntity
  8
0
 62
     7
100
AcDbLine
 10
107.034511
 20
-29.368873
 30
0.0
 11
107.034511
 21
-27.75013
 31
0.0
  0
LINE
  5
698
330
166
100
AcDbEntity
  8
0
 62
     7
100
AcDbLine
 10
110.112155
 20
-29.527009
 30
0.0
 11
110.144495
 21
-39.581883
 31
0.0
  0
LINE
  5
699
330
166
100
AcDbEntity
  8
0
 62
     7
100
AcDbLine
 10
104.003578
 20
-36.036423
 30
0.0
 11
110.144495
 21
-39.581883
 31
0.0
  0
LINE
  5
69A
330
166
100
AcDbEntity
  8
0
 62
     7
100
AcDbLine
 10
103.805575
 20
-39.650559
 30
0.0
 11
103.933928
 21
-31.158995
 31
0.0
  0
LINE
  5
69B
330
166
100
AcDbEntity
  8
0
 62
     7
100
AcDbLine
 10
103.805575
 20
-39.650559
 30
0.0
 11
103.251477
 21
-39.970467
 31
0.0
  0
LINE
  5
69C
330
166
100
AcDbEntity
  8
0
 62
     7
100
AcDbLine
 10
103.251477
 20
-31.553008
 30
0.0
 11
103.251477
 21
-39.970467
 31
0.0
  0
LINE
  5
69D
330
166
100
AcDbEntity
  8
0
 62
     7
100
AcDbLine
 10
79.317327
 20
-43.752654
 30
0.0
 11
79.317327
 21
-45.371396
 31
0.0
  0
LINE
  5
69E
330
166
100
AcDbEntity
  8
0
 62
     7
100
AcDbLine
 10
84.241553
 20
-42.528392
 30
0.0
 11
84.241553
 21
-40.90965
 31
0.0
  0
LINE
  5
69F
330
166
100
AcDbEntity
  8
0
 62
     7
100
AcDbLine
 10
78.610247
 20
-43.752654
 30
0.0
 11
78.610247
 21
-45.371396
 31
0.0
  0
LINE
  5
6A0
330
166
100
AcDbEntity
  8
0
 62
     7
100
AcDbLine
 10
72.953366
 20
-40.486652
 30
0.0
 11
72.978049
 21
-42.119645
 31
0.0
  0
LINE
  5
6A1
330
166
100
AcDbEntity
  8
0
 62
     7
100
AcDbLine
 10
109.616067
 20
-19.319432
 30
0.0
 11
109.748674
 21
-28.09243
 31
0.0
  0
LINE
  5
6A2
330
166
100
AcDbEntity
  8
0
 62
     7
100
AcDbLine
 10
152.042474
 20
5.175466
 30
0.0
 11
152.175081
 21
-3.597533
 31
0.0
  0
LINE
  5
6A3
330
166
100
AcDbEntity
  8
0
 62
     7
100
AcDbLine
 10
196.023901
 20
22.009176
 30
0.0
 11
196.023901
 21
23.627918
 31
0.0
  0
LINE
  5
6A4
330
166
100
AcDbEntity
  8
0
 62
     7
100
AcDbLine
 10
188.658388
 20
9.339236
 30
0.0
 11
188.786742
 21
17.8308
 31
0.0
  0
LINE
  5
6A5
330
166
100
AcDbEntity
  8
0
 62
     7
100
AcDbLine
 10
188.658388
 20
9.339236
 30
0.0
 11
188.104291
 21
9.019327
 31
0.0
  0
LINE
  5
6A6
330
166
100
AcDbEntity
  8
0
 62
     7
100
AcDbLine
 10
188.104291
 20
17.436787
 30
0.0
 11
188.104291
 21
9.019327
 31
0.0
  0
LINE
  5
6A7
330
166
100
AcDbEntity
  8
0
 62
     7
100
AcDbLine
 10
202.246454
 20
27.220511
 30
0.0
 11
202.22177
 21
25.587518
 31
0.0
  0
LINE
  5
6A8
330
166
100
AcDbEntity
  8
0
 62
     7
100
AcDbLine
 10
154.50268
 20
-15.385832
 30
0.0
 11
167.535082
 21
-13.369713
 31
0.0
  0
LINE
  5
6A9
330
166
100
AcDbEntity
  8
0
 62
     7
100
AcDbLine
 10
167.710415
 20
-4.905273
 30
0.0
 11
167.535082
 21
-13.369713
 31
0.0
  0
LINE
  5
6AA
330
166
100
AcDbEntity
  8
0
 62
     7
100
AcDbLine
 10
172.00414
 20
-2.61847
 30
0.0
 11
171.977652
 21
-4.245129
 31
0.0
  0
LINE
  5
6AB
330
166
100
AcDbEntity
  8
0
 62
     7
100
AcDbLine
 10
154.47034
 20
-5.330959
 30
0.0
 11
154.50268
 21
-15.385832
 31
0.0
  0
LINE
  5
6AC
330
166
100
AcDbEntity
  8
0
 62
     7
100
AcDbLine
 10
149.460917
 20
-4.873975
 30
0.0
 11
149.460917
 21
-3.255233
 31
0.0
  0
LINE
  5
6AD
330
166
100
AcDbEntity
  8
0
 62
     7
100
AcDbLine
 10
152.538562
 20
-5.032112
 30
0.0
 11
152.570902
 21
-15.086985
 31
0.0
  0
LINE
  5
6AE
330
166
100
AcDbEntity
  8
0
 62
     7
100
AcDbLine
 10
146.429985
 20
-11.541525
 30
0.0
 11
152.570902
 21
-15.086985
 31
0.0
  0
LINE
  5
6AF
330
166
100
AcDbEntity
  8
0
 62
     7
100
AcDbLine
 10
126.657354
 20
-18.039619
 30
0.0
 11
126.657354
 21
-16.420877
 31
0.0
  0
LINE
  5
6B0
330
166
100
AcDbEntity
  8
0
 62
     7
100
AcDbLine
 10
146.231982
 20
-15.155662
 30
0.0
 11
146.360335
 21
-6.664097
 31
0.0
  0
LINE
  5
6B1
330
166
100
AcDbEntity
  8
0
 62
     7
100
AcDbLine
 10
146.231982
 20
-15.155662
 30
0.0
 11
145.677884
 21
-15.47557
 31
0.0
  0
LINE
  5
6B2
330
166
100
AcDbEntity
  8
0
 62
     7
100
AcDbLine
 10
145.677884
 20
-7.05811
 30
0.0
 11
145.677884
 21
-15.47557
 31
0.0
  0
ELLIPSE
  5
6B3
330
166
100
AcDbEntity
  8
0
 62
     7
100
AcDbEllipse
 10
87.907906
 20
-38.017036
 30
0.0
 11
-2.064785242080688
 21
-8.259180557350365E-13
 31
0.0
210
0.0
220
0.0
230
1.0
 40
0.57735
 41
6.277045927341196
 42
9.430988618029444
  0
ELLIPSE
  5
6B4
330
166
100
AcDbEntity
  8
0
 62
     7
100
AcDbEllipse
 10
87.907906
 20
-38.017036
 30
0.0
 11
-2.064785242080688
 21
-8.259180557350365E-13
 31
0.0
210
0.0
220
0.0
230
1.0
 40
0.57735
 41
5.497787143781911
 42
6.277045927341196
  0
ELLIPSE
  5
6B5
330
166
100
AcDbEntity
  8
0
 62
     7
100
AcDbEllipse
 10
87.907906
 20
-41.311775
 30
0.0
 11
-2.099999904632568
 21
-8.036330932312263E-13
 31
0.0
210
0.0
220
0.0
230
1.0
 40
0.57735
 41
3.135453273756838
 42
3.147803310849865
  0
ELLIPSE
  5
6B6
330
166
100
AcDbEntity
  8
0
 62
     7
100
AcDbEllipse
 10
87.907906
 20
-41.311775
 30
0.0
 11
-2.099999904632568
 21
-8.036330932312263E-13
 31
0.0
210
0.0
220
0.0
230
1.0
 40
0.57735
 41
0.7853981633972206
 42
3.135453273756838
  0
ELLIPSE
  5
6B7
330
166
100
AcDbEntity
  8
0
 62
     7
100
AcDbEllipse
 10
87.907906
 20
-38.017036
 30
0.0
 11
-2.064785242080688
 21
-8.259180557350365E-13
 31
0.0
210
0.0
220
0.0
230
1.0
 40
0.57735
 41
3.147803310849865
 42
3.926990816987013
  0
LINE
  5
6B8
330
166
100
AcDbEntity
  8
0
 62
     7
100
AcDbLine
 10
89.039273
 20
-36.984343
 30
0.0
 11
89.367926
 21
-37.174091
 31
0.0
  0
ELLIPSE
  5
6B9
330
166
100
AcDbEntity
  8
0
 62
     7
100
AcDbEllipse
 10
87.907906
 20
-37.637539
 30
0.0
 11
-1.600000023841858
 21
-6.265027559237968E-13
 31
0.0
210
0.0
220
0.0
230
1.0
 40
0.57735
 41
5.497787143781914
 42
10.2101761241666
  0
ELLIPSE
  5
6BA
330
166
100
AcDbEntity
  8
0
 62
     7
100
AcDbEllipse
 10
87.907906
 20
-37.637539
 30
0.0
 11
-1.600000023841858
 21
-6.265027559237968E-13
 31
0.0
210
0.0
220
0.0
230
1.0
 40
0.57735
 41
3.926990816987014
 42
5.497787143781914
  0
LINE
  5
6BB
330
166
100
AcDbEntity
  8
0
 62
     7
100
AcDbLine
 10
86.43532
 20
-43.794964
 30
0.0
 11
86.422978
 21
-42.169096
 31
0.0
  0
LINE
  5
6BC
330
166
100
AcDbEntity
  8
0
 62
     7
100
AcDbLine
 10
128.85112
 20
-19.30619
 30
0.0
 11
128.838778
 21
-17.680322
 31
0.0
  0
ELLIPSE
  5
6BD
330
166
100
AcDbEntity
  8
0
 62
     7
100
AcDbEllipse
 10
130.3237
 20
-16.823002
 30
0.0
 11
2.099999904632568
 21
3.664118487789469E-12
 31
0.0
210
0.0
220
0.0
230
1.0
 40
0.57735
 41
6.27704592733142
 42
6.289395964438078
  0
ELLIPSE
  5
6BE
330
166
100
AcDbEntity
  8
0
 62
     7
100
AcDbEllipse
 10
130.3237
 20
-13.528262
 30
0.0
 11
-2.064785242080688
 21
-8.213332900082471E-13
 31
0.0
210
0.0
220
0.0
230
1.0
 40
0.57735
 41
6.2770459273412
 42
9.43098861802945
  0
ELLIPSE
  5
6BF
330
166
100
AcDbEntity
  8
0
 62
     7
100
AcDbEllipse
 10
130.3237
 20
-13.528262
 30
0.0
 11
-2.064785242080688
 21
-8.213332900082471E-13
 31
0.0
210
0.0
220
0.0
230
1.0
 40
0.57735
 41
5.497787143781911
 42
6.2770459273412
  0
ELLIPSE
  5
6C0
330
166
100
AcDbEntity
  8
0
 62
     7
100
AcDbEllipse
 10
130.3237
 20
-13.528262
 30
0.0
 11
-2.064785242080688
 21
-8.213332900082471E-13
 31
0.0
210
0.0
220
0.0
230
1.0
 40
0.57735
 41
3.147803310849869
 42
3.926990816987014
  0
LINE
  5
6C1
330
166
100
AcDbEntity
  8
0
 62
     7
100
AcDbLine
 10
131.455073
 20
-12.495569
 30
0.0
 11
131.783726
 21
-12.685317
 31
0.0
  0
ELLIPSE
  5
6C2
330
166
100
AcDbEntity
  8
0
 62
     7
100
AcDbEllipse
 10
130.3237
 20
-13.148767
 30
0.0
 11
-1.600000023841858
 21
-6.229500422449963E-13
 31
0.0
210
0.0
220
0.0
230
1.0
 40
0.57735
 41
5.497787143781912
 42
10.2101761241666
  0
ELLIPSE
  5
6C3
330
166
100
AcDbEntity
  8
0
 62
     7
100
AcDbEllipse
 10
130.3237
 20
-13.148767
 30
0.0
 11
-1.600000023841858
 21
-6.229500422449963E-13
 31
0.0
210
0.0
220
0.0
230
1.0
 40
0.57735
 41
3.926990816987014
 42
5.497787143781911
  0
LINE
  5
6C4
330
166
100
AcDbEntity
  8
0
 62
     7
100
AcDbLine
 10
198.57122
 20
20.53848
 30
0.0
 11
198.558878
 21
22.164348
 31
0.0
  0
ELLIPSE
  5
6C5
330
166
100
AcDbEntity
  8
0
 62
     7
100
AcDbEllipse
 10
200.043808
 20
23.021669
 30
0.0
 11
2.099999904632568
 21
3.654980831879762E-12
 31
0.0
210
0.0
220
0.0
230
1.0
 40
0.57735
 41
6.277045927331412
 42
6.289395964438065
  0
ELLIPSE
  5
6C6
330
166
100
AcDbEntity
  8
0
 62
     7
100
AcDbEllipse
 10
200.043808
 20
26.316408
 30
0.0
 11
-2.064785242080688
 21
-8.167485242814576E-13
 31
0.0
210
0.0
220
0.0
230
1.0
 40
0.57735
 41
6.2770459273412
 42
9.430988618029449
  0
ELLIPSE
  5
6C7
330
166
100
AcDbEntity
  8
0
 62
     7
100
AcDbEllipse
 10
200.043808
 20
26.316408
 30
0.0
 11
-2.064785242080688
 21
-8.084960110253669E-13
 31
0.0
210
0.0
220
0.0
230
1.0
 40
0.57735
 41
5.497787143781911
 42
6.2770459273412
  0
ELLIPSE
  5
6C8
330
166
100
AcDbEntity
  8
0
 62
     7
100
AcDbEllipse
 10
200.043808
 20
26.316408
 30
0.0
 11
-2.064785242080688
 21
-8.167485242814576E-13
 31
0.0
210
0.0
220
0.0
230
1.0
 40
0.57735
 41
3.147803310849869
 42
3.926990816987014
  0
LINE
  5
6C9
330
166
100
AcDbEntity
  8
0
 62
     7
100
AcDbLine
 10
201.175174
 20
27.349101
 30
0.0
 11
201.503826
 21
27.159353
 31
0.0
  0
ELLIPSE
  5
6CA
330
166
100
AcDbEntity
  8
0
 62
     7
100
AcDbEllipse
 10
200.043808
 20
26.695904
 30
0.0
 11
-1.600000023841858
 21
-6.400030787452604E-13
 31
0.0
210
0.0
220
0.0
230
1.0
 40
0.57735
 41
5.497787143781912
 42
10.21017612416659
  0
ELLIPSE
  5
6CB
330
166
100
AcDbEntity
  8
0
 62
     7
100
AcDbEllipse
 10
200.043808
 20
26.695904
 30
0.0
 11
-1.600000023841858
 21
-6.400030787452604E-13
 31
0.0
210
0.0
220
0.0
230
1.0
 40
0.57735
 41
3.926990816987024
 42
5.497787143781911
  0
ELLIPSE
  5
6CC
330
166
100
AcDbEntity
  8
0
 62
     7
100
AcDbEllipse
 10
111.558701
 20
-38.76532
 30
0.0
 11
2.000006914138794
 21
4.397178054205142E-5
 31
0.0
210
0.0
220
0.0
230
1.0
 40
0.577376
 41
3.926987413828297
 42
4.974140997848949
  0
ELLIPSE
  5
6CD
330
166
100
AcDbEntity
  8
0
 62
     7
100
AcDbEllipse
 10
124.979195
 20
-37.58577
 30
0.0
 11
0.5000710487365723
 21
-3.296843715361319E-5
 31
0.0
210
0.0
220
0.0
230
1.0
 40
0.577274
 41
4.974330444648934
 42
6.271146761277957
  0
ELLIPSE
  5
6CE
330
166
100
AcDbEntity
  8
0
 62
     7
100
AcDbEllipse
 10
97.39415
 20
-36.588703
 30
0.0
 11
0.5000381469726562
 21
0.0
 31
0.0
210
0.0
220
0.0
230
1.0
 40
0.577306
 41
3.150367632296349
 42
3.926952739321131
  0
LINE
  5
6CF
330
166
100
AcDbEntity
  8
0
 62
     7
100
AcDbLine
 10
97.040553
 20
-36.792821
 30
0.0
 11
102.544398
 21
-39.970467
 31
0.0
  0
ELLIPSE
  5
6D0
330
166
100
AcDbEntity
  8
0
 62
     7
100
AcDbEllipse
 10
102.897934
 20
-39.766319
 30
0.0
 11
0.5000002384185791
 21
0.0
 31
0.0
210
0.0
220
0.0
230
1.0
 40
0.577394
 41
3.927028889527871
 42
5.497749068308339
  0
ELLIPSE
  5
6D1
330
166
100
AcDbEntity
  8
0
 62
     7
100
AcDbEllipse
 10
103.451981
 20
-39.446442
 30
0.0
 11
0.5000380873680115
 21
6.788373682620197E-12
 31
0.0
210
0.0
220
0.0
230
1.0
 40
0.577306
 41
5.497825219982799
 42
6.274410327205342
  0
LINE
  5
6D2
330
166
100
AcDbEntity
  8
0
 62
     7
100
AcDbLine
 10
102.544398
 20
-31.961241
 30
0.0
 11
102.544398
 21
-39.970467
 31
0.0
  0
LINE
  5
6D3
330
166
100
AcDbEntity
  8
0
 62
     7
100
AcDbLine
 10
97.040553
 20
-36.792821
 30
0.0
 11
97.01577
 21
-35.153204
 31
0.0
  0
ELLIPSE
  5
6D4
330
166
100
AcDbEntity
  8
0
 62
     7
100
AcDbEllipse
 10
153.985107
 20
-14.270422
 30
0.0
 11
2.000006914138794
 21
4.397178054205142E-5
 31
0.0
210
0.0
220
0.0
230
1.0
 40
0.577376
 41
3.926987413828125
 42
4.974140997848886
  0
ELLIPSE
  5
6D5
330
166
100
AcDbEntity
  8
0
 62
     7
100
AcDbEllipse
 10
167.405609
 20
-13.090874
 30
0.0
 11
0.5000710487365723
 21
-3.296843715361319E-5
 31
0.0
210
0.0
220
0.0
230
1.0
 40
0.577274
 41
4.974330444653406
 42
6.271146761278533
  0
ELLIPSE
  5
6D6
330
166
100
AcDbEntity
  8
0
 62
     7
100
AcDbEllipse
 10
139.820557
 20
-12.093807
 30
0.0
 11
0.500038206577301
 21
0.0
 31
0.0
210
0.0
220
0.0
230
1.0
 40
0.577306
 41
3.150367628450319
 42
3.92695273662065
  0
LINE
  5
6D7
330
166
100
AcDbEntity
  8
0
 62
     7
100
AcDbLine
 10
139.46696
 20
-12.297924
 30
0.0
 11
144.970805
 21
-15.47557
 31
0.0
  0
ELLIPSE
  5
6D8
330
166
100
AcDbEntity
  8
0
 62
     7
100
AcDbEllipse
 10
145.324341
 20
-15.271422
 30
0.0
 11
0.5000001192092896
 21
0.0
 31
0.0
210
0.0
220
0.0
230
1.0
 40
0.577394
 41
3.92702888952114
 42
5.497749070130512
  0
ELLIPSE
  5
6D9
330
166
100
AcDbEntity
  8
0
 62
     7
100
AcDbEllipse
 10
145.878387
 20
-14.951546
 30
0.0
 11
0.5000380873680115
 21
6.740491411555416E-12
 31
0.0
210
0.0
220
0.0
230
1.0
 40
0.577306
 41
5.497825219984871
 42
6.274410327207778
  0
LINE
  5
6DA
330
166
100
AcDbEntity
  8
0
 62
     7
100
AcDbLine
 10
144.970805
 20
-7.466344
 30
0.0
 11
144.970805
 21
-15.47557
 31
0.0
  0
LINE
  5
6DB
330
166
100
AcDbEntity
  8
0
 62
     7
100
AcDbLine
 10
139.46696
 20
-12.297924
 30
0.0
 11
139.442176
 21
-10.658307
 31
0.0
  0
ELLIPSE
  5
6DC
330
166
100
AcDbEntity
  8
0
 62
     7
100
AcDbEllipse
 10
196.79007
 20
20.157808
 30
0.0
 11
0.5000379681587219
 21
0.0
 31
0.0
210
0.0
220
0.0
230
1.0
 40
0.577306
 41
5.497825222677313
 42
6.274410330463835
  0
ELLIPSE
  5
6DD
330
166
100
AcDbEntity
  8
0
 62
     7
100
AcDbEllipse
 10
182.246964
 20
12.40109
 30
0.0
 11
0.5000379681587219
 21
0.0
 31
0.0
210
0.0
220
0.0
230
1.0
 40
0.577306
 41
3.150367628213858
 42
3.926952737421834
  0
LINE
  5
6DE
330
166
100
AcDbEntity
  8
0
 62
     7
100
AcDbLine
 10
181.893367
 20
12.196974
 30
0.0
 11
187.397211
 21
9.019327
 31
0.0
  0
ELLIPSE
  5
6DF
330
166
100
AcDbEntity
  8
0
 62
     7
100
AcDbEllipse
 10
187.750748
 20
9.223475
 30
0.0
 11
0.5
 21
0.0
 31
0.0
210
0.0
220
0.0
230
1.0
 40
0.577394
 41
3.927028893230484
 42
5.497749067535091
  0
ELLIPSE
  5
6E0
330
166
100
AcDbEntity
  8
0
 62
     7
100
AcDbEllipse
 10
188.304794
 20
9.543352
 30
0.0
 11
0.5000381469726562
 21
0.0
 31
0.0
210
0.0
220
0.0
230
1.0
 40
0.577306
 41
5.497825216589143
 42
6.274410322766665
  0
LINE
  5
6E1
330
166
100
AcDbEntity
  8
0
 62
     7
100
AcDbLine
 10
188.890175
 20
15.188534
 30
0.0
 11
197.14367
 21
19.953691
 31
0.0
  0
LINE
  5
6E2
330
166
100
AcDbEntity
  8
0
 62
     7
100
AcDbLine
 10
187.397211
 20
17.028554
 30
0.0
 11
187.397211
 21
9.019327
 31
0.0
  0
LINE
  5
6E3
330
166
100
AcDbEntity
  8
0
 62
     7
100
AcDbLine
 10
181.893367
 20
12.196974
 30
0.0
 11
181.868583
 21
13.836591
 31
0.0
  0
LINE
  5
6E4
330
166
100
AcDbEntity
  8
0
 62
     7
100
AcDbLine
 10
197.164783
 20
21.35047
 30
0.0
 11
197.14367
 21
19.953691
 31
0.0
  0
LINE
  5
6E5
330
166
100
AcDbEntity
  8
0
 62
     7
100
AcDbLine
 10
72.831624
 20
-41.918062
 30
0.0
 11
72.806941
 21
-40.285069
 31
0.0
  0
LINE
  5
6E6
330
166
100
AcDbEntity
  8
0
 62
     7
100
AcDbLine
 10
129.921804
 20
-28.463919
 30
0.0
 11
129.948293
 21
-26.83726
 31
0.0
  0
LINE
  5
6E7
330
166
100
AcDbEntity
  8
0
 62
     7
100
AcDbLine
 10
172.348211
 20
-3.969021
 30
0.0
 11
172.3747
 21
-2.342363
 31
0.0
  0
LINE
  5
6E8
330
166
100
AcDbEntity
  8
0
 62
     7
100
AcDbLine
 10
202.368196
 20
25.789101
 30
0.0
 11
202.392879
 21
27.422094
 31
0.0
  0
LINE
  5
6E9
330
166
100
AcDbEntity
  8
0
 62
     7
100
AcDbLine
 10
85.843156
 20
-38.009717
 30
0.0
 11
85.807942
 21
-41.304331
 31
0.0
  0
LINE
  5
6EA
330
166
100
AcDbEntity
  8
0
 62
     7
100
AcDbLine
 10
89.972648
 20
-38.009632
 30
0.0
 11
90.007862
 21
-41.304245
 31
0.0
  0
LINE
  5
6EB
330
166
100
AcDbEntity
  8
0
 62
     7
100
AcDbLine
 10
86.776531
 20
-36.984343
 30
0.0
 11
86.447879
 21
-37.174091
 31
0.0
  0
LINE
  5
6EC
330
166
100
AcDbEntity
  8
0
 62
     7
100
AcDbLine
 10
89.990409
 20
-42.95215
 30
0.0
 11
90.007863
 21
-41.319218
 31
0.0
  0
LINE
  5
6ED
330
166
100
AcDbEntity
  8
0
 62
     7
100
AcDbLine
 10
132.406209
 20
-18.463376
 30
0.0
 11
132.423663
 21
-16.830445
 31
0.0
  0
LINE
  5
6EE
330
166
100
AcDbEntity
  8
0
 62
     7
100
AcDbLine
 10
128.258956
 20
-13.520943
 30
0.0
 11
128.223742
 21
-16.815558
 31
0.0
  0
LINE
  5
6EF
330
166
100
AcDbEntity
  8
0
 62
     7
100
AcDbLine
 10
132.388448
 20
-13.520858
 30
0.0
 11
132.423662
 21
-16.815471
 31
0.0
  0
LINE
  5
6F0
330
166
100
AcDbEntity
  8
0
 62
     7
100
AcDbLine
 10
129.192332
 20
-12.495569
 30
0.0
 11
128.863679
 21
-12.685317
 31
0.0
  0
LINE
  5
6F1
330
166
100
AcDbEntity
  8
0
 62
     7
100
AcDbLine
 10
202.12631
 20
21.381294
 30
0.0
 11
202.143763
 21
23.014226
 31
0.0
  0
LINE
  5
6F2
330
166
100
AcDbEntity
  8
0
 62
     7
100
AcDbLine
 10
197.979056
 20
26.323727
 30
0.0
 11
197.943842
 21
23.029113
 31
0.0
  0
LINE
  5
6F3
330
166
100
AcDbEntity
  8
0
 62
     7
100
AcDbLine
 10
202.108548
 20
26.323812
 30
0.0
 11
202.143762
 21
23.029199
 31
0.0
  0
LINE
  5
6F4
330
166
100
AcDbEntity
  8
0
 62
     7
100
AcDbLine
 10
198.912432
 20
27.349101
 30
0.0
 11
198.583779
 21
27.159353
 31
0.0
  0
LINE
  5
6F5
330
166
100
AcDbEntity
  8
0
 62
     7
100
AcDbLine
 10
181.726446
 20
13.754527
 30
0.0
 11
181.746942
 21
12.398557
 31
0.0
  0
LINE
  5
6F6
330
166
100
AcDbEntity
  8
0
 62
     7
100
AcDbLine
 10
152.030441
 20
-3.514025
 30
0.0
 11
151.896049
 21
5.377049
 31
0.0
  0
LINE
  5
6F7
330
166
100
AcDbEntity
  8
0
 62
     7
100
AcDbLine
 10
139.300039
 20
-10.74037
 30
0.0
 11
139.320535
 21
-12.096341
 31
0.0
  0
LINE
  5
6F8
330
166
100
AcDbEntity
  8
0
 62
     7
100
AcDbLine
 10
109.604034
 20
-28.008922
 30
0.0
 11
109.469642
 21
-19.117848
 31
0.0
  0
LINE
  5
6F9
330
166
100
AcDbEntity
  8
0
 62
     7
100
AcDbLine
 10
96.873632
 20
-35.235268
 30
0.0
 11
96.894128
 21
-36.591238
 31
0.0
  0
LINE
  5
6FA
330
166
100
AcDbEntity
  8
0
 62
     7
100
AcDbLine
 10
104.078568
 20
-31.075487
 30
0.0
 11
103.952
 21
-39.448976
 31
0.0
  0
LINE
  5
6FB
330
166
100
AcDbEntity
  8
0
 62
     7
100
AcDbLine
 10
125.479231
 20
-37.589279
 30
0.0
 11
125.650034
 21
-29.343546
 31
0.0
  0
LINE
  5
6FC
330
166
100
AcDbEntity
  8
0
 62
     7
100
AcDbLine
 10
146.504975
 20
-6.580589
 30
0.0
 11
146.378407
 21
-14.954079
 31
0.0
  0
LINE
  5
6FD
330
166
100
AcDbEntity
  8
0
 62
     7
100
AcDbLine
 10
167.905638
 20
-13.094382
 30
0.0
 11
168.076441
 21
-4.848649
 31
0.0
  0
LINE
  5
6FE
330
166
100
AcDbEntity
  8
0
 62
     7
100
AcDbLine
 10
188.931382
 20
17.914308
 30
0.0
 11
188.804813
 21
9.540819
 31
0.0
  0
LINE
  5
6FF
330
166
100
AcDbEntity
  8
0
 62
     7
100
AcDbLine
 10
197.290095
 20
20.155274
 30
0.0
 11
197.30692
 21
21.268406
 31
0.0
  0
ENDBLK
  5
168
330
166
100
AcDbEntity
  8
0
100
AcDbBlockEnd
  0
ENDSEC
  0
SECTION
  2
ENTITIES
  0
INSERT
  5
700
330
1F
100
AcDbEntity
  8
0
100
AcDbBlockReference
  2
BLOCK696
 10
0.0
 20
0.0
 30
0.0
  0
INSERT
  5
701
330
1F
100
AcDbEntity
  8
0
100
AcDbBlockReference
  2
BLOCK697
 10
0.0
 20
0.0
 30
0.0
  0
INSERT
  5
702
330
1F
100
AcDbEntity
  8
0
100
AcDbBlockReference
  2
BLOCK698
 10
0.0
 20
0.0
 30
0.0
  0
INSERT
  5
703
330
1F
100
AcDbEntity
  8
0
100
AcDbBlockReference
  2
BLOCK699
 10
0.0
 20
0.0
 30
0.0
  0
INSERT
  5
704
330
1F
100
AcDbEntity
  8
0
100
AcDbBlockReference
  2
BLOCK700
 10
0.0
 20
0.0
 30
0.0
  0
INSERT
  5
705
330
1F
100
AcDbEntity
  8
0
100
AcDbBlockReference
  2
BLOCK701
 10
0.0
 20
0.0
 30
0.0
  0
INSERT
  5
706
330
1F
100
AcDbEntity
  8
0
100
AcDbBlockReference
  2
BLOCK702
 10
0.0
 20
0.0
 30
0.0
  0
INSERT
  5
707
330
1F
100
AcDbEntity
  8
0
100
AcDbBlockReference
  2
BLOCK703
 10
0.0
 20
0.0
 30
0.0
  0
INSERT
  5
708
330
1F
100
AcDbEntity
  8
0
100
AcDbBlockReference
  2
BLOCK704
 10
0.0
 20
0.0
 30
0.0
  0
INSERT
  5
709
330
1F
100
AcDbEntity
  8
0
100
AcDbBlockReference
  2
BLOCK705
 10
0.0
 20
0.0
 30
0.0
  0
INSERT
  5
70A
330
1F
100
AcDbEntity
  8
0
100
AcDbBlockReference
  2
BLOCK706
 10
0.0
 20
0.0
 30
0.0
  0
INSERT
  5
70B
330
1F
100
AcDbEntity
  8
0
100
AcDbBlockReference
  2
BLOCK707
 10
0.0
 20
0.0
 30
0.0
  0
INSERT
  5
70C
330
1F
100
AcDbEntity
  8
0
100
AcDbBlockReference
  2
BLOCK708
 10
0.0
 20
0.0
 30
0.0
  0
INSERT
  5
70D
330
1F
100
AcDbEntity
  8
0
100
AcDbBlockReference
  2
BLOCK709
 10
0.0
 20
0.0
 30
0.0
  0
INSERT
  5
70E
330
1F
100
AcDbEntity
  8
0
100
AcDbBlockReference
  2
BLOCK710
 10
0.0
 20
0.0
 30
0.0
  0
INSERT
  5
70F
330
1F
100
AcDbEntity
  8
0
100
AcDbBlockReference
  2
BLOCK711
 10
0.0
 20
0.0
 30
0.0
  0
INSERT
  5
710
330
1F
100
AcDbEntity
  8
0
100
AcDbBlockReference
  2
BLOCK712
 10
0.0
 20
0.0
 30
0.0
  0
INSERT
  5
711
330
1F
100
AcDbEntity
  8
0
100
AcDbBlockReference
  2
BLOCK713
 10
0.0
 20
0.0
 30
0.0
  0
INSERT
  5
712
330
1F
100
AcDbEntity
  8
0
100
AcDbBlockReference
  2
BLOCK714
 10
0.0
 20
0.0
 30
0.0
  0
INSERT
  5
713
330
1F
100
AcDbEntity
  8
0
100
AcDbBlockReference
  2
BLOCK715
 10
0.0
 20
0.0
 30
0.0
  0
INSERT
  5
714
330
1F
100
AcDbEntity
  8
0
100
AcDbBlockReference
  2
BLOCK716
 10
0.0
 20
0.0
 30
0.0
  0
INSERT
  5
715
330
1F
100
AcDbEntity
  8
0
100
AcDbBlockReference
  2
BLOCK717
 10
0.0
 20
0.0
 30
0.0
  0
INSERT
  5
716
330
1F
100
AcDbEntity
  8
0
100
AcDbBlockReference
  2
BLOCK718
 10
0.0
 20
0.0
 30
0.0
  0
INSERT
  5
717
330
1F
100
AcDbEntity
  8
0
100
AcDbBlockReference
  2
BLOCK719
 10
0.0
 20
0.0
 30
0.0
  0
INSERT
  5
718
330
1F
100
AcDbEntity
  8
0
100
AcDbBlockReference
  2
BLOCK720
 10
0.0
 20
0.0
 30
0.0
  0
INSERT
  5
719
330
1F
100
AcDbEntity
  8
0
100
AcDbBlockReference
  2
BLOCK721
 10
0.0
 20
0.0
 30
0.0
  0
INSERT
  5
71A
330
1F
100
AcDbEntity
  8
0
100
AcDbBlockReference
  2
BLOCK722
 10
0.0
 20
0.0
 30
0.0
  0
INSERT
  5
71B
330
1F
100
AcDbEntity
  8
0
100
AcDbBlockReference
  2
BLOCK723
 10
0.0
 20
0.0
 30
0.0
  0
INSERT
  5
71C
330
1F
100
AcDbEntity
  8
0
100
AcDbBlockReference
  2
BLOCK724
 10
0.0
 20
0.0
 30
0.0
  0
INSERT
  5
71D
330
1F
100
AcDbEntity
  8
0
100
AcDbBlockReference
  2
BLOCK725
 10
0.0
 20
0.0
 30
0.0
  0
INSERT
  5
71E
330
1F
100
AcDbEntity
  8
0
100
AcDbBlockReference
  2
BLOCK726
 10
0.0
 20
0.0
 30
0.0
  0
INSERT
  5
71F
330
1F
100
AcDbEntity
  8
0
100
AcDbBlockReference
  2
BLOCK727
 10
0.0
 20
0.0
 30
0.0
  0
INSERT
  5
720
330
1F
100
AcDbEntity
  8
0
100
AcDbBlockReference
  2
BLOCK728
 10
0.0
 20
0.0
 30
0.0
  0
INSERT
  5
721
330
1F
100
AcDbEntity
  8
0
100
AcDbBlockReference
  2
BLOCK729
 10
0.0
 20
0.0
 30
0.0
  0
INSERT
  5
722
330
1F
100
AcDbEntity
  8
0
100
AcDbBlockReference
  2
BLOCK730
 10
0.0
 20
0.0
 30
0.0
  0
INSERT
  5
723
330
1F
100
AcDbEntity
  8
0
100
AcDbBlockReference
  2
BLOCK731
 10
0.0
 20
0.0
 30
0.0
  0
INSERT
  5
724
330
1F
100
AcDbEntity
  8
0
100
AcDbBlockReference
  2
BLOCK732
 10
0.0
 20
0.0
 30
0.0
  0
INSERT
  5
725
330
1F
100
AcDbEntity
  8
0
100
AcDbBlockReference
  2
BLOCK733
 10
0.0
 20
0.0
 30
0.0
  0
INSERT
  5
726
330
1F
100
AcDbEntity
  8
0
100
AcDbBlockReference
  2
BLOCK734
 10
0.0
 20
0.0
 30
0.0
  0
INSERT
  5
727
330
1F
100
AcDbEntity
  8
0
100
AcDbBlockReference
  2
BLOCK735
 10
0.0
 20
0.0
 30
0.0
  0
INSERT
  5
728
330
1F
100
AcDbEntity
  8
0
100
AcDbBlockReference
  2
BLOCK736
 10
0.0
 20
0.0
 30
0.0
  0
INSERT
  5
729
330
1F
100
AcDbEntity
  8
0
100
AcDbBlockReference
  2
BLOCK737
 10
0.0
 20
0.0
 30
0.0
  0
INSERT
  5
72A
330
1F
100
AcDbEntity
  8
0
100
AcDbBlockReference
  2
BLOCK738
 10
0.0
 20
0.0
 30
0.0
  0
INSERT
  5
72B
330
1F
100
AcDbEntity
  8
0
100
AcDbBlockReference
  2
BLOCK739
 10
0.0
 20
0.0
 30
0.0
  0
INSERT
  5
72C
330
1F
100
AcDbEntity
  8
0
100
AcDbBlockReference
  2
BLOCK740
 10
0.0
 20
0.0
 30
0.0
  0
INSERT
  5
72D
330
1F
100
AcDbEntity
  8
0
100
AcDbBlockReference
  2
BLOCK741
 10
0.0
 20
0.0
 30
0.0
  0
INSERT
  5
72E
330
1F
100
AcDbEntity
  8
0
100
AcDbBlockReference
  2
BLOCK742
 10
0.0
 20
0.0
 30
0.0
  0
INSERT
  5
72F
330
1F
100
AcDbEntity
  8
0
100
AcDbBlockReference
  2
BLOCK743
 10
0.0
 20
0.0
 30
0.0
  0
INSERT
  5
730
330
1F
100
AcDbEntity
  8
0
100
AcDbBlockReference
  2
BLOCK744
 10
0.0
 20
0.0
 30
0.0
  0
INSERT
  5
731
330
1F
100
AcDbEntity
  8
0
100
AcDbBlockReference
  2
BLOCK745
 10
0.0
 20
0.0
 30
0.0
  0
INSERT
  5
732
330
1F
100
AcDbEntity
  8
0
100
AcDbBlockReference
  2
BLOCK746
 10
0.0
 20
0.0
 30
0.0
  0
INSERT
  5
733
330
1F
100
AcDbEntity
  8
0
100
AcDbBlockReference
  2
BLOCK747
 10
0.0
 20
0.0
 30
0.0
  0
INSERT
  5
734
330
1F
100
AcDbEntity
  8
0
100
AcDbBlockReference
  2
BLOCK748
 10
0.0
 20
0.0
 30
0.0
  0
INSERT
  5
735
330
1F
100
AcDbEntity
  8
0
100
AcDbBlockReference
  2
BLOCK749
 10
0.0
 20
0.0
 30
0.0
  0
INSERT
  5
736
330
1F
100
AcDbEntity
  8
0
100
AcDbBlockReference
  2
BLOCK750
 10
0.0
 20
0.0
 30
0.0
  0
INSERT
  5
737
330
1F
100
AcDbEntity
  8
0
100
AcDbBlockReference
  2
BLOCK751
 10
0.0
 20
0.0
 30
0.0
  0
INSERT
  5
738
330
1F
100
AcDbEntity
  8
0
100
AcDbBlockReference
  2
BLOCK752
 10
0.0
 20
0.0
 30
0.0
  0
INSERT
  5
739
330
1F
100
AcDbEntity
  8
0
100
AcDbBlockReference
  2
BLOCK753
 10
0.0
 20
0.0
 30
0.0
  0
INSERT
  5
73A
330
1F
100
AcDbEntity
  8
0
100
AcDbBlockReference
  2
BLOCK754
 10
0.0
 20
0.0
 30
0.0
  0
INSERT
  5
73B
330
1F
100
AcDbEntity
  8
0
100
AcDbBlockReference
  2
BLOCK755
 10
0.0
 20
0.0
 30
0.0
  0
LINE
  5
73C
330
1F
100
AcDbEntity
  8
0
 62
     7
100
AcDbLine
 10
15.0
 20
5.0
 30
0.0
 11
415.0
 21
5.0
 31
0.0
  0
LINE
  5
73D
330
1F
100
AcDbEntity
  8
0
 62
     7
100
AcDbLine
 10
415.0
 20
5.0
 30
0.0
 11
415.0
 21
292.0
 31
0.0
  0
LINE
  5
73E
330
1F
100
AcDbEntity
  8
0
 62
     7
100
AcDbLine
 10
415.0
 20
292.0
 30
0.0
 11
15.0
 21
292.0
 31
0.0
  0
LINE
  5
73F
330
1F
100
AcDbEntity
  8
0
 62
     7
100
AcDbLine
 10
15.0
 20
292.0
 30
0.0
 11
15.0
 21
5.0
 31
0.0
  0
LINE
  5
740
330
1F
100
AcDbEntity
  8
0
 62
     7
100
AcDbLine
 10
20.0
 20
10.0
 30
0.0
 11
410.0
 21
10.0
 31
0.0
  0
LINE
  5
741
330
1F
100
AcDbEntity
  8
0
 62
     7
100
AcDbLine
 10
410.0
 20
10.0
 30
0.0
 11
410.0
 21
287.0
 31
0.0
  0
LINE
  5
742
330
1F
100
AcDbEntity
  8
0
 62
     7
100
AcDbLine
 10
410.0
 20
287.0
 30
0.0
 11
20.0
 21
287.0
 31
0.0
  0
LINE
  5
743
330
1F
100
AcDbEntity
  8
0
 62
     7
100
AcDbLine
 10
20.0
 20
287.0
 30
0.0
 11
20.0
 21
10.0
 31
0.0
  0
LINE
  5
744
330
1F
100
AcDbEntity
  8
0
 62
     7
100
AcDbLine
 10
215.0
 20
287.0
 30
0.0
 11
215.0
 21
292.0
 31
0.0
  0
LINE
  5
745
330
1F
100
AcDbEntity
  8
0
 62
     7
100
AcDbLine
 10
215.0
 20
10.0
 30
0.0
 11
215.0
 21
5.0
 31
0.0
  0
LINE
  5
746
330
1F
100
AcDbEntity
  8
0
 62
     7
100
AcDbLine
 10
20.0
 20
148.5
 30
0.0
 11
15.0
 21
148.5
 31
0.0
  0
LINE
  5
747
330
1F
100
AcDbEntity
  8
0
 62
     7
100
AcDbLine
 10
410.0
 20
148.5
 30
0.0
 11
415.0
 21
148.5
 31
0.0
  0
LINE
  5
748
330
1F
100
AcDbEntity
  8
0
 62
     7
100
AcDbLine
 10
265.0
 20
10.0
 30
0.0
 11
265.0
 21
5.0
 31
0.0
  0
LINE
  5
749
330
1F
100
AcDbEntity
  8
0
 62
     7
100
AcDbLine
 10
165.0
 20
10.0
 30
0.0
 11
165.0
 21
5.0
 31
0.0
  0
LINE
  5
74A
330
1F
100
AcDbEntity
  8
0
 62
     7
100
AcDbLine
 10
315.0
 20
10.0
 30
0.0
 11
315.0
 21
5.0
 31
0.0
  0
LINE
  5
74B
330
1F
100
AcDbEntity
  8
0
 62
     7
100
AcDbLine
 10
115.0
 20
10.0
 30
0.0
 11
115.0
 21
5.0
 31
0.0
  0
LINE
  5
74C
330
1F
100
AcDbEntity
  8
0
 62
     7
100
AcDbLine
 10
365.0
 20
10.0
 30
0.0
 11
365.0
 21
5.0
 31
0.0
  0
LINE
  5
74D
330
1F
100
AcDbEntity
  8
0
 62
     7
100
AcDbLine
 10
65.0
 20
10.0
 30
0.0
 11
65.0
 21
5.0
 31
0.0
  0
LINE
  5
74E
330
1F
100
AcDbEntity
  8
0
 62
     7
100
AcDbLine
 10
265.0
 20
287.0
 30
0.0
 11
265.0
 21
292.0
 31
0.0
  0
LINE
  5
74F
330
1F
100
AcDbEntity
  8
0
 62
     7
100
AcDbLine
 10
165.0
 20
287.0
 30
0.0
 11
165.0
 21
292.0
 31
0.0
  0
LINE
  5
750
330
1F
100
AcDbEntity
  8
0
 62
     7
100
AcDbLine
 10
315.0
 20
287.0
 30
0.0
 11
315.0
 21
292.0
 31
0.0
  0
LINE
  5
751
330
1F
100
AcDbEntity
  8
0
 62
     7
100
AcDbLine
 10
115.0
 20
287.0
 30
0.0
 11
115.0
 21
292.0
 31
0.0
  0
LINE
  5
752
330
1F
100
AcDbEntity
  8
0
 62
     7
100
AcDbLine
 10
365.0
 20
287.0
 30
0.0
 11
365.0
 21
292.0
 31
0.0
  0
LINE
  5
753
330
1F
100
AcDbEntity
  8
0
 62
     7
100
AcDbLine
 10
65.0
 20
287.0
 30
0.0
 11
65.0
 21
292.0
 31
0.0
  0
LINE
  5
754
330
1F
100
AcDbEntity
  8
0
 62
     7
100
AcDbLine
 10
20.0
 20
196.33
 30
0.0
 11
15.0
 21
196.33
 31
0.0
  0
LINE
  5
755
330
1F
100
AcDbEntity
  8
0
 62
     7
100
AcDbLine
 10
20.0
 20
100.67
 30
0.0
 11
15.0
 21
100.67
 31
0.0
  0
LINE
  5
756
330
1F
100
AcDbEntity
  8
0
 62
     7
100
AcDbLine
 10
410.0
 20
196.33
 30
0.0
 11
415.0
 21
196.33
 31
0.0
  0
LINE
  5
757
330
1F
100
AcDbEntity
  8
0
 62
     7
100
AcDbLine
 10
410.0
 20
100.67
 30
0.0
 11
415.0
 21
100.67
 31
0.0
  0
LINE
  5
758
330
1F
100
AcDbEntity
  8
0
 62
     7
100
AcDbLine
 10
20.0
 20
244.16
 30
0.0
 11
15.0
 21
244.16
 31
0.0
  0
LINE
  5
759
330
1F
100
AcDbEntity
  8
0
 62
     7
100
AcDbLine
 10
20.0
 20
52.84
 30
0.0
 11
15.0
 21
52.84
 31
0.0
  0
LINE
  5
75A
330
1F
100
AcDbEntity
  8
0
 62
     7
100
AcDbLine
 10
410.0
 20
244.16
 30
0.0
 11
415.0
 21
244.16
 31
0.0
  0
LINE
  5
75B
330
1F
100
AcDbEntity
  8
0
 62
     7
100
AcDbLine
 10
410.0
 20
52.84
 30
0.0
 11
415.0
 21
52.84
 31
0.0
  0
LINE
  5
75C
330
1F
100
AcDbEntity
  8
0
 62
     7
100
AcDbLine
 10
410.0
 20
63.0
 30
0.0
 11
230.0
 21
63.0
 31
0.0
  0
LINE
  5
75D
330
1F
100
AcDbEntity
  8
0
 62
     7
100
AcDbLine
 10
230.0
 20
63.0
 30
0.0
 11
230.0
 21
10.0
 31
0.0
  0
LINE
  5
75E
330
1F
100
AcDbEntity
  8
0
 62
     7
100
AcDbLine
 10
410.0
 20
27.0
 30
0.0
 11
230.0
 21
27.0
 31
0.0
  0
LINE
  5
75F
330
1F
100
AcDbEntity
  8
0
 62
     7
100
AcDbLine
 10
345.0
 20
34.0
 30
0.0
 11
288.5
 21
34.0
 31
0.0
  0
LINE
  5
760
330
1F
100
AcDbEntity
  8
0
 62
     7
100
AcDbLine
 10
288.5
 20
37.5
 30
0.0
 11
230.0
 21
37.5
 31
0.0
  0
LINE
  5
761
330
1F
100
AcDbEntity
  8
0
 62
     7
100
AcDbLine
 10
410.0
 20
41.0
 30
0.0
 11
288.5
 21
41.0
 31
0.0
  0
LINE
  5
762
330
1F
100
AcDbEntity
  8
0
 62
     7
100
AcDbLine
 10
410.0
 20
44.5
 30
0.0
 11
345.0
 21
44.5
 31
0.0
  0
LINE
  5
763
330
1F
100
AcDbEntity
  8
0
 62
     7
100
AcDbLine
 10
410.0
 20
48.0
 30
0.0
 11
230.0
 21
48.0
 31
0.0
  0
LINE
  5
764
330
1F
100
AcDbEntity
  8
0
 62
     7
100
AcDbLine
 10
401.0
 20
10.0
 30
0.0
 11
401.0
 21
27.0
 31
0.0
  0
LINE
  5
765
330
1F
100
AcDbEntity
  8
0
 62
     7
100
AcDbLine
 10
390.0
 20
10.0
 30
0.0
 11
390.0
 21
41.0
 31
0.0
  0
LINE
  5
766
330
1F
100
AcDbEntity
  8
0
 62
     7
100
AcDbLine
 10
345.0
 20
10.0
 30
0.0
 11
345.0
 21
63.0
 31
0.0
  0
LINE
  5
767
330
1F
100
AcDbEntity
  8
0
 62
     7
100
AcDbLine
 10
322.0
 20
27.0
 30
0.0
 11
322.0
 21
48.0
 31
0.0
  0
LINE
  5
768
330
1F
100
AcDbEntity
  8
0
 62
     7
100
AcDbLine
 10
300.0
 20
27.0
 30
0.0
 11
300.0
 21
48.0
 31
0.0
  0
LINE
  5
769
330
1F
100
AcDbEntity
  8
0
 62
     7
100
AcDbLine
 10
288.5
 20
27.0
 30
0.0
 11
288.5
 21
48.0
 31
0.0
  0
LINE
  5
76A
330
1F
100
AcDbEntity
  8
0
 62
     7
100
AcDbLine
 10
324.0
 20
48.0
 30
0.0
 11
324.0
 21
63.0
 31
0.0
  0
LINE
  5
76B
330
1F
100
AcDbEntity
  8
0
 62
     7
100
AcDbLine
 10
300.0
 20
48.0
 30
0.0
 11
300.0
 21
63.0
 31
0.0
  0
LINE
  5
76C
330
1F
100
AcDbEntity
  8
0
 62
     7
100
AcDbLine
 10
268.0
 20
48.0
 30
0.0
 11
268.0
 21
63.0
 31
0.0
  0
LINE
  5
76D
330
1F
100
AcDbEntity
  8
0
 62
     7
100
AcDbLine
 10
249.0
 20
48.0
 30
0.0
 11
249.0
 21
63.0
 31
0.0
  0
LINE
  5
76E
330
1F
100
AcDbEntity
  8
0
 62
     7
100
AcDbLine
 10
410.0
 20
19.0
 30
0.0
 11
401.0
 21
19.0
 31
0.0
  0
ARC
  5
76F
330
1F
100
AcDbEntity
  8
0
 62
     7
100
AcDbCircle
 10
341.3
 20
67.0
 30
0.0
 40
1.8
100
AcDbArc
 50
269.863122
 51
89.954374
  0
ARC
  5
770
330
1F
100
AcDbEntity
  8
0
 62
     7
100
AcDbCircle
 10
331.3
 20
67.0
 30
0.0
 40
1.8
100
AcDbArc
 50
89.954374
 51
269.863122
  0
LINE
  5
771
330
1F
100
AcDbEntity
  8
0
 62
     7
100
AcDbLine
 10
341.3
 20
68.8
 30
0.0
 11
331.3
 21
68.8
 31
0.0
  0
LINE
  5
772
330
1F
100
AcDbEntity
  8
0
 62
     7
100
AcDbLine
 10
341.3
 20
65.2
 30
0.0
 11
331.3
 21
65.2
 31
0.0
  0
DIMENSION
  5
773
102
{ACAD_XDICTIONARY
360
774
102
}
330
1F
100
AcDbEntity
  8
0
 62
     0
100
AcDbDimension
  2
*D61
 10
38.799546
 20
226.531114
 30
0.0
 11
38.799546
 21
126.531114
 31
0.0
 70
   161
 52
90.0
  3
STANDARD
100
AcDbAlignedDimension
 13
59.877587
 23
26.531114
 33
0.0
 14
59.877587
 24
226.531114
 34
0.0
  0
DIMENSION
  5
775
102
{ACAD_XDICTIONARY
360
776
102
}
330
1F
100
AcDbEntity
  8
0
 62
     0
100
AcDbDimension
  2
*D62
 10
59.377606
 20
231.782656
 30
0.0
 11
77.277606
 21
231.782656
 31
0.0
 70
   160
 52
90.0
  3
STANDARD
100
AcDbAlignedDimension
 13
95.177606
 23
226.031133
 33
0.0
 14
59.377606
 24
226.031133
 34
0.0
 50
180.0
100
AcDbRotatedDimension
  0
DIMENSION
  5
777
102
{ACAD_XDICTIONARY
360
778
102
}
330
1F
100
AcDbEntity
  8
0
 62
     0
100
AcDbDimension
  2
*D63
 10
50.390313
 20
226.531114
 30
0.0
 11
50.390313
 21
206.456118
 31
0.0
 70
   160
 52
90.0
  3
STANDARD
100
AcDbAlignedDimension
 13
65.451644
 23
186.381121
 33
0.0
 14
59.877587
 24
226.531114
 34
0.0
 50
90.0
100
AcDbRotatedDimension
  0
DIMENSION
  5
779
102
{ACAD_XDICTIONARY
360
77A
102
}
330
1F
100
AcDbEntity
  8
0
 62
     0
100
AcDbDimension
  2
*D64
 10
50.390313
 20
186.381121
 30
0.0
 11
50.390313
 21
156.381121
 31
0.0
 70
   161
 52
90.0
  3
STANDARD
100
AcDbAlignedDimension
 13
65.451644
 23
126.381121
 33
0.0
 14
65.451644
 24
186.381121
 34
0.0
  0
DIMENSION
  5
77B
102
{ACAD_XDICTIONARY
360
77C
102
}
330
1F
100
AcDbEntity
  8
0
 62
     0
100
AcDbDimension
  2
*D65
 10
50.390313
 20
126.381121
 30
0.0
 11
50.390313
 21
96.381121
 31
0.0
 70
   161
 52
90.0
  3
STANDARD
100
AcDbAlignedDimension
 13
65.451644
 23
66.381121
 33
0.0
 14
65.451644
 24
126.381121
 34
0.0
  0
INSERT
  5
77D
330
1F
100
AcDbEntity
  8
0
100
AcDbBlockReference
  2
BLOCK756
 10
68.377606
 20
26.531114
 30
0.0
  0
INSERT
  5
77E
330
1F
100
AcDbEntity
  8
0
100
AcDbBlockReference
  2
BLOCK757
 10
68.377606
 20
26.531114
 30
0.0
  0
INSERT
  5
77F
330
1F
100
AcDbEntity
  8
0
100
AcDbBlockReference
  2
BLOCK758
 10
68.377606
 20
26.531114
 30
0.0
  0
INSERT
  5
780
330
1F
100
AcDbEntity
  8
0
100
AcDbBlockReference
  2
BLOCK759
 10
68.377606
 20
26.531114
 30
0.0
  0
INSERT
  5
781
330
1F
100
AcDbEntity
  8
0
100
AcDbBlockReference
  2
BLOCK760
 10
68.377606
 20
255.871166
 30
0.0
  0
DIMENSION
  5
782
102
{ACAD_XDICTIONARY
360
783
102
}
330
1F
100
AcDbEntity
  8
0
 62
     0
100
AcDbDimension
  2
*D71
 10
50.717637
 20
251.971166
 30
0.0
 11
50.717637
 21
241.88399
 31
0.0
 70
   160
 52
90.0
  3
STANDARD
100
AcDbAlignedDimension
 13
59.929986
 23
262.371166
 33
0.0
 14
68.426222
 24
251.971166
 34
0.0
 50
270.0
100
AcDbRotatedDimension
  0
INSERT
  5
784
330
1F
100
AcDbEntity
  8
0
100
AcDbBlockReference
  2
BLOCK761
 10
68.377606
 20
255.871166
 30
0.0
  0
DIMENSION
  5
785
102
{ACAD_XDICTIONARY
360
786
102
}
330
1F
100
AcDbEntity
  8
0
 62
     0
100
AcDbDimension
  2
*D73
 10
137.363999
 20
208.419963
 30
0.0
 11
137.363999
 21
120.995963
 31
0.0
 70
   160
 52
90.0
  3
STANDARD
100
AcDbAlignedDimension
 13
150.398721
 23
33.571962
 33
0.0
 14
150.398721
 24
208.419963
 34
0.0
 50
90.0
100
AcDbRotatedDimension
  0
DIMENSION
  5
787
102
{ACAD_XDICTIONARY
360
788
102
}
330
1F
100
AcDbEntity
  8
0
 62
     0
100
AcDbDimension
  2
*D74
 10
149.89874
 20
213.806673
 30
0.0
 11
162.141934
 21
213.806673
 31
0.0
 70
   160
 52
90.0
  3
STANDARD
100
AcDbAlignedDimension
 13
174.385128
 23
150.55459
 33
0.0
 14
149.89874
 24
207.919982
 34
0.0
 50
180.0
100
AcDbRotatedDimension
  0
INSERT
  5
789
330
1F
100
AcDbEntity
  8
0
100
AcDbBlockReference
  2
BLOCK762
 10
47.227082
 20
33.571962
 30
0.0
  0
INSERT
  5
78A
330
1F
100
AcDbEntity
  8
0
100
AcDbBlockReference
  2
BLOCK763
 10
47.227082
 20
33.571962
 30
0.0
  0
INSERT
  5
78B
330
1F
100
AcDbEntity
  8
0
100
AcDbBlockReference
  2
BLOCK764
 10
47.227082
 20
33.571962
 30
0.0
  0
INSERT
  5
78C
330
1F
100
AcDbEntity
  8
0
100
AcDbBlockReference
  2
BLOCK765
 10
47.227082
 20
33.571962
 30
0.0
  0
INSERT
  5
78D
330
1F
100
AcDbEntity
  8
0
100
AcDbBlockReference
  2
BLOCK766
 10
47.227082
 20
253.83176
 30
0.0
  0
DIMENSION
  5
78E
102
{ACAD_XDICTIONARY
360
78F
102
}
330
1F
100
AcDbEntity
  8
0
 62
     0
100
AcDbDimension
  2
*D80
 10
145.152283
 20
243.43176
 30
0.0
 11
145.152283
 21
233.344585
 31
0.0
 70
   160
 52
90.0
  3
STANDARD
100
AcDbAlignedDimension
 13
150.398721
 23
255.83176
 33
0.0
 14
150.506934
 24
243.43176
 34
0.0
 50
270.0
100
AcDbRotatedDimension
  0
DIMENSION
  5
790
102
{ACAD_XDICTIONARY
360
791
102
}
330
1F
100
AcDbEntity
  8
0
 62
     0
100
AcDbDimension
  2
*D81
 10
136.680344
 20
243.43176
 30
0.0
 11
136.680344
 21
251.88176
 31
0.0
 70
   160
 52
90.0
  3
STANDARD
100
AcDbAlignedDimension
 13
161.98374
 23
260.33176
 33
0.0
 14
150.506934
 24
243.43176
 34
0.0
 50
270.0
100
AcDbRotatedDimension
  0
LINE
  5
792
330
1F
100
AcDbEntity
  8
0
  6
DASHDOT
 62
     7
 48
0.195
100
AcDbLine
 10
161.983743
 20
260.981761
 30
0.0
 11
161.983743
 21
253.18176
 31
0.0
  0
INSERT
  5
793
330
1F
100
AcDbEntity
  8
0
100
AcDbBlockReference
  2
BLOCK767
 10
47.227082
 20
253.83176
 30
0.0
  0
INSERT
  5
794
330
1F
100
AcDbEntity
  8
0
100
AcDbBlockReference
  2
BLOCK768
 10
194.858442
 20
143.562544
 30
0.0
  0
ENDSEC
  0
SECTION
  2
OBJECTS
  0
DICTIONARY
  5
C
330
0
100
AcDbDictionary
  3
ACAD_GROUP
350
D
  3
ACAD_MLINESTYLE
350
17
  3
ACAD_SCALELIST
350
47
  3
DWGPROPS
350
795
1001
ACAD
1000
TREAT_AS_HARD
1070
     0
  0
DICTIONARY
  5
774
330
773
100
AcDbDictionary
1001
ACAD
1000
TREAT_AS_HARD
1070
     1
  0
DICTIONARY
  5
776
330
775
100
AcDbDictionary
1001
ACAD
1000
TREAT_AS_HARD
1070
     1
  0
DICTIONARY
  5
778
330
777
100
AcDbDictionary
1001
ACAD
1000
TREAT_AS_HARD
1070
     1
  0
DICTIONARY
  5
77A
330
779
100
AcDbDictionary
1001
ACAD
1000
TREAT_AS_HARD
1070
     1
  0
DICTIONARY
  5
77C
330
77B
100
AcDbDictionary
1001
ACAD
1000
TREAT_AS_HARD
1070
     1
  0
DICTIONARY
  5
783
330
782
100
AcDbDictionary
1001
ACAD
1000
TREAT_AS_HARD
1070
     1
  0
DICTIONARY
  5
786
330
785
100
AcDbDictionary
1001
ACAD
1000
TREAT_AS_HARD
1070
     1
  0
DICTIONARY
  5
788
330
787
100
AcDbDictionary
1001
ACAD
1000
TREAT_AS_HARD
1070
     1
  0
DICTIONARY
  5
78F
330
78E
100
AcDbDictionary
1001
ACAD
1000
TREAT_AS_HARD
1070
     1
  0
DICTIONARY
  5
791
330
790
100
AcDbDictionary
1001
ACAD
1000
TREAT_AS_HARD
1070
     1
  0
DICTIONARY
  5
D
102
{ACAD_REACTORS
330
C
102
}
330
C
100
AcDbDictionary
1001
ACAD
1000
TREAT_AS_HARD
1070
     0
  0
DICTIONARY
  5
17
102
{ACAD_REACTORS
330
C
102
}
330
C
100
AcDbDictionary
  3
STANDARD
350
18
1001
ACAD
1000
TREAT_AS_HARD
1070
     0
  0
DICTIONARY
  5
47
102
{ACAD_REACTORS
330
C
102
}
330
C
100
AcDbDictionary
1001
ACAD
1000
TREAT_AS_HARD
1070
     0
  0
XRECORD
  5
795
102
{ACAD_REACTORS
330
C
102
}
330
C
100
AcDbXrecord
  1
DWGPROPS COOKIE
  2

  3

  4

  6

  7

  8
tokunz
  9

300
=
301
=
302
=
303
=
304
=
305
=
306
=
307
=
308
=
309
=
 40
0.0
 41
0.0
 42
2460396.628717
  1

 90
        0
  0
MLINESTYLE
  5
18
102
{ACAD_REACTORS
330
17
102
}
330
17
100
AcDbMlineStyle
  2
Standard
 70
     0
  3

 62
   256
 51
90.0
 52
90.0
 71
     2
 49
0.5
 62
   256
  6
BYLAYER
 49
-0.5
 62
   256
  6
BYLAYER
  0
ENDSEC
  0
EOF
